osu file format v14

[General]
AudioFilename: 03. French Virgin Party.mp3
AudioLeadIn: 0
PreviewTime: 86976
Countdown: 0
SampleSet: Soft
StackLeniency: 0.9
Mode: 0
LetterboxInBreaks: 0
EpilepsyWarning: 1
WidescreenStoryboard: 0

[Editor]
DistanceSpacing: 1.1
BeatDivisor: 4
GridSize: 4
TimelineZoom: 1.5

[Metadata]
Title:French Virgin Party
TitleUnicode:French Virgin Party
Artist:Glen Check
ArtistUnicode:Glen Check
Creator:Jingshenbing
Version:Alpaca's Normal
Source:
Tags:AlpacaCokelat Haute Couture Nijigen-kun Miramono TheForgotten5 Kioshinxs electronic english
BeatmapID:456657
BeatmapSetID:183511

[Difficulty]
HPDrainRate:4
CircleSize:3
OverallDifficulty:4
ApproachRate:4
SliderMultiplier:0.9
SliderTickRate:2

[Events]
//Background and Video events
0,0,"Glen-Check-BW.jpg",0,0
Video,5774,"French Virgin Party.flv"
//Break Periods
2,49773,54487
2,74708,79422
//Storyboard Layer 0 (Background)
//Storyboard Layer 1 (Fail)
//Storyboard Layer 2 (Pass)
//Storyboard Layer 3 (Foreground)
//Storyboard Layer 4 (Overlay)
//Storyboard Sound Samples

[TimingPoints]
12171,389.61038961039,4,2,1,50,1,0
24638,-100,4,2,1,70,0,0
24735,-100,4,2,1,70,0,0
37106,-100,4,2,1,70,0,0
37203,-100,4,2,1,70,0,0
55807,-100,4,2,1,50,0,0
62041,-100,4,2,1,70,0,1
74508,-100,4,2,1,70,0,0
80742,-100,4,2,1,50,0,0
86976,-100,4,2,1,50,0,1
99346,-100,4,2,1,50,0,1
99443,-100,4,2,1,50,0,0
99541,-100,4,2,1,50,0,0
111911,-100,4,2,1,70,0,1
124378,-100,4,2,1,70,0,0
161781,-100,4,2,1,70,0,1
174248,-100,4,2,1,60,0,0

[Colours]
Combo1 : 255,128,255
Combo2 : 185,185,185
Combo3 : 100,100,100
Combo4 : 255,255,0

[HitObjects]
84,36,12170,5,4,0:0:0:0:
408,36,13729,1,4,0:0:0:0:
408,360,15287,1,4,0:0:0:0:
84,360,16846,1,4,0:0:0:0:
216,64,18404,6,0,P|276:76|316:64,1,90,4|2,0:0|0:0,0:0:0:0:
400,44,19183,1,0,0:0:0:0:
280,204,19963,38,0,P|220:192|180:204,1,90,4|2,0:0|0:0,0:0:0:0:
100,228,20742,1,0,0:0:0:0:
272,328,21521,6,0,P|316:340|376:332,2,90,4|2|0,0:0|0:0|0:0,0:0:0:0:
188,280,22690,1,0,0:0:0:0:
160,184,23080,2,0,L|172:88,2,90,4|6|0,0:0|0:0|0:0,0:0:0:0:
92,256,24248,1,4,0:0:0:0:
188,280,24638,6,0,B|252:304|296:280|296:280|292:204|348:124,1,270,4|0,0:0|0:0,0:0:0:0:
284,52,26196,2,0,B|220:28|176:52|176:52|180:128|124:208,1,270,0|0,0:0|0:0,0:0:0:0:
68,280,27755,6,0,B|168:332|224:236|224:236|304:284,1,270
356,200,29313,2,0,B|280:159|280:159|333:62|244:0,1,270
200,92,30872,38,0,P|100:128|60:192,2,180,4|2|0,0:0|0:0|0:0,0:0:0:0:
300,104,32820,2,0,P|339:124|384:124,2,90,0|0|0,0:0|0:0|0:0,0:0:0:0:
220,160,33989,6,0,B|200:224|200:224|200:280|200:280|180:336,2,180,0|2|0,0:0|0:0|0:0,0:0:0:0:
308,116,35937,2,0,L|391:149,2,90,0|0|0,0:0|0:0|0:0,0:0:0:0:
216,76,37106,38,0,B|117:79|93:159|93:159|17:239,1,270,4|0,0:0|0:0,0:0:0:0:
80,316,38664,2,0,B|178:312|202:232|202:232|278:152,1,270
376,136,40222,6,0,B|392:208|312:252|312:252|336:288|308:380,1,270
220,332,41781,2,0,P|228:296|84:320,1,270
8,236,43339,38,0,P|60:164|152:136,1,180,4|2,0:0|0:0,0:0:0:0:
224,80,44508,1,0,0:0:0:0:
308,132,44898,2,0,P|391:160|443:232,1,180,0|2,0:0|0:0,0:0:0:0:
372,304,46067,1,0,0:0:0:0:
272,308,46456,6,0,B|196:308|196:308|172:320|172:320|92:320,1,180,0|2,0:0|0:0,0:0:0:0:
52,232,47625,1,0,0:0:0:0:
88,140,48015,2,0,B|165:140|165:140|189:152|189:152|265:152,1,180,0|2,0:0|0:0,0:0:0:0:
348,96,49183,1,0,0:0:0:0:
436,144,49573,37,4,0:0:0:0:
304,292,55807,22,0,L|208:292,1,90
132,168,56781,2,0,L|222:168,1,90
272,168,57365,2,0,P|320:152|336:112,1,90
204,52,58339,2,0,L|114:52,1,90
68,76,58924,6,0,P|44:116|48:176,1,90
132,276,59898,2,0,P|156:236|152:176,1,90
192,156,60482,2,0,L|296:172,1,90
384,64,61456,2,0,L|295:50,1,90
244,44,62041,6,0,P|140:48|80:188,1,270,4|0,0:0|0:0,0:0:0:0:
156,248,63599,2,0,P|260:244|320:104,1,270
416,88,65158,6,0,B|436:148|388:272|388:272|404:352,1,270
308,368,66716,2,0,B|291:288|291:288|198:192|193:129,1,270
136,48,68274,38,0,B|92:56|48:40|48:40|20:92|52:136,2,180,4|2|0,0:0|0:0|0:0,0:0:0:0:
236,60,70222,2,0,P|280:68|328:56,1,90,0|2,0:0|0:0,0:0:0:0:
420,36,71002,1,0,0:0:0:0:
392,132,71391,6,0,L|368:324,2,180,0|2|0,0:0|0:0|0:0,0:0:0:0:
316,68,73339,2,0,P|284:84|248:132,1,90,0|2,0:0|0:0,0:0:0:0:
248,224,74119,1,0,0:0:0:0:
248,324,74508,37,4,0:0:0:0:
420,232,80742,22,0,L|436:128,2,90,0|0|2,0:0|0:0|0:0,0:0:0:0:
392,272,81716,2,0,P|340:280|296:252,1,90
288,220,82300,2,0,L|304:116,2,90,0|0|2,0:0|0:0|0:0,0:0:0:0:
256,260,83274,2,0,P|204:268|160:240,1,90
140,212,83859,5,0,0:0:0:0:
100,120,84248,1,0,0:0:0:0:
164,44,84638,1,2,0:0:0:0:
208,64,84833,2,0,P|252:76|304:68,1,90
344,64,85417,38,0,L|328:160,2,90,0|0|6,0:0|0:0|0:0,0:0:0:0:
296,48,86391,2,0,L|204:64,1,90
160,76,86976,22,0,B|68:104|68:104|92:200,1,180,4|2,0:0|0:0,0:0:0:0:
116,280,88145,1,0,0:0:0:0:
216,268,88534,2,0,B|308:240|308:240|284:144,1,180,0|2,0:0|0:0,0:0:0:0:
260,64,89703,1,0,0:0:0:0:
356,40,90093,6,0,L|412:228,1,180,0|2,0:0|0:0,0:0:0:0:
360,300,91261,1,0,0:0:0:0:
272,256,91651,2,0,P|192:220|116:264,1,180,0|2,0:0|0:0,0:0:0:0:
196,320,92820,1,0,0:0:0:0:
118,262,93209,38,0,B|58:238|62:158|62:158|78:122|98:102,1,180,4|2,0:0|0:0,0:0:0:0:
184,84,94378,1,0,0:0:0:0:
284,92,94768,2,0,B|320:88|356:84|408:36|408:36|428:92,1,180,0|2,0:0|0:0,0:0:0:0:
396,172,95937,1,0,0:0:0:0:
376,268,96326,6,0,P|356:308|220:328,1,180,0|2,0:0|0:0,0:0:0:0:
144,296,97495,1,0,0:0:0:0:
176,204,97885,2,0,P|196:164|332:144,1,180,0|2,0:0|0:0,0:0:0:0:
416,144,99054,1,0,0:0:0:0:
412,44,99443,5,4,0:0:0:0:
88,44,101002,1,4,0:0:0:0:
88,368,102560,1,4,0:0:0:0:
412,368,104119,1,4,0:0:0:0:
152,68,105677,6,0,P|112:88|88:144,2,90,4|2|0,0:0|0:0|0:0,0:0:0:0:
348,68,107235,2,0,P|387:87|409:126,2,90,4|2|0,0:0|0:0|0:0,0:0:0:0:
160,128,108794,38,0,L|108:216,2,90,4|2|0,0:0|0:0|0:0,0:0:0:0:
356,128,110352,2,0,L|401:205,2,90,4|2|0,0:0|0:0|0:0,0:0:0:0:
292,52,111521,1,0,0:0:0:0:
192,56,111911,22,0,B|108:56|108:56|72:96|76:156,1,180,4|2,0:0|0:0,0:0:0:0:
76,244,113080,1,0,0:0:0:0:
144,316,113469,2,0,P|192:340|240:336,2,90,0|0|2,0:0|0:0|0:0,0:0:0:0:
208,240,114638,1,0,0:0:0:0:
164,152,115028,6,0,P|240:148|304:232,1,180,0|2,0:0|0:0,0:0:0:0:
352,308,116196,1,0,0:0:0:0:
400,220,116586,2,0,P|392:180|364:128,2,90,0|0|2,0:0|0:0|0:0,0:0:0:0:
352,308,117755,1,0,0:0:0:0:
252,308,118145,38,0,L|64:304,1,180,4|2,0:0|0:0,0:0:0:0:
56,208,119313,1,0,0:0:0:0:
80,112,119703,2,0,P|116:88|172:84,2,90,0|0|2,0:0|0:0|0:0,0:0:0:0:
56,208,120872,1,0,0:0:0:0:
156,208,121261,6,0,L|352:216,1,180,0|2,0:0|0:0,0:0:0:0:
400,140,122430,1,0,0:0:0:0:
356,52,122820,2,0,P|412:44|460:60,2,90,0|0|2,0:0|0:0|0:0,0:0:0:0:
276,112,123989,1,0,0:0:0:0:
196,56,124378,38,0,P|156:56|68:152,1,180,4|2,0:0|0:0,0:0:0:0:
96,248,125547,1,0,0:0:0:0:
164,320,125937,1,0,0:0:0:0:
260,352,126326,2,0,L|360:356,2,90,0|2|0,0:0|0:0|0:0,0:0:0:0:
248,252,127495,6,0,B|392:256|392:256|432:224,1,180,0|2,0:0|0:0,0:0:0:0:
400,136,128664,1,0,0:0:0:0:
316,84,129054,1,0,0:0:0:0:
220,64,129443,2,0,P|176:64|124:96,2,90,0|2|0,0:0|0:0|0:0,0:0:0:0:
320,68,130612,38,0,P|392:76|448:176,1,180,4|2,0:0|0:0,0:0:0:0:
376,228,131781,1,0,0:0:0:0:
292,280,132171,2,0,P|320:312|368:328,2,90,0|0|2,0:0|0:0|0:0,0:0:0:0:
236,200,133339,1,0,0:0:0:0:
212,104,133729,6,0,B|260:36|260:36|304:56|360:48,1,180,0|2,0:0|0:0,0:0:0:0:
452,68,134898,1,0,0:0:0:0:
448,168,135287,2,0,P|440:220|400:256,2,90,0|0|4,0:0|0:0|0:0,0:0:0:0:
452,68,136456,1,0,0:0:0:0:
360,104,136846,5,4,0:0:0:0:
264,72,137235,1,4,0:0:0:0:
172,112,137625,1,4,0:0:0:0:
80,80,138015,1,4,0:0:0:0:
60,176,138404,6,0,P|44:216|48:256,2,67.5,4|4|4,0:0|0:0|0:0,0:0:0:0:
108,156,139183,2,0,P|144:188|196:184,1,90,4|4,0:0|0:0,0:0:0:0:
272,140,139963,37,4,0:0:0:0:
352,84,140352,1,4,0:0:0:0:
432,140,140742,1,4,0:0:0:0:
396,232,141132,1,4,0:0:0:0:
296,232,141521,6,0,L|248:288,2,67.5,4|4|4,0:0|0:0|0:0,0:0:0:0:
324,192,142300,2,0,P|340:152|336:96,1,90,4|4,0:0|0:0,0:0:0:0:
252,60,143080,38,0,L|156:52,1,90,4|4,0:0|0:0,0:0:0:0:
128,144,143859,2,0,L|217:151,1,90,4|4,0:0|0:0,0:0:0:0:
236,248,144638,2,0,L|152:240,2,67.5,4|4|4,0:0|0:0|0:0,0:0:0:0:
284,252,145417,1,4,0:0:0:0:
376,216,145807,1,4,0:0:0:0:
396,120,146196,6,0,P|388:92|328:44,1,90,4|4,0:0|0:0,0:0:0:0:
248,48,146976,2,0,P|213:76|197:117,1,90,4|4,0:0|0:0,0:0:0:0:
196,216,147755,2,0,P|212:257|238:285,2,67.5,4|4|4,0:0|0:0|0:0,0:0:0:0:
208,168,148534,2,0,L|304:168,1,90,4|4,0:0|0:0,0:0:0:0:
396,160,149313,6,0,B|404:116|376:76|376:76|268:76,1,180,4|2,0:0|0:0,0:0:0:0:
188,96,150482,1,0,0:0:0:0:
120,168,150872,2,0,P|100:240|164:336,1,180,0|2,0:0|0:0,0:0:0:0:
240,284,152041,1,0,0:0:0:0:
324,332,152430,22,0,P|371:258|353:172,1,180,4|2,0:0|0:0,0:0:0:0:
288,96,153599,1,0,0:0:0:0:
188,92,153989,2,0,B|168:92|168:92|136:104|136:104|104:104,2,67.5,0|0|0,0:0|0:0|0:0,0:0:0:0:
224,128,154768,2,0,L|224:232,1,90,2|0,0:0|0:0,0:0:0:0:
316,248,155547,38,0,L|316:64,1,180,4|2,0:0|0:0,0:0:0:0:
224,28,156716,1,0,0:0:0:0:
132,68,157106,2,0,L|132:248,1,180,0|2,0:0|0:0,0:0:0:0:
200,320,158274,1,0,0:0:0:0:
300,332,158664,22,0,P|364:328|420:224,1,180,4|2,0:0|0:0,0:0:0:0:
388,144,159833,1,0,0:0:0:0:
316,80,160222,2,0,L|216:56,1,90,4|0,0:0|0:0,0:0:0:0:
180,144,161002,2,0,L|267:165,1,90,6|0,0:0|0:0,0:0:0:0:
348,220,161781,6,0,P|360:272|268:352,1,180,4|2,0:0|0:0,0:0:0:0:
232,264,162950,1,0,0:0:0:0:
136,292,163339,2,0,P|132:252|160:196,1,90
216,132,164119,2,0,P|220:92|192:36,1,90,2|0,0:0|0:0,0:0:0:0:
120,100,164898,5,0,0:0:0:0:
144,196,165287,2,0,P|176:220|232:228,2,90,0|2|0,0:0|0:0|0:0,0:0:0:0:
120,100,166456,2,0,B|168:72|168:72|220:72,1,90
300,72,167235,2,0,B|334:72|334:72|382:100,1,90,2|0,0:0|0:0,0:0:0:0:
408,196,168015,38,0,B|388:280|388:280|348:320|296:312,1,180,4|2,0:0|0:0,0:0:0:0:
204,300,169183,1,0,0:0:0:0:
124,244,169573,1,0,0:0:0:0:
84,152,169963,2,0,P|84:124|120:56,1,90,0|2,0:0|0:0,0:0:0:0:
196,24,170742,1,0,0:0:0:0:
284,64,171132,6,0,P|336:76|384:68,1,90
436,148,171911,2,0,P|424:188|424:248,1,90,2|0,0:0|0:0,0:0:0:0:
360,312,172690,2,0,P|308:300|260:308,2,90,0|0|2,0:0|0:0|0:0,0:0:0:0:
452,280,173859,2,0,L|464:220,2,45,0|0|4,0:0|0:0|0:0,0:0:0:0:
256,292,175028,6,0,L|196:296,2,45,0|0|0,0:0|0:0|0:0,0:0:0:0:
332,228,175807,2,0,P|340:176|292:56,1,180,4|0,0:0|0:0,0:0:0:0:
248,48,176781,2,0,L|184:48,1,45
120,100,177365,6,0,P|112:152|160:272,1,180,4|0,0:0|0:0,0:0:0:0:
204,284,178339,2,0,L|268:296,2,45,0|0|0,0:0|0:0|0:0,0:0:0:0:
156,268,178924,1,4,0:0:0:0:
200,76,179703,1,0,0:0:0:0:
248,76,179898,2,0,L|304:76,2,45,0|0|0,0:0|0:0|0:0,0:0:0:0:
200,76,180482,6,0,B|140:116|140:116|168:156|164:240,1,180,4|0,0:0|0:0,0:0:0:0:
144,316,181651,1,0,0:0:0:0:
244,328,182041,2,0,L|316:336,2,67.5,0|0|0,0:0|0:0|0:0,0:0:0:0:
196,320,182820,2,0,P|176:296|192:232,1,90
236,156,183599,6,0,B|296:136|320:88|320:88|388:128,1,180,4|0,0:0|0:0,0:0:0:0:
412,216,184768,1,0,0:0:0:0:
364,304,185158,2,0,L|300:312,2,45,0|0|0,0:0|0:0|0:0,0:0:0:0:
412,216,185937,2,0,L|456:210,2,45,0|0|0,0:0|0:0|0:0,0:0:0:0:
332,160,186716,5,4,0:0:0:0:
