osu file format v14

[General]
AudioFilename: 03. French Virgin Party.mp3
AudioLeadIn: 0
PreviewTime: 86976
Countdown: 0
SampleSet: Soft
StackLeniency: 0.9
Mode: 0
LetterboxInBreaks: 0
EpilepsyWarning: 1
WidescreenStoryboard: 0

[Editor]
DistanceSpacing: 1.4
BeatDivisor: 4
GridSize: 4
TimelineZoom: 1.5

[Metadata]
Title:French Virgin Party
TitleUnicode:French Virgin Party
Artist:Glen Check
ArtistUnicode:Glen Check
Creator:Jingshenbing
Version:Alpaca's Hard
Source:
Tags:AlpacaCokelat Haute Couture Nijigen-kun Miramono TheForgotten5 Kioshinxs electronic english
BeatmapID:476753
BeatmapSetID:183511

[Difficulty]
HPDrainRate:7
CircleSize:4
OverallDifficulty:6
ApproachRate:8
SliderMultiplier:1.4
SliderTickRate:2

[Events]
//Background and Video events
0,0,"Glen-Check-BW.jpg",0,0
Video,5774,"French Virgin Party.flv"
//Break Periods
2,74708,79992
//Storyboard Layer 0 (Background)
//Storyboard Layer 1 (Fail)
//Storyboard Layer 2 (Pass)
//Storyboard Layer 3 (Foreground)
//Storyboard Layer 4 (Overlay)
//Storyboard Sound Samples

[TimingPoints]
12171,389.61038961039,4,2,1,60,1,0
24638,-100,4,2,1,70,0,0
24735,-100,4,2,1,70,0,0
37106,-100,4,2,1,70,0,0
37203,-100,4,2,1,70,0,0
49573,-133.333333333333,4,2,1,70,0,0
55807,-133.333333333333,4,2,1,60,0,0
62041,-100,4,2,1,70,0,1
74508,-100,4,2,1,70,0,0
80742,-133.333333333333,4,2,1,60,0,0
86976,-100,4,2,1,70,0,1
99346,-100,4,2,1,70,0,1
99443,-100,4,2,1,60,0,0
99541,-100,4,2,1,60,0,0
111911,-100,4,2,1,70,0,1
124378,-100,4,2,1,70,0,0
161781,-100,4,2,1,70,0,1
174248,-100,4,2,1,60,0,0

[Colours]
Combo1 : 255,128,255
Combo2 : 185,185,185
Combo3 : 100,100,100
Combo4 : 255,255,0

[HitObjects]
116,64,12170,6,0,L|208:72,1,70,4|0,0:0|0:0,0:0:0:0:
384,64,12755,2,0,L|292:72,2,70,0|0|0,0:0|0:0|0:0,0:0:0:0:
452,112,13339,1,0,0:0:0:0:
432,192,13534,1,0,0:0:0:0:
392,268,13729,6,0,L|300:276,1,70,4|0,0:0|0:0,0:0:0:0:
128,268,14313,2,0,L|220:276,1,70,0|0,0:0|0:0,0:0:0:0:
104,176,14703,2,0,L|88:136,2,35,2|2|2,0:0|0:0|0:0,0:0:0:0:
188,168,15093,1,0,0:0:0:0:
224,92,15287,38,0,L|304:92,1,70,4|0,0:0|0:0,0:0:0:0:
288,288,15872,2,0,L|218:288,2,70,0|0|0,0:0|0:0|0:0,0:0:0:0:
344,208,16456,2,0,L|372:128,1,70
216,48,16846,6,0,L|192:114,1,70,4|0,0:0|0:0,0:0:0:0:
96,252,17430,1,0,0:0:0:0:
140,180,17625,1,0,0:0:0:0:
188,248,17820,2,0,P|240:264|328:244,1,140
368,176,18404,37,4,0:0:0:0:
328,100,18599,2,0,L|300:60,2,35,0|0|2,0:0|0:0|0:0,0:0:0:0:
224,100,18989,2,0,L|196:60,2,35,0|2|0,0:0|0:0|0:0,0:0:0:0:
160,156,19378,2,0,L|104:200,1,70
48,264,19768,1,0,0:0:0:0:
116,312,19963,5,4,0:0:0:0:
192,272,20158,2,0,L|236:272,2,35,0|0|2,0:0|0:0|0:0,0:0:0:0:
260,192,20547,2,0,L|304:192,2,35,0|2|0,0:0|0:0|0:0,0:0:0:0:
304,104,20937,1,2,0:0:0:0:
304,104,21034,1,2,0:0:0:0:
304,104,21132,1,2,0:0:0:0:
244,44,21326,1,0,0:0:0:0:
244,44,21521,38,0,P|196:40|152:52,1,70,4|0,0:0|0:0,0:0:0:0:
148,56,21813,1,0,0:0:0:0:
124,72,21911,1,2,0:0:0:0:
80,160,22106,2,0,L|80:204,2,35,0|2|0,0:0|0:0|0:0,0:0:0:0:
164,168,22495,1,0,0:0:0:0:
252,208,22690,1,0,0:0:0:0:
348,168,22885,1,0,0:0:0:0:
320,72,23080,6,0,P|256:52|184:80,2,140,4|4|0,0:0|0:0|0:0,0:0:0:0:
256,160,24054,2,0,L|256:236,1,70,2|4,0:0|0:0,0:0:0:0:
96,332,24638,6,0,P|84:276|96:184,1,140,4|0,0:0|0:0,0:0:0:0:
132,104,25222,1,0,0:0:0:0:
60,40,25417,2,0,P|40:80|36:112,1,70
204,160,25807,2,0,P|224:120|228:88,1,70
308,40,26196,6,0,B|344:64|344:64|440:36,1,140
416,132,26781,2,0,L|336:156,2,70,0|0|0,0:0|0:0|0:0,0:0:0:0:
408,228,27365,2,0,L|328:252,1,70,0|0,0:0|0:0,0:0:0:0:
256,296,27755,38,0,P|212:264|124:288,1,140
48,332,28339,1,0,0:0:0:0:
36,236,28534,1,0,0:0:0:0:
72,144,28729,2,0,L|120:80,2,70,0|0|0,0:0|0:0|0:0,0:0:0:0:
176,172,29313,6,0,L|260:56,1,140,0|0,0:0|0:0,0:0:0:0:
356,68,29898,1,0,0:0:0:0:
444,112,30093,1,0,0:0:0:0:
508,36,30287,1,0,0:0:0:0:
444,112,30482,1,0,0:0:0:0:
468,208,30677,1,0,0:0:0:0:
372,212,30872,38,0,P|312:208|236:252,1,140,4|0,0:0|0:0,0:0:0:0:
220,340,31456,2,0,P|184:320|160:288,1,70
128,208,31846,2,0,L|124:132,2,70,0|0|0,0:0|0:0|0:0,0:0:0:0:
228,208,32430,6,0,P|268:192|328:88,1,140
256,44,33015,2,0,L|176:32,1,70
88,112,33404,2,0,L|157:122,2,70,0|0|0,0:0|0:0|0:0,0:0:0:0:
120,204,33989,38,0,L|272:224,1,140,0|0,0:0|0:0,0:0:0:0:
352,188,34573,1,0,0:0:0:0:
388,96,34768,1,0,0:0:0:0:
304,48,34963,2,0,P|272:40|208:48,1,70
144,72,35352,1,0,0:0:0:0:
80,148,35547,6,0,L|100:292,1,140
152,368,36132,1,0,0:0:0:0:
208,288,36326,1,0,0:0:0:0:
296,332,36521,1,0,0:0:0:0:
352,252,36716,1,0,0:0:0:0:
308,164,36911,1,0,0:0:0:0:
220,120,37106,38,0,P|172:108|84:152,1,140,4|0,0:0|0:0,0:0:0:0:
68,236,37690,2,0,L|88:312,1,70
20,164,38080,2,0,L|2:96,2,70,0|0|0,0:0|0:0|0:0,0:0:0:0:
68,236,38664,6,0,P|124:244|200:176,1,140
228,108,39248,1,0,0:0:0:0:
324,84,39443,1,0,0:0:0:0:
408,136,39638,2,0,P|436:168|448:200,2,70,0|0|0,0:0|0:0|0:0,0:0:0:0:
324,84,40222,38,0,P|272:60|184:60,1,140
104,104,40807,1,0,0:0:0:0:
80,200,41002,1,0,0:0:0:0:
176,220,41196,1,0,0:0:0:0:
200,124,41391,1,0,0:0:0:0:
268,56,41586,1,0,0:0:0:0:
268,56,41781,6,0,P|328:52|404:96,1,140
444,176,42365,2,0,P|452:224|444:256,1,70
348,244,42755,2,0,P|344:209|352:175,2,70,0|0|0,0:0|0:0|0:0,0:0:0:0:
404,324,43339,38,0,P|344:284|252:292,1,140,4|0,0:0|0:0,0:0:0:0:
180,304,43924,1,0,0:0:0:0:
92,348,44119,1,0,0:0:0:0:
136,224,44313,2,0,P|184:212|224:224,2,70,0|0|0,0:0|0:0|0:0,0:0:0:0:
36,232,44898,6,0,P|20:188|44:88,1,140
116,44,45482,1,0,0:0:0:0:
204,84,45677,2,0,P|248:92|276:84,1,70
424,88,46067,2,0,P|380:80|352:88,1,70
304,168,46456,38,0,P|308:216|376:288,1,140
436,216,47041,1,0,0:0:0:0:
296,336,47235,1,0,0:0:0:0:
200,324,47430,2,0,L|120:316,2,70,0|0|0,0:0|0:0|0:0,0:0:0:0:
208,224,48015,6,0,B|140:216|140:216|96:132,1,140
164,76,48599,1,0,0:0:0:0:
252,124,48794,1,0,0:0:0:0:
340,76,48989,1,0,0:0:0:0:
252,124,49183,1,0,0:0:0:0:
252,224,49378,1,0,0:0:0:0:
252,224,49476,1,0,0:0:0:0:
252,224,49573,5,4,0:0:0:0:
252,224,49963,1,0,0:0:0:0:
112,60,50352,1,0,0:0:0:0:
112,60,50547,2,0,P|100:120|108:188,1,105.000004005432
180,268,51132,5,0,0:0:0:0:
180,268,51521,1,0,0:0:0:0:
228,116,51911,1,0,0:0:0:0:
228,116,52106,2,0,P|276:120|336:116,1,105.000004005432
440,68,52690,1,0,0:0:0:0:
440,68,53080,1,0,0:0:0:0:
440,252,53469,1,0,0:0:0:0:
440,252,53664,2,0,P|372:240|328:252,1,105.000004005432
176,248,54248,38,0,P|124:239|73:252,1,105.000004005432
73,252,55028,1,0,0:0:0:0:
73,252,55222,2,0,P|60:220|64:144,1,105.000004005432
116,76,55807,6,0,P|180:84|236:72,2,105.000004005432,0|0|2,0:0|0:0|0:0,0:0:0:0:
56,164,56781,2,0,L|76:288,1,105.000004005432
160,308,57365,2,0,B|240:300|240:300|272:312,2,105.000004005432,0|0|2,0:0|0:0|0:0,0:0:0:0:
88,240,58339,2,0,P|76:204|80:124,1,105.000004005432
124,48,58924,37,0,0:0:0:0:
144,64,59313,1,0,0:0:0:0:
164,80,59703,1,2,0:0:0:0:
164,80,59898,2,0,P|220:76|284:88,1,105.000004005432
344,184,60482,2,0,P|288:188|224:176,2,105.000004005432,0|0|2,0:0|0:0|0:0,0:0:0:0:
400,108,61456,2,0,P|432:136|440:200,1,105.000004005432
376,324,62041,38,0,P|309:329|269:275,1,140,4|0,0:0|0:0,0:0:0:0:
204,200,62625,1,0,0:0:0:0:
120,248,62820,2,0,P|96:280|88:316,1,70
128,160,63209,2,0,P|152:128|160:92,1,70
236,36,63599,38,0,P|292:64|368:60,1,140
464,40,64183,1,0,0:0:0:0:
436,136,64378,1,0,0:0:0:0:
436,236,64573,2,0,L|456:312,2,70,0|0|0,0:0|0:0|0:0,0:0:0:0:
352,188,65158,6,0,P|284:180|196:188,1,140
124,228,65742,1,0,0:0:0:0:
88,136,65937,2,0,L|56:56,1,70
124,228,66326,2,0,L|156:308,1,70
244,256,66716,38,0,P|266:221|370:169,1,140
444,152,67300,1,0,0:0:0:0:
384,72,67495,1,0,0:0:0:0:
296,112,67690,1,0,0:0:0:0:
208,68,67885,2,0,P|172:88|140:88,1,70
72,20,68274,6,0,P|48:64|68:156,1,140,4|0,0:0|0:0,0:0:0:0:
128,224,68859,1,0,0:0:0:0:
208,164,69054,1,0,0:0:0:0:
300,200,69248,2,0,P|344:208|380:208,2,70,0|0|0,0:0|0:0|0:0,0:0:0:0:
208,164,69833,38,0,L|80:80,1,140
180,44,70417,2,0,P|224:52|252:44,1,70
436,32,70807,1,0,0:0:0:0:
344,72,71002,1,0,0:0:0:0:
368,168,71196,1,0,0:0:0:0:
336,260,71391,6,0,P|304:236|276:136,1,140
196,84,71976,2,0,L|128:128,1,70
80,200,72365,1,0,0:0:0:0:
56,296,72560,1,0,0:0:0:0:
136,352,72755,1,0,0:0:0:0:
208,284,72950,38,0,P|256:256|344:304,1,140
424,320,73534,1,0,0:0:0:0:
380,208,73729,2,0,P|348:184|312:172,1,70
132,208,74119,2,0,P|164:184|200:172,1,70
256,80,74508,5,4,0:0:0:0:
432,304,80742,22,0,P|448:248|444:192,2,105.000004005432,0|0|2,0:0|0:0|0:0,0:0:0:0:
320,312,81716,2,0,L|208:284,1,105.000004005432
128,184,82300,2,0,P|180:196|232:180,2,105.000004005432,0|0|2,0:0|0:0|0:0,0:0:0:0:
180,88,83274,2,0,P|230:74|280:86,1,105.000004005432,0|0,0:0|0:0,0:0:0:0:
424,104,83859,37,0,0:0:0:0:
432,124,84248,1,0,0:0:0:0:
440,148,84638,1,2,0:0:0:0:
440,148,84833,2,0,P|448:180|432:256,1,105.000004005432
244,252,85417,1,0,0:0:0:0:
236,232,85806,1,0,0:0:0:0:
228,208,86196,1,2,0:0:0:0:
228,208,86391,2,0,P|220:176|236:100,1,105.000004005432
316,56,86976,22,0,L|404:68,1,70,4|0,0:0|0:0,0:0:0:0:
432,152,87365,2,0,L|420:240,1,70,2|0,0:0|0:0,0:0:0:0:
328,216,87755,2,0,L|337:146,1,70,2|0,0:0|0:0,0:0:0:0:
316,56,88145,1,0,0:0:0:0:
316,56,88339,1,0,0:0:0:0:
232,104,88534,5,0,0:0:0:0:
144,60,88729,2,0,P|92:76|64:100,2,70,2|2|0,0:0|0:0|0:0,0:0:0:0:
232,104,89313,2,0,P|244:157|237:193,1,70,2|0,0:0|0:0,0:0:0:0:
180,308,89703,2,0,P|167:254|174:218,1,70,0|0,0:0|0:0,0:0:0:0:
242,172,90093,37,0,0:0:0:0:
340,196,90287,2,0,P|392:192|436:148,2,105,2|2|2,0:0|0:0|0:0,0:0:0:0:
242,172,91067,1,0,0:0:0:0:
184,96,91261,2,0,P|228:80|272:92,1,70
344,112,91651,1,0,0:0:0:0:
241,172,91846,6,0,P|173:188|113:168,2,105,2|2|2,0:0|0:0|0:0,0:0:0:0:
344,112,92625,1,0,0:0:0:0:
260,60,92820,1,0,0:0:0:0:
172,104,93015,1,0,0:0:0:0:
88,56,93209,38,0,P|76:108|84:136,1,70,4|0,0:0|0:0,0:0:0:0:
148,196,93599,2,0,P|160:248|152:276,1,70,2|0,0:0|0:0,0:0:0:0:
72,312,93989,2,0,P|116:356|144:360,1,70,2|0,0:0|0:0,0:0:0:0:
216,336,94378,1,0,0:0:0:0:
300,288,94573,1,0,0:0:0:0:
380,344,94768,5,0,0:0:0:0:
300,288,94963,2,0,L|312:204,2,70,2|2|0,0:0|0:0|0:0,0:0:0:0:
396,264,95547,2,0,L|408:180,1,70,2|0,0:0|0:0,0:0:0:0:
428,100,95937,2,0,P|380:100|344:128,1,70
264,124,96326,37,0,0:0:0:0:
168,112,96521,2,0,P|120:100|56:116,2,105,2|2|2,0:0|0:0|0:0,0:0:0:0:
264,124,97300,1,0,0:0:0:0:
204,204,97495,1,0,0:0:0:0:
284,260,97690,1,0,0:0:0:0:
344,180,97885,5,0,0:0:0:0:
364,152,98274,1,0,0:0:0:0:
368,116,98664,1,0,0:0:0:0:
360,80,99054,1,0,0:0:0:0:
268,44,99248,6,0,L|224:56,2,35,0|0|4,0:0|0:0|0:0,0:0:0:0:
344,180,100028,1,0,0:0:0:0:
292,264,100222,1,0,0:0:0:0:
208,212,100417,1,0,0:0:0:0:
136,144,100612,2,0,L|200:80,1,70
344,52,101002,5,4,0:0:0:0:
344,52,101586,1,0,0:0:0:0:
416,120,101781,1,0,0:0:0:0:
432,216,101976,2,0,L|420:264,2,35,2|2|2,0:0|0:0|0:0,0:0:0:0:
416,120,102365,1,0,0:0:0:0:
320,148,102560,37,4,0:0:0:0:
144,304,103145,1,0,0:0:0:0:
116,212,103339,1,0,0:0:0:0:
148,120,103534,2,0,P|160:76|152:48,2,70,0|0|0,0:0|0:0|0:0,0:0:0:0:
216,192,104119,5,4,0:0:0:0:
216,192,104703,1,0,0:0:0:0:
268,276,104898,1,0,0:0:0:0:
316,192,105093,2,0,P|320:144|296:48,1,140
184,76,105677,37,4,0:0:0:0:
92,44,105872,1,0,0:0:0:0:
92,44,105969,1,0,0:0:0:0:
92,44,106067,1,2,0:0:0:0:
68,140,106261,1,0,0:0:0:0:
68,140,106359,1,2,0:0:0:0:
68,140,106456,1,0,0:0:0:0:
64,240,106651,2,0,L|76:320,2,70,0|0|0,0:0|0:0|0:0,0:0:0:0:
156,200,107235,5,4,0:0:0:0:
236,260,107430,1,0,0:0:0:0:
236,260,107528,1,0,0:0:0:0:
236,260,107625,1,2,0:0:0:0:
304,192,107820,1,0,0:0:0:0:
304,192,107917,1,2,0:0:0:0:
304,192,108015,2,0,P|304:132|296:100,1,70
296,96,108307,1,0,0:0:0:0:
284,72,108404,1,0,0:0:0:0:
188,28,108599,1,0,0:0:0:0:
88,68,108794,38,0,P|72:112|76:148,1,70,4|0,0:0|0:0,0:0:0:0:
80,160,109086,1,0,0:0:0:0:
92,184,109183,2,0,P|108:228|104:264,1,70,2|0,0:0|0:0,0:0:0:0:
104,280,109476,1,2,0:0:0:0:
128,292,109573,2,0,P|184:308|212:308,1,70
276,252,109963,1,0,0:0:0:0:
364,296,110158,1,0,0:0:0:0:
408,208,110352,5,4,0:0:0:0:
408,208,110742,1,4,0:0:0:0:
408,208,111132,1,0,0:0:0:0:
364,120,111326,37,4,0:0:0:0:
364,120,111521,1,4,0:0:0:0:
364,120,111911,22,0,P|328:96|224:88,1,140,4|0,0:0|0:0,0:0:0:0:
144,120,112495,1,0,0:0:0:0:
80,48,112690,1,0,0:0:0:0:
144,120,112885,1,0,0:0:0:0:
48,136,113080,2,0,P|64:176|104:208,1,70
176,224,113469,6,0,P|228:200|328:224,1,140
408,204,114054,2,0,P|416:160|408:112,1,70
360,280,114443,2,0,P|352:324|360:372,2,70,0|0|0,0:0|0:0|0:0,0:0:0:0:
408,204,115028,38,0,B|424:164|412:112|412:112|360:96,1,140
276,68,115612,2,0,P|232:72|200:60,1,70
63,123,116002,2,0,P|98:119|132:128,1,70
48,220,116391,1,0,0:0:0:0:
48,220,116586,6,0,L|184:292,2,140,0|0|0,0:0|0:0|0:0,0:0:0:0:
132,128,117560,1,0,0:0:0:0:
224,160,117755,1,0,0:0:0:0:
300,100,117950,1,0,0:0:0:0:
384,52,118145,38,0,P|400:108|384:204,1,140,4|0,0:0|0:0,0:0:0:0:
344,276,118729,2,0,P|308:244|300:216,1,70
300,100,119119,1,0,0:0:0:0:
224,160,119313,1,0,0:0:0:0:
176,76,119508,1,0,0:0:0:0:
84,40,119703,6,0,P|64:100|72:184,1,140
152,228,120287,1,0,0:0:0:0:
224,160,120482,1,0,0:0:0:0:
252,256,120677,2,0,L|272:332,2,70,0|0|0,0:0|0:0|0:0,0:0:0:0:
324,140,121261,38,0,L|360:276,1,140
436,336,121846,1,0,0:0:0:0:
456,240,122041,2,0,L|438:172,1,70,0|0,0:0|0:0,0:0:0:0:
304,56,122430,2,0,P|260:80|240:116,1,70
292,216,122820,6,0,P|340:224|404:144,2,140,0|0|0,0:0|0:0|0:0,0:0:0:0:
208,168,123794,1,0,0:0:0:0:
120,208,123989,1,0,0:0:0:0:
76,120,124183,1,0,0:0:0:0:
164,80,124378,37,4,0:0:0:0:
256,48,124573,1,0,0:0:0:0:
352,68,124768,2,0,L|440:100,1,70,2|0,0:0|0:0,0:0:0:0:
308,148,125158,2,0,L|372:212,1,70,2|0,0:0|0:0,0:0:0:0:
252,224,125547,1,0,0:0:0:0:
252,324,125742,1,0,0:0:0:0:
148,212,125937,5,0,0:0:0:0:
148,212,126132,2,0,L|192:152,2,70,2|2|0,0:0|0:0|0:0,0:0:0:0:
74,104,126716,2,0,L|136:72,1,70,2|0,0:0|0:0,0:0:0:0:
232,52,127106,2,0,P|272:60|324:40,1,70
396,44,127495,37,0,0:0:0:0:
396,44,127690,2,0,P|408:96|404:168,2,105,2|2|2,0:0|0:0|0:0,0:0:0:0:
296,44,128469,2,0,L|224:52,2,70,0|0|0,0:0|0:0|0:0,0:0:0:0:
316,140,129054,5,0,0:0:0:0:
316,140,129248,2,0,L|180:156,2,105,2|2|2,0:0|0:0|0:0,0:0:0:0:
412,168,130028,2,0,P|432:216|420:256,1,70
372,312,130417,1,0,0:0:0:0:
276,300,130612,38,0,L|176:280,1,70,4|0,0:0|0:0,0:0:0:0:
144,180,131002,2,0,L|212:193,1,70,2|0,0:0|0:0,0:0:0:0:
260,108,131391,1,2,0:0:0:0:
192,40,131586,1,0,0:0:0:0:
260,108,131781,2,0,L|328:121,1,70
404,184,132171,5,0,0:0:0:0:
436,276,132365,2,0,L|456:352,2,70,2|2|0,0:0|0:0|0:0,0:0:0:0:
308,216,132950,2,0,L|328:292,1,70,2|0,0:0|0:0,0:0:0:0:
208,216,133339,2,0,L|190:148,1,70,0|0,0:0|0:0,0:0:0:0:
136,64,133729,37,0,0:0:0:0:
136,64,133924,2,0,L|244:60,2,105,2|2|2,0:0|0:0|0:0,0:0:0:0:
68,136,134703,1,0,0:0:0:0:
96,232,134898,2,0,L|120:304,1,70
204,348,135287,5,4,0:0:0:0:
244,316,135677,1,0,0:0:0:0:
284,288,136067,1,4,0:0:0:0:
328,264,136456,1,0,0:0:0:0:
372,240,136846,5,4,0:0:0:0:
284,64,137235,1,4,0:0:0:0:
100,136,137625,1,4,0:0:0:0:
188,312,138014,1,4,0:0:0:0:
384,304,138404,6,0,P|436:272|448:216,2,105,4|4|4,0:0|0:0|0:0,0:0:0:0:
288,300,139183,2,0,L|136:292,1,140,4|4,0:0|0:0,0:0:0:0:
160,96,139963,37,4,0:0:0:0:
356,84,140352,1,4,0:0:0:0:
368,280,140742,1,4,0:0:0:0:
172,292,141131,1,4,0:0:0:0:
104,108,141521,6,0,B|72:144|72:144|48:212,2,105,4|4|4,0:0|0:0|0:0,0:0:0:0:
200,92,142300,2,0,P|248:100|344:72,1,140,4|4,0:0|0:0,0:0:0:0:
460,232,143080,38,0,L|312:264,1,140,4|4,0:0|0:0,0:0:0:0:
140,196,143859,2,0,L|276:166,1,140,4|4,0:0|0:0,0:0:0:0:
428,44,144638,5,4,0:0:0:0:
284,76,144930,1,4,0:0:0:0:
140,48,145222,1,4,0:0:0:0:
140,48,145417,2,0,P|112:88|100:184,1,140,4|4,0:0|0:0,0:0:0:0:
200,344,146196,38,0,B|224:296|224:296|224:208,1,140,4|4,0:0|0:0,0:0:0:0:
324,40,146976,2,0,B|300:88|300:88|300:176,1,140,4|4,0:0|0:0,0:0:0:0:
420,332,147755,5,4,0:0:0:0:
448,188,148047,1,4,0:0:0:0:
408,48,148339,1,4,0:0:0:0:
408,48,148534,2,0,L|320:40,1,70,4|0,0:0|0:0,0:0:0:0:
336,140,148924,2,0,L|248:132,1,70,4|0,0:0|0:0,0:0:0:0:
216,48,149313,6,0,P|172:76|132:84,1,70,4|0,0:0|0:0,0:0:0:0:
60,112,149703,2,0,P|56:160|64:200,1,70
132,248,150093,1,2,0:0:0:0:
204,180,150287,2,0,P|264:168|288:180,2,70,0|0|0,0:0|0:0|0:0,0:0:0:0:
132,248,150872,2,0,P|184:280|232:276,2,105,0|0|0,0:0|0:0|0:0,0:0:0:0:
76,168,151651,2,0,L|64:80,1,70,2|0,0:0|0:0,0:0:0:0:
152,48,152041,2,0,L|161:117,1,70
260,132,152430,21,4,0:0:0:0:
344,80,152625,1,0,0:0:0:0:
396,164,152820,1,0,0:0:0:0:
312,216,153015,1,0,0:0:0:0:
216,228,153209,2,0,P|180:232|132:228,1,70,2|0,0:0|0:0,0:0:0:0:
88,152,153599,2,0,P|124:148|172:152,1,70
260,132,153989,2,0,P|320:112|348:64,2,105,0|0|0,0:0|0:0|0:0,0:0:0:0:
200,56,154768,1,2,0:0:0:0:
100,56,154963,1,0,0:0:0:0:
88,152,155158,2,0,L|72:232,1,70
160,308,155547,38,0,L|173:239,2,70,4|0|0,0:0|0:0|0:0,0:0:0:0:
256,328,156132,1,0,0:0:0:0:
352,316,156326,2,0,P|336:268|304:248,1,70,2|0,0:0|0:0,0:0:0:0:
252,188,156716,2,0,L|240:100,1,70
152,80,157106,2,0,L|164:184,2,105,0|0|0,0:0|0:0|0:0,0:0:0:0:
248,64,157885,2,0,P|304:76|336:68,1,70,2|0,0:0|0:0,0:0:0:0:
412,60,158274,2,0,P|436:104|436:136,1,70
396,212,158664,5,4,0:0:0:0:
320,272,158859,1,0,0:0:0:0:
244,212,159054,2,0,P|200:208|168:216,1,70
48,292,159443,2,0,P|92:296|124:288,1,70,2|0,0:0|0:0,0:0:0:0:
175,213,159833,1,0,0:0:0:0:
128,128,160028,1,0,0:0:0:0:
213,36,160222,6,0,L|309:48,1,70,4|0,0:0|0:0,0:0:0:0:
359,147,160612,2,0,L|289:138,1,70
175,213,161002,2,0,L|271:225,2,70,4|4|4,0:0|0:0|0:0,0:0:0:0:
175,213,161781,6,0,P|139:257|179:337,1,140,4|2,0:0|0:0,0:0:0:0:
240,276,162365,1,0,0:0:0:0:
336,300,162560,2,0,P|372:268|380:228,1,70,2|0,0:0|0:0,0:0:0:0:
444,176,162950,1,0,0:0:0:0:
384,100,163145,1,0,0:0:0:0:
300,52,163339,5,0,0:0:0:0:
300,52,163534,2,0,L|220:52,2,70,2|2|0,0:0|0:0|0:0,0:0:0:0:
384,100,164119,1,2,0:0:0:0:
304,156,164313,1,0,0:0:0:0:
208,152,164508,2,0,P|152:148|120:160,1,70
76,228,164898,37,0,0:0:0:0:
156,284,165093,2,0,B|208:300|208:300|256:284,2,105,2|2|2,0:0|0:0|0:0,0:0:0:0:
76,228,165872,2,0,L|64:136,1,70
56,60,166261,1,0,0:0:0:0:
156,56,166456,5,0,0:0:0:0:
156,56,166651,2,0,L|172:160,2,105,2|2|2,0:0|0:0|0:0,0:0:0:0:
252,60,167430,1,0,0:0:0:0:
344,96,167625,1,0,0:0:0:0:
432,48,167820,1,0,0:0:0:0:
344,96,168015,37,4,0:0:0:0:
388,184,168209,1,0,0:0:0:0:
320,256,168404,2,0,P|288:252|236:264,2,70,2|0|2,0:0|0:0|0:0,0:0:0:0:
412,292,168989,2,0,P|444:296|496:284,2,70,0|0|0,0:0|0:0|0:0,0:0:0:0:
320,256,169573,1,0,0:0:0:0:
236,208,169768,5,2,0:0:0:0:
148,164,169963,1,2,0:0:0:0:
232,112,170158,1,0,0:0:0:0:
236,208,170352,1,2,0:0:0:0:
152,256,170547,2,0,P|92:260|64:280,2,70,0|0|0,0:0|0:0|0:0,0:0:0:0:
236,312,171132,37,0,0:0:0:0:
332,320,171326,2,0,P|404:320|444:312,2,105,2|2|2,0:0|0:0|0:0,0:0:0:0:
236,312,172106,1,0,0:0:0:0:
144,284,172300,2,0,L|64:268,1,70
240,216,172690,5,4,0:0:0:0:
272,180,173080,1,4,0:0:0:0:
320,168,173470,1,4,0:0:0:0:
368,180,173859,1,4,0:0:0:0:
372,80,174054,5,0,0:0:0:0:
372,80,174248,2,0,P|320:72|216:104,1,140,4|0,0:0|0:0,0:0:0:0:
156,152,174833,1,0,0:0:0:0:
104,68,175028,2,0,P|72:92|60:132,1,70
76,216,175417,1,0,0:0:0:0:
136,292,175612,1,0,0:0:0:0:
212,228,175807,6,0,P|264:208|320:216,1,105,4|0,0:0|0:0,0:0:0:0:
340,220,176196,1,0,0:0:0:0:
356,316,176391,1,0,0:0:0:0:
260,328,176586,1,0,0:0:0:0:
136,292,176781,1,2,0:0:0:0:
136,292,176878,1,2,0:0:0:0:
136,292,176976,1,2,0:0:0:0:
72,216,177171,1,0,0:0:0:0:
72,216,177365,38,0,B|72:112|72:112|96:56,1,140,4|0,0:0|0:0,0:0:0:0:
184,60,177950,1,0,0:0:0:0:
272,104,178145,2,0,P|320:120|356:116,1,70
324,24,178534,1,0,0:0:0:0:
272,104,178729,1,0,0:0:0:0:
316,192,178924,6,0,P|360:236|420:248,1,105,4|0,0:0|0:0,0:0:0:0:
428,248,179313,1,0,0:0:0:0:
404,152,179508,1,0,0:0:0:0:
452,68,179703,1,0,0:0:0:0:
356,40,179898,1,0,0:0:0:0:
356,40,180093,1,0,0:0:0:0:
248,36,180287,1,0,0:0:0:0:
248,36,180482,22,0,P|196:40|124:100,1,140,4|0,0:0|0:0,0:0:0:0:
100,188,181067,1,0,0:0:0:0:
192,156,181261,1,0,0:0:0:0:
248,236,181456,1,0,0:0:0:0:
188,312,181651,1,0,0:0:0:0:
96,276,181846,1,0,0:0:0:0:
188,312,182041,22,0,P|248:332|332:288,1,140,4|0,0:0|0:0,0:0:0:0:
348,212,182625,2,0,L|328:128,1,70
256,84,183015,2,0,P|216:96|180:92,1,70
56,148,183404,1,0,0:0:0:0:
56,148,183599,6,0,L|104:284,1,140,4|0,0:0|0:0,0:0:0:0:
184,332,184183,2,0,P|204:284|196:240,1,70
268,192,184573,2,0,L|352:188,2,70,0|0|0,0:0|0:0|0:0,0:0:0:0:
212,116,185158,21,4,0:0:0:0:
196,20,185352,2,0,L|104:0,2,70,0|0|0,0:0|0:0|0:0,0:0:0:0:
296,116,185937,5,4,0:0:0:0:
312,24,186131,2,0,L|404:4,2,70,0|0|0,0:0|0:0|0:0,0:0:0:0:
256,116,186716,21,4,0:0:0:0:
