osu file format v14

[General]
AudioFilename: 03. French Virgin Party.mp3
AudioLeadIn: 0
PreviewTime: 86976
Countdown: 0
SampleSet: Soft
StackLeniency: 0.9
Mode: 3
LetterboxInBreaks: 0
EpilepsyWarning: 1
SpecialStyle: 0
WidescreenStoryboard: 0

[Editor]
DistanceSpacing: 0.8
BeatDivisor: 4
GridSize: 32
TimelineZoom: 2.2

[Metadata]
Title:French Virgin Party
TitleUnicode:French Virgin Party
Artist:Glen Check
ArtistUnicode:Glen Check
Creator:Jingshenbing
Version:7K NM
Source:
Tags:AlpacaCokelat Haute Couture Nijigen-kun Miramono TheForgotten5 Kioshinxs electronic english
BeatmapID:769305
BeatmapSetID:183511

[Difficulty]
HPDrainRate:7
CircleSize:7
OverallDifficulty:7
ApproachRate:4
SliderMultiplier:0.9
SliderTickRate:2

[Events]
//Background and Video events
0,0,"Glen-Check-BW.jpg",0,0
Video,5774,"French Virgin Party.flv"
//Break Periods
//Storyboard Layer 0 (Background)
//Storyboard Layer 1 (Fail)
//Storyboard Layer 2 (Pass)
//Storyboard Layer 3 (Foreground)
//Storyboard Layer 4 (Overlay)
//Storyboard Sound Samples

[TimingPoints]
12171,389.61038961039,4,2,1,14,1,0
62041,-100,4,2,1,14,0,1
74508,-100,4,2,1,14,0,0
86976,-100,4,2,1,14,0,1
99443,-100,4,2,1,14,0,0
111911,-100,4,2,1,14,0,1
124378,-100,4,2,1,14,0,0
161781,-100,4,2,1,14,0,1
174248,-100,4,2,1,14,0,0

[HitObjects]
36,192,12170,5,0,0:0:0:0:
402,192,12170,1,0,0:0:0:0:
475,192,12950,1,0,0:0:0:0:
329,192,13145,1,0,0:0:0:0:
182,192,13339,1,0,0:0:0:0:
36,192,13534,1,0,0:0:0:0:
475,192,13729,1,0,0:0:0:0:
109,192,13729,1,0,0:0:0:0:
36,192,14508,1,0,0:0:0:0:
256,192,14898,1,0,0:0:0:0:
109,192,15093,1,0,0:0:0:0:
475,192,15287,1,0,0:0:0:0:
329,192,15287,1,0,0:0:0:0:
36,192,16067,1,0,0:0:0:0:
182,192,16261,1,0,0:0:0:0:
329,192,16456,1,0,0:0:0:0:
475,192,16651,1,0,0:0:0:0:
36,192,16846,1,0,0:0:0:0:
256,192,16846,1,0,0:0:0:0:
475,192,17820,1,0,0:0:0:0:
36,192,17820,1,0,0:0:0:0:
36,192,18209,1,0,0:0:0:0:
475,192,18209,1,0,0:0:0:0:
182,192,18404,1,0,0:0:0:0:
329,192,18404,1,0,0:0:0:0:
182,192,19183,1,0,0:0:0:0:
402,192,19378,1,0,0:0:0:0:
109,192,19573,1,0,0:0:0:0:
329,192,19768,1,0,0:0:0:0:
36,192,19963,1,0,0:0:0:0:
475,192,19963,1,0,0:0:0:0:
329,192,20742,1,0,0:0:0:0:
109,192,21132,1,0,0:0:0:0:
402,192,21326,1,0,0:0:0:0:
36,192,21521,1,0,0:0:0:0:
475,192,21521,1,0,0:0:0:0:
402,192,22300,1,0,0:0:0:0:
109,192,22495,1,0,0:0:0:0:
329,192,22690,1,0,0:0:0:0:
182,192,22885,1,0,0:0:0:0:
402,192,23080,1,0,0:0:0:0:
36,192,23080,1,0,0:0:0:0:
475,192,23469,1,0,0:0:0:0:
109,192,23469,1,0,0:0:0:0:
475,192,24054,1,0,0:0:0:0:
109,192,24054,1,0,0:0:0:0:
36,192,24248,1,0,0:0:0:0:
402,192,24248,1,0,0:0:0:0:
329,192,24638,1,0,0:0:0:0:
182,192,24638,1,0,0:0:0:0:
182,192,25028,1,0,0:0:0:0:
475,192,25222,1,0,0:0:0:0:
329,192,25417,1,0,0:0:0:0:
256,192,25612,1,0,0:0:0:0:
256,192,25807,1,0,0:0:0:0:
109,192,26002,1,0,0:0:0:0:
329,192,26196,1,0,0:0:0:0:
329,192,26586,1,0,0:0:0:0:
475,192,26781,1,0,0:0:0:0:
256,192,26976,1,0,0:0:0:0:
109,192,27171,1,0,0:0:0:0:
109,192,27365,1,0,0:0:0:0:
36,192,27560,1,0,0:0:0:0:
256,192,27755,1,0,0:0:0:0:
256,192,28145,1,0,0:0:0:0:
402,192,28339,1,0,0:0:0:0:
329,192,28534,1,0,0:0:0:0:
182,192,28729,1,0,0:0:0:0:
182,192,28924,1,0,0:0:0:0:
109,192,29119,1,0,0:0:0:0:
402,192,29313,1,0,0:0:0:0:
402,192,29703,1,0,0:0:0:0:
475,192,29898,1,0,0:0:0:0:
329,192,30093,1,0,0:0:0:0:
182,192,30287,1,0,0:0:0:0:
182,192,30482,1,0,0:0:0:0:
36,192,30677,1,0,0:0:0:0:
256,192,30872,1,0,0:0:0:0:
402,192,30872,1,0,0:0:0:0:
256,192,31261,1,0,0:0:0:0:
402,192,31456,1,0,0:0:0:0:
256,192,31651,1,0,0:0:0:0:
109,192,31846,1,0,0:0:0:0:
109,192,32041,1,0,0:0:0:0:
36,192,32235,1,0,0:0:0:0:
182,192,32430,1,0,0:0:0:0:
182,192,32820,1,0,0:0:0:0:
402,192,33015,1,0,0:0:0:0:
256,192,33209,1,0,0:0:0:0:
182,192,33404,1,0,0:0:0:0:
182,192,33599,1,0,0:0:0:0:
109,192,33794,1,0,0:0:0:0:
329,192,33989,1,0,0:0:0:0:
329,192,34378,1,0,0:0:0:0:
475,192,34573,1,0,0:0:0:0:
402,192,34768,1,0,0:0:0:0:
329,192,34963,1,0,0:0:0:0:
329,192,35158,1,0,0:0:0:0:
182,192,35352,1,0,0:0:0:0:
109,192,35547,1,0,0:0:0:0:
109,192,35937,1,0,0:0:0:0:
256,192,36132,1,0,0:0:0:0:
182,192,36326,1,0,0:0:0:0:
109,192,36521,1,0,0:0:0:0:
109,192,36716,1,0,0:0:0:0:
36,192,36911,1,0,0:0:0:0:
182,192,37106,1,0,0:0:0:0:
475,192,37106,1,0,0:0:0:0:
329,192,37300,128,0,37495:0:0:0:0:
475,192,37495,1,0,0:0:0:0:
329,192,37690,128,0,37885:0:0:0:0:
36,192,37885,1,0,0:0:0:0:
182,192,38080,128,0,38274:0:0:0:0:
36,192,38274,1,0,0:0:0:0:
329,192,38469,128,0,38664:0:0:0:0:
36,192,38664,1,0,0:0:0:0:
402,192,38859,128,0,39054:0:0:0:0:
182,192,39054,1,0,0:0:0:0:
109,192,39248,128,0,39443:0:0:0:0:
329,192,39443,1,0,0:0:0:0:
402,192,39638,128,0,39833:0:0:0:0:
182,192,39833,1,0,0:0:0:0:
109,192,40028,128,0,40222:0:0:0:0:
256,192,40222,1,0,0:0:0:0:
475,192,40417,128,0,40612:0:0:0:0:
256,192,40612,1,0,0:0:0:0:
36,192,40807,128,0,41002:0:0:0:0:
256,192,41002,1,0,0:0:0:0:
475,192,41196,128,0,41391:0:0:0:0:
256,192,41391,1,0,0:0:0:0:
36,192,41586,128,0,41781:0:0:0:0:
475,192,41781,1,0,0:0:0:0:
256,192,41976,128,0,42171:0:0:0:0:
109,192,42171,1,0,0:0:0:0:
256,192,42365,128,0,42560:0:0:0:0:
402,192,42560,1,0,0:0:0:0:
256,192,42755,128,0,42950:0:0:0:0:
36,192,42950,1,0,0:0:0:0:
256,192,43145,128,0,43339:0:0:0:0:
402,192,43339,1,0,0:0:0:0:
109,192,43339,1,0,0:0:0:0:
36,192,43534,128,0,43729:0:0:0:0:
475,192,43729,1,0,0:0:0:0:
36,192,43924,128,0,44119:0:0:0:0:
475,192,44119,1,0,0:0:0:0:
36,192,44313,128,0,44508:0:0:0:0:
475,192,44508,1,0,0:0:0:0:
36,192,44703,128,0,44898:0:0:0:0:
402,192,44898,1,0,0:0:0:0:
182,192,45093,128,0,45287:0:0:0:0:
402,192,45287,1,0,0:0:0:0:
182,192,45482,128,0,45677:0:0:0:0:
402,192,45677,1,0,0:0:0:0:
182,192,45872,128,0,46067:0:0:0:0:
402,192,46067,1,0,0:0:0:0:
182,192,46261,128,0,46456:0:0:0:0:
36,192,46456,1,0,0:0:0:0:
329,192,46651,128,0,46846:0:0:0:0:
109,192,46846,1,0,0:0:0:0:
329,192,47041,128,0,47235:0:0:0:0:
36,192,47235,1,0,0:0:0:0:
329,192,47430,128,0,47625:0:0:0:0:
109,192,47625,1,0,0:0:0:0:
329,192,47820,128,0,48015:0:0:0:0:
36,192,48015,1,0,0:0:0:0:
475,192,48209,128,0,48404:0:0:0:0:
182,192,48404,1,0,0:0:0:0:
475,192,48599,128,0,48794:0:0:0:0:
36,192,48794,1,0,0:0:0:0:
475,192,48989,128,0,49183:0:0:0:0:
182,192,49183,1,0,0:0:0:0:
475,192,49378,128,0,49573:0:0:0:0:
256,192,49573,1,0,0:0:0:0:
36,192,49573,128,0,49768:0:0:0:0:
36,192,49963,128,0,50158:0:0:0:0:
329,192,49963,1,0,0:0:0:0:
182,192,50352,1,0,0:0:0:0:
329,192,50547,128,0,50742:0:0:0:0:
109,192,50742,1,0,0:0:0:0:
329,192,50937,128,0,51132:0:0:0:0:
109,192,51132,128,0,51326:0:0:0:0:
475,192,51132,1,0,0:0:0:0:
109,192,51521,128,0,51716:0:0:0:0:
402,192,51521,1,0,0:0:0:0:
475,192,51911,1,0,0:0:0:0:
256,192,52106,128,0,52300:0:0:0:0:
36,192,52300,1,0,0:0:0:0:
256,192,52495,128,0,52690:0:0:0:0:
402,192,52690,128,0,52885:0:0:0:0:
36,192,52690,1,0,0:0:0:0:
402,192,53080,128,0,53274:0:0:0:0:
182,192,53080,1,0,0:0:0:0:
36,192,53469,1,0,0:0:0:0:
402,192,53664,128,0,53859:0:0:0:0:
182,192,53859,1,0,0:0:0:0:
402,192,54054,128,0,54248:0:0:0:0:
475,192,54248,128,0,54443:0:0:0:0:
36,192,54248,1,0,0:0:0:0:
475,192,54638,128,0,54833:0:0:0:0:
182,192,54638,1,0,0:0:0:0:
36,192,55028,1,0,0:0:0:0:
475,192,55222,128,0,55417:0:0:0:0:
182,192,55417,1,0,0:0:0:0:
475,192,55612,128,0,55807:0:0:0:0:
36,192,55807,128,0,56002:0:0:0:0:
329,192,55807,1,0,0:0:0:0:
36,192,56196,128,0,56391:0:0:0:0:
256,192,56196,1,0,0:0:0:0:
475,192,56586,1,0,0:0:0:0:
36,192,56781,128,0,56976:0:0:0:0:
329,192,56976,1,0,0:0:0:0:
36,192,57171,128,0,57365:0:0:0:0:
109,192,57365,128,0,57560:0:0:0:0:
402,192,57365,1,0,0:0:0:0:
109,192,57755,128,0,57950:0:0:0:0:
329,192,57755,1,0,0:0:0:0:
402,192,58145,1,0,0:0:0:0:
109,192,58339,128,0,58534:0:0:0:0:
329,192,58534,1,0,0:0:0:0:
109,192,58729,128,0,58924:0:0:0:0:
256,192,58924,128,0,59119:0:0:0:0:
475,192,58924,1,0,0:0:0:0:
256,192,59313,128,0,59508:0:0:0:0:
36,192,59313,1,0,0:0:0:0:
475,192,59703,1,0,0:0:0:0:
256,192,59898,128,0,60093:0:0:0:0:
36,192,60093,1,0,0:0:0:0:
256,192,60287,128,0,60482:0:0:0:0:
402,192,60482,128,0,60677:0:0:0:0:
109,192,60482,1,0,0:0:0:0:
402,192,60872,128,0,61067:0:0:0:0:
182,192,60872,1,0,0:0:0:0:
36,192,61261,1,0,0:0:0:0:
182,192,61359,1,0,0:0:0:0:
329,192,61456,1,0,0:0:0:0:
475,192,61651,1,0,0:0:0:0:
256,192,61748,1,0,0:0:0:0:
109,192,61846,1,0,0:0:0:0:
402,192,62041,1,0,0:0:0:0:
36,192,62041,1,0,0:0:0:0:
475,192,62235,1,0,0:0:0:0:
182,192,62430,1,0,0:0:0:0:
475,192,62625,1,0,0:0:0:0:
36,192,62820,1,0,0:0:0:0:
475,192,63015,1,0,0:0:0:0:
182,192,63209,1,0,0:0:0:0:
475,192,63404,1,0,0:0:0:0:
109,192,63599,1,0,0:0:0:0:
475,192,63794,1,0,0:0:0:0:
256,192,63989,1,0,0:0:0:0:
475,192,64183,1,0,0:0:0:0:
109,192,64378,1,0,0:0:0:0:
475,192,64573,1,0,0:0:0:0:
256,192,64768,1,0,0:0:0:0:
475,192,64963,1,0,0:0:0:0:
329,192,65158,1,0,0:0:0:0:
109,192,65352,1,0,0:0:0:0:
402,192,65547,1,0,0:0:0:0:
109,192,65742,1,0,0:0:0:0:
329,192,65937,1,0,0:0:0:0:
109,192,66132,1,0,0:0:0:0:
402,192,66326,1,0,0:0:0:0:
109,192,66521,1,0,0:0:0:0:
475,192,66716,1,0,0:0:0:0:
182,192,66911,1,0,0:0:0:0:
402,192,67106,1,0,0:0:0:0:
182,192,67300,1,0,0:0:0:0:
475,192,67495,1,0,0:0:0:0:
182,192,67690,1,0,0:0:0:0:
402,192,67885,1,0,0:0:0:0:
182,192,68080,1,0,0:0:0:0:
475,192,68274,1,0,0:0:0:0:
36,192,68274,1,0,0:0:0:0:
256,192,68469,1,0,0:0:0:0:
109,192,68664,1,0,0:0:0:0:
256,192,68859,1,0,0:0:0:0:
475,192,69054,1,0,0:0:0:0:
256,192,69248,1,0,0:0:0:0:
402,192,69443,1,0,0:0:0:0:
256,192,69638,1,0,0:0:0:0:
329,192,69833,1,0,0:0:0:0:
36,192,70028,1,0,0:0:0:0:
182,192,70222,1,0,0:0:0:0:
36,192,70417,1,0,0:0:0:0:
329,192,70612,1,0,0:0:0:0:
36,192,70807,1,0,0:0:0:0:
182,192,71002,1,0,0:0:0:0:
36,192,71196,1,0,0:0:0:0:
256,192,71391,1,0,0:0:0:0:
402,192,71586,1,0,0:0:0:0:
109,192,71781,1,0,0:0:0:0:
402,192,71976,1,0,0:0:0:0:
256,192,72171,1,0,0:0:0:0:
402,192,72365,1,0,0:0:0:0:
109,192,72560,1,0,0:0:0:0:
402,192,72755,1,0,0:0:0:0:
182,192,72950,1,0,0:0:0:0:
475,192,73145,1,0,0:0:0:0:
329,192,73339,1,0,0:0:0:0:
475,192,73534,1,0,0:0:0:0:
182,192,73729,1,0,0:0:0:0:
475,192,73924,1,0,0:0:0:0:
329,192,74119,1,0,0:0:0:0:
475,192,74313,1,0,0:0:0:0:
256,192,74508,1,0,0:0:0:0:
36,192,74508,1,0,0:0:0:0:
475,192,74800,1,0,0:0:0:0:
329,192,74898,1,0,0:0:0:0:
475,192,75093,1,0,0:0:0:0:
36,192,75287,1,0,0:0:0:0:
402,192,75482,1,0,0:0:0:0:
329,192,75677,1,0,0:0:0:0:
109,192,75872,1,0,0:0:0:0:
256,192,75969,1,0,0:0:0:0:
402,192,76067,1,0,0:0:0:0:
182,192,76261,1,0,0:0:0:0:
475,192,76456,1,0,0:0:0:0:
182,192,76651,1,0,0:0:0:0:
402,192,76846,1,0,0:0:0:0:
475,192,77235,1,0,0:0:0:0:
109,192,77430,1,0,0:0:0:0:
36,192,77625,1,0,0:0:0:0:
329,192,77625,1,0,0:0:0:0:
182,192,77917,1,0,0:0:0:0:
402,192,78015,1,0,0:0:0:0:
329,192,78209,1,0,0:0:0:0:
36,192,78404,1,0,0:0:0:0:
256,192,78599,1,0,0:0:0:0:
402,192,78794,1,0,0:0:0:0:
475,192,78989,1,0,0:0:0:0:
182,192,79086,1,0,0:0:0:0:
36,192,79183,1,0,0:0:0:0:
256,192,79378,1,0,0:0:0:0:
475,192,79573,1,0,0:0:0:0:
256,192,79768,1,0,0:0:0:0:
36,192,79963,1,0,0:0:0:0:
475,192,80352,1,0,0:0:0:0:
182,192,80547,1,0,0:0:0:0:
402,192,80742,1,0,0:0:0:0:
109,192,80742,1,0,0:0:0:0:
329,192,81034,1,0,0:0:0:0:
36,192,81132,1,0,0:0:0:0:
402,192,81326,1,0,0:0:0:0:
475,192,81521,1,0,0:0:0:0:
182,192,81716,1,0,0:0:0:0:
109,192,81911,1,0,0:0:0:0:
329,192,82106,1,0,0:0:0:0:
402,192,82203,1,0,0:0:0:0:
36,192,82300,1,0,0:0:0:0:
329,192,82495,1,0,0:0:0:0:
182,192,82690,1,0,0:0:0:0:
475,192,82885,1,0,0:0:0:0:
36,192,83080,1,0,0:0:0:0:
182,192,83469,1,0,0:0:0:0:
402,192,83664,1,0,0:0:0:0:
256,192,83859,1,0,0:0:0:0:
109,192,83859,1,0,0:0:0:0:
475,192,84151,1,0,0:0:0:0:
182,192,84248,1,0,0:0:0:0:
36,192,84443,1,0,0:0:0:0:
329,192,84638,1,0,0:0:0:0:
475,192,84833,1,0,0:0:0:0:
182,192,85028,1,0,0:0:0:0:
329,192,85222,1,0,0:0:0:0:
256,192,85320,1,0,0:0:0:0:
109,192,85417,1,0,0:0:0:0:
475,192,85612,1,0,0:0:0:0:
36,192,85807,1,0,0:0:0:0:
475,192,86002,1,0,0:0:0:0:
329,192,86196,1,0,0:0:0:0:
182,192,86294,1,0,0:0:0:0:
36,192,86391,1,0,0:0:0:0:
475,192,86586,1,0,0:0:0:0:
329,192,86683,1,0,0:0:0:0:
182,192,86781,1,0,0:0:0:0:
402,192,86976,1,0,0:0:0:0:
109,192,86976,1,0,0:0:0:0:
475,192,87365,128,0,87560:0:0:0:0:
475,192,87755,128,0,87950:0:0:0:0:
36,192,88145,128,0,88242:0:0:0:0:
36,192,88339,128,0,88437:0:0:0:0:
475,192,88729,128,0,88826:0:0:0:0:
475,192,88924,128,0,89021:0:0:0:0:
475,192,89313,128,0,89508:0:0:0:0:
109,192,89654,128,0,89752:0:0:0:0:
329,192,89898,128,0,90093:0:0:0:0:
475,192,90287,128,0,90482:0:0:0:0:
475,192,90580,128,0,90774:0:0:0:0:
475,192,90872,128,0,91067:0:0:0:0:
36,192,91261,128,0,91359:0:0:0:0:
36,192,91456,128,0,91554:0:0:0:0:
475,192,91846,128,0,92041:0:0:0:0:
475,192,92138,128,0,92333:0:0:0:0:
475,192,92430,128,0,92625:0:0:0:0:
109,192,92771,128,0,92869:0:0:0:0:
329,192,93015,128,0,93209:0:0:0:0:
36,192,93209,1,0,0:0:0:0:
402,192,93599,128,0,93794:0:0:0:0:
402,192,93989,128,0,94183:0:0:0:0:
109,192,94378,128,0,94476:0:0:0:0:
109,192,94573,128,0,94671:0:0:0:0:
402,192,94963,128,0,95060:0:0:0:0:
402,192,95158,128,0,95255:0:0:0:0:
402,192,95547,128,0,95742:0:0:0:0:
182,192,95888,128,0,95985:0:0:0:0:
329,192,96132,128,0,96326:0:0:0:0:
402,192,96521,128,0,96716:0:0:0:0:
402,192,96813,128,0,97008:0:0:0:0:
402,192,97106,128,0,97300:0:0:0:0:
109,192,97495,128,0,97593:0:0:0:0:
109,192,97690,128,0,97787:0:0:0:0:
256,192,97885,128,0,97982:0:0:0:0:
256,192,98274,128,0,98372:0:0:0:0:
256,192,98664,128,0,98761:0:0:0:0:
256,192,99054,128,0,99151:0:0:0:0:
475,192,99248,1,0,0:0:0:0:
329,192,99346,1,0,0:0:0:0:
36,192,99443,1,0,0:0:0:0:
182,192,99443,1,0,0:0:0:0:
329,192,100222,1,0,0:0:0:0:
256,192,100417,1,0,0:0:0:0:
182,192,100612,1,0,0:0:0:0:
109,192,100807,1,0,0:0:0:0:
182,192,101002,1,0,0:0:0:0:
329,192,101002,1,0,0:0:0:0:
36,192,101781,1,0,0:0:0:0:
475,192,102171,1,0,0:0:0:0:
36,192,102365,1,0,0:0:0:0:
329,192,102560,1,0,0:0:0:0:
475,192,102560,1,0,0:0:0:0:
402,192,103339,1,0,0:0:0:0:
329,192,103534,1,0,0:0:0:0:
256,192,103729,1,0,0:0:0:0:
182,192,103924,1,0,0:0:0:0:
475,192,104119,1,0,0:0:0:0:
36,192,104119,1,0,0:0:0:0:
256,192,104898,1,0,0:0:0:0:
109,192,105093,1,0,0:0:0:0:
402,192,105093,1,0,0:0:0:0:
402,192,105287,1,0,0:0:0:0:
109,192,105287,1,0,0:0:0:0:
182,192,105677,1,0,0:0:0:0:
329,192,105677,1,0,0:0:0:0:
36,192,105872,1,0,0:0:0:0:
475,192,105969,128,0,106067:0:0:0:0:
109,192,106261,1,0,0:0:0:0:
329,192,106359,128,0,106456:0:0:0:0:
329,192,107041,1,0,0:0:0:0:
182,192,107138,128,0,107235:0:0:0:0:
402,192,107235,1,0,0:0:0:0:
109,192,107235,1,0,0:0:0:0:
475,192,107430,1,0,0:0:0:0:
36,192,107528,128,0,107625:0:0:0:0:
329,192,107820,1,0,0:0:0:0:
182,192,107917,128,0,108015:0:0:0:0:
182,192,108599,1,0,0:0:0:0:
329,192,108696,128,0,108794:0:0:0:0:
36,192,108794,1,0,0:0:0:0:
475,192,108794,1,0,0:0:0:0:
109,192,108989,1,0,0:0:0:0:
402,192,109086,128,0,109183:0:0:0:0:
182,192,109378,1,0,0:0:0:0:
329,192,109476,128,0,109573:0:0:0:0:
109,192,110158,1,0,0:0:0:0:
402,192,110255,128,0,110352:0:0:0:0:
36,192,110352,1,0,0:0:0:0:
475,192,110352,1,0,0:0:0:0:
36,192,110742,1,0,0:0:0:0:
475,192,110742,1,0,0:0:0:0:
402,192,111326,1,0,0:0:0:0:
109,192,111326,1,0,0:0:0:0:
109,192,111521,1,0,0:0:0:0:
402,192,111521,1,0,0:0:0:0:
36,192,111911,1,0,0:0:0:0:
475,192,111911,1,0,0:0:0:0:
256,192,112300,1,0,0:0:0:0:
475,192,112495,1,0,0:0:0:0:
182,192,112690,1,0,0:0:0:0:
402,192,112885,1,0,0:0:0:0:
109,192,113080,1,0,0:0:0:0:
329,192,113274,1,0,0:0:0:0:
36,192,113469,1,0,0:0:0:0:
256,192,113859,1,0,0:0:0:0:
36,192,114054,1,0,0:0:0:0:
329,192,114248,1,0,0:0:0:0:
109,192,114443,1,0,0:0:0:0:
402,192,114638,1,0,0:0:0:0:
182,192,114833,1,0,0:0:0:0:
475,192,115028,1,0,0:0:0:0:
182,192,115417,1,0,0:0:0:0:
329,192,115612,1,0,0:0:0:0:
109,192,115807,1,0,0:0:0:0:
402,192,116002,1,0,0:0:0:0:
36,192,116196,1,0,0:0:0:0:
475,192,116391,1,0,0:0:0:0:
256,192,116586,1,0,0:0:0:0:
256,192,116976,1,0,0:0:0:0:
182,192,117171,1,0,0:0:0:0:
329,192,117365,1,0,0:0:0:0:
109,192,117560,1,0,0:0:0:0:
402,192,117755,1,0,0:0:0:0:
36,192,117950,1,0,0:0:0:0:
475,192,118145,1,0,0:0:0:0:
256,192,118145,1,0,0:0:0:0:
36,192,118534,1,0,0:0:0:0:
256,192,118729,1,0,0:0:0:0:
109,192,118924,1,0,0:0:0:0:
329,192,119119,1,0,0:0:0:0:
182,192,119313,1,0,0:0:0:0:
402,192,119508,1,0,0:0:0:0:
256,192,119703,1,0,0:0:0:0:
475,192,120093,1,0,0:0:0:0:
256,192,120287,1,0,0:0:0:0:
402,192,120482,1,0,0:0:0:0:
182,192,120677,1,0,0:0:0:0:
329,192,120872,1,0,0:0:0:0:
109,192,121067,1,0,0:0:0:0:
256,192,121261,1,0,0:0:0:0:
36,192,121651,1,0,0:0:0:0:
475,192,121846,1,0,0:0:0:0:
109,192,122041,1,0,0:0:0:0:
402,192,122235,1,0,0:0:0:0:
182,192,122430,1,0,0:0:0:0:
329,192,122625,1,0,0:0:0:0:
256,192,122820,1,0,0:0:0:0:
256,192,123209,1,0,0:0:0:0:
402,192,123404,1,0,0:0:0:0:
182,192,123599,1,0,0:0:0:0:
329,192,123794,1,0,0:0:0:0:
109,192,123989,1,0,0:0:0:0:
256,192,124183,1,0,0:0:0:0:
36,192,124378,1,0,0:0:0:0:
475,192,124378,1,0,0:0:0:0:
329,192,124768,128,0,124963:0:0:0:0:
329,192,125158,128,0,125352:0:0:0:0:
182,192,125547,128,0,125645:0:0:0:0:
182,192,125742,128,0,125839:0:0:0:0:
329,192,126132,128,0,126229:0:0:0:0:
329,192,126326,128,0,126424:0:0:0:0:
329,192,126716,128,0,126911:0:0:0:0:
182,192,127057,128,0,127154:0:0:0:0:
256,192,127300,128,0,127495:0:0:0:0:
329,192,127690,128,0,127885:0:0:0:0:
329,192,127982,128,0,128177:0:0:0:0:
329,192,128274,128,0,128469:0:0:0:0:
182,192,128664,128,0,128761:0:0:0:0:
182,192,128859,128,0,128956:0:0:0:0:
329,192,129248,128,0,129443:0:0:0:0:
329,192,129541,128,0,129735:0:0:0:0:
329,192,129833,128,0,130028:0:0:0:0:
182,192,130174,128,0,130271:0:0:0:0:
256,192,130417,128,0,130612:0:0:0:0:
475,192,130612,1,0,0:0:0:0:
36,192,130612,1,0,0:0:0:0:
109,192,131002,128,0,131196:0:0:0:0:
109,192,131391,128,0,131586:0:0:0:0:
402,192,131781,128,0,131878:0:0:0:0:
402,192,131976,128,0,132073:0:0:0:0:
109,192,132365,128,0,132463:0:0:0:0:
109,192,132560,128,0,132658:0:0:0:0:
109,192,132950,128,0,133145:0:0:0:0:
402,192,133291,128,0,133388:0:0:0:0:
256,192,133534,128,0,133729:0:0:0:0:
109,192,133924,128,0,134119:0:0:0:0:
109,192,134216,128,0,134411:0:0:0:0:
109,192,134508,128,0,134703:0:0:0:0:
402,192,134898,128,0,134995:0:0:0:0:
402,192,135093,128,0,135190:0:0:0:0:
36,192,135287,128,0,135385:0:0:0:0:
256,192,135287,1,0,0:0:0:0:
475,192,135677,128,0,135774:0:0:0:0:
36,192,136067,128,0,136164:0:0:0:0:
256,192,136067,1,0,0:0:0:0:
475,192,136456,128,0,136554:0:0:0:0:
36,192,136651,128,0,136748:0:0:0:0:
329,192,136846,1,0,0:0:0:0:
182,192,137235,1,0,0:0:0:0:
109,192,137625,1,0,0:0:0:0:
402,192,137625,128,0,137820:0:0:0:0:
329,192,138015,1,0,0:0:0:0:
475,192,138404,1,0,0:0:0:0:
182,192,138404,1,0,0:0:0:0:
182,192,138696,1,0,0:0:0:0:
402,192,138794,1,0,0:0:0:0:
36,192,138989,1,0,0:0:0:0:
109,192,139183,1,0,0:0:0:0:
475,192,139183,128,0,139378:0:0:0:0:
402,192,139378,1,0,0:0:0:0:
182,192,139378,1,0,0:0:0:0:
256,192,139573,1,0,0:0:0:0:
329,192,139768,1,0,0:0:0:0:
36,192,139963,1,0,0:0:0:0:
475,192,140352,1,0,0:0:0:0:
36,192,140742,1,0,0:0:0:0:
256,192,140742,128,0,140937:0:0:0:0:
475,192,141132,1,0,0:0:0:0:
329,192,141326,1,0,0:0:0:0:
109,192,141521,1,0,0:0:0:0:
475,192,141521,1,0,0:0:0:0:
256,192,141716,1,0,0:0:0:0:
402,192,141911,1,0,0:0:0:0:
36,192,141911,1,0,0:0:0:0:
329,192,142300,1,0,0:0:0:0:
182,192,142300,128,0,142495:0:0:0:0:
402,192,142495,1,0,0:0:0:0:
109,192,142690,1,0,0:0:0:0:
182,192,142885,1,0,0:0:0:0:
256,192,143080,1,0,0:0:0:0:
256,192,143469,1,0,0:0:0:0:
475,192,143859,128,0,144054:0:0:0:0:
36,192,143859,1,0,0:0:0:0:
256,192,144248,1,0,0:0:0:0:
475,192,144638,1,0,0:0:0:0:
36,192,144638,1,0,0:0:0:0:
402,192,144930,1,0,0:0:0:0:
109,192,145028,1,0,0:0:0:0:
329,192,145222,1,0,0:0:0:0:
475,192,145417,1,0,0:0:0:0:
36,192,145417,128,0,145612:0:0:0:0:
402,192,145612,1,0,0:0:0:0:
256,192,145807,1,0,0:0:0:0:
109,192,146002,1,0,0:0:0:0:
402,192,146196,1,0,0:0:0:0:
182,192,146586,1,0,0:0:0:0:
402,192,146976,1,0,0:0:0:0:
109,192,146976,128,0,147171:0:0:0:0:
182,192,147365,1,0,0:0:0:0:
36,192,147755,1,0,0:0:0:0:
475,192,147755,1,0,0:0:0:0:
329,192,147950,1,0,0:0:0:0:
36,192,148145,1,0,0:0:0:0:
36,192,148534,1,0,0:0:0:0:
256,192,148534,1,0,0:0:0:0:
329,192,148729,1,0,0:0:0:0:
182,192,148924,1,0,0:0:0:0:
402,192,148924,1,0,0:0:0:0:
475,192,149119,1,0,0:0:0:0:
256,192,149313,1,0,0:0:0:0:
36,192,149508,1,0,0:0:0:0:
475,192,149898,1,0,0:0:0:0:
402,192,150093,1,0,0:0:0:0:
109,192,150093,128,0,150287:0:0:0:0:
36,192,150287,1,0,0:0:0:0:
475,192,150677,1,0,0:0:0:0:
182,192,150872,1,0,0:0:0:0:
109,192,151067,1,0,0:0:0:0:
329,192,151164,1,0,0:0:0:0:
182,192,151456,1,0,0:0:0:0:
402,192,151456,1,0,0:0:0:0:
36,192,151651,1,0,0:0:0:0:
475,192,151651,128,0,151846:0:0:0:0:
109,192,151846,1,0,0:0:0:0:
402,192,152235,1,0,0:0:0:0:
36,192,152430,1,0,0:0:0:0:
475,192,152625,1,0,0:0:0:0:
402,192,153015,1,0,0:0:0:0:
109,192,153209,1,0,0:0:0:0:
256,192,153209,128,0,153404:0:0:0:0:
475,192,153404,1,0,0:0:0:0:
402,192,153794,1,0,0:0:0:0:
36,192,153989,1,0,0:0:0:0:
475,192,154183,1,0,0:0:0:0:
109,192,154281,1,0,0:0:0:0:
36,192,154573,1,0,0:0:0:0:
329,192,154573,1,0,0:0:0:0:
109,192,154768,1,0,0:0:0:0:
402,192,154768,128,0,154963:0:0:0:0:
475,192,154963,1,0,0:0:0:0:
329,192,155352,1,0,0:0:0:0:
256,192,155547,1,0,0:0:0:0:
109,192,155742,1,0,0:0:0:0:
109,192,156132,1,0,0:0:0:0:
475,192,156326,1,0,0:0:0:0:
36,192,156326,128,0,156521:0:0:0:0:
402,192,156521,1,0,0:0:0:0:
402,192,156911,1,0,0:0:0:0:
109,192,157106,1,0,0:0:0:0:
475,192,157300,1,0,0:0:0:0:
182,192,157398,1,0,0:0:0:0:
256,192,157690,1,0,0:0:0:0:
36,192,157690,1,0,0:0:0:0:
475,192,157885,1,0,0:0:0:0:
329,192,157885,128,0,158080:0:0:0:0:
36,192,158080,1,0,0:0:0:0:
475,192,158469,1,0,0:0:0:0:
109,192,158664,1,0,0:0:0:0:
256,192,158859,1,0,0:0:0:0:
256,192,159248,1,0,0:0:0:0:
109,192,159443,1,0,0:0:0:0:
402,192,159443,128,0,159638:0:0:0:0:
256,192,159638,1,0,0:0:0:0:
256,192,160028,1,0,0:0:0:0:
36,192,160222,1,0,0:0:0:0:
182,192,160417,1,0,0:0:0:0:
329,192,160612,1,0,0:0:0:0:
475,192,160807,1,0,0:0:0:0:
109,192,161002,1,0,0:0:0:0:
256,192,161196,1,0,0:0:0:0:
402,192,161391,1,0,0:0:0:0:
36,192,162073,1,0,0:0:0:0:
475,192,162171,1,0,0:0:0:0:
36,192,162365,1,0,0:0:0:0:
475,192,162560,1,0,0:0:0:0:
36,192,162755,1,0,0:0:0:0:
402,192,162950,1,0,0:0:0:0:
182,192,163145,1,0,0:0:0:0:
329,192,163145,1,0,0:0:0:0:
36,192,163242,1,0,0:0:0:0:
182,192,163534,1,0,0:0:0:0:
475,192,163534,1,0,0:0:0:0:
475,192,163729,1,0,0:0:0:0:
182,192,163924,1,0,0:0:0:0:
475,192,164119,1,0,0:0:0:0:
36,192,164313,1,0,0:0:0:0:
182,192,164411,1,0,0:0:0:0:
329,192,164459,1,0,0:0:0:0:
182,192,164703,1,0,0:0:0:0:
402,192,164703,1,0,0:0:0:0:
109,192,164898,1,0,0:0:0:0:
475,192,165093,1,0,0:0:0:0:
109,192,165190,1,0,0:0:0:0:
475,192,165385,1,0,0:0:0:0:
109,192,165482,1,0,0:0:0:0:
475,192,165677,1,0,0:0:0:0:
109,192,165872,1,0,0:0:0:0:
402,192,166067,1,0,0:0:0:0:
256,192,166261,1,0,0:0:0:0:
329,192,166261,1,0,0:0:0:0:
109,192,166359,1,0,0:0:0:0:
475,192,166651,1,0,0:0:0:0:
256,192,166651,1,0,0:0:0:0:
475,192,166943,1,0,0:0:0:0:
182,192,167041,1,0,0:0:0:0:
475,192,167235,1,0,0:0:0:0:
109,192,167430,1,0,0:0:0:0:
36,192,167528,1,0,0:0:0:0:
329,192,167576,1,0,0:0:0:0:
402,192,167820,1,0,0:0:0:0:
36,192,167820,1,0,0:0:0:0:
256,192,168015,1,0,0:0:0:0:
475,192,168015,1,0,0:0:0:0:
475,192,168307,1,0,0:0:0:0:
36,192,168404,1,0,0:0:0:0:
475,192,168599,1,0,0:0:0:0:
36,192,168794,1,0,0:0:0:0:
329,192,168989,1,0,0:0:0:0:
109,192,169183,1,0,0:0:0:0:
182,192,169378,1,0,0:0:0:0:
329,192,169378,1,0,0:0:0:0:
475,192,169476,1,0,0:0:0:0:
402,192,169768,1,0,0:0:0:0:
36,192,169768,1,0,0:0:0:0:
36,192,169963,1,0,0:0:0:0:
256,192,170158,1,0,0:0:0:0:
36,192,170352,1,0,0:0:0:0:
256,192,170547,1,0,0:0:0:0:
402,192,170645,1,0,0:0:0:0:
182,192,170693,1,0,0:0:0:0:
402,192,170937,1,0,0:0:0:0:
109,192,170937,1,0,0:0:0:0:
329,192,171132,1,0,0:0:0:0:
36,192,171326,1,0,0:0:0:0:
475,192,171424,1,0,0:0:0:0:
36,192,171619,1,0,0:0:0:0:
329,192,171716,1,0,0:0:0:0:
36,192,171911,1,0,0:0:0:0:
329,192,172106,1,0,0:0:0:0:
109,192,172300,1,0,0:0:0:0:
329,192,172495,1,0,0:0:0:0:
182,192,172495,1,0,0:0:0:0:
475,192,172593,1,0,0:0:0:0:
256,192,172690,1,0,0:0:0:0:
256,192,173080,1,0,0:0:0:0:
256,192,173469,1,0,0:0:0:0:
256,192,173859,1,0,0:0:0:0:
402,192,173859,1,0,0:0:0:0:
36,192,174054,1,0,0:0:0:0:
182,192,174054,1,0,0:0:0:0:
475,192,174248,1,0,0:0:0:0:
109,192,174443,128,0,174638:0:0:0:0:
109,192,174833,128,0,175028:0:0:0:0:
109,192,175222,128,0,175417:0:0:0:0:
109,192,175612,128,0,175807:0:0:0:0:
329,192,175807,1,0,0:0:0:0:
475,192,176002,128,0,176196:0:0:0:0:
475,192,176391,128,0,176586:0:0:0:0:
475,192,176781,128,0,176976:0:0:0:0:
36,192,177171,128,0,177365:0:0:0:0:
182,192,177365,1,0,0:0:0:0:
329,192,177560,128,0,177755:0:0:0:0:
329,192,177950,128,0,178145:0:0:0:0:
329,192,178339,128,0,178534:0:0:0:0:
329,192,178729,128,0,178924:0:0:0:0:
109,192,178924,1,0,0:0:0:0:
256,192,179119,128,0,179313:0:0:0:0:
256,192,179508,128,0,179703:0:0:0:0:
256,192,179898,128,0,180093:0:0:0:0:
475,192,179898,1,0,0:0:0:0:
36,192,180093,1,0,0:0:0:0:
256,192,180287,128,0,180482:0:0:0:0:
402,192,180482,1,0,0:0:0:0:
109,192,180872,1,0,0:0:0:0:
329,192,181261,1,0,0:0:0:0:
182,192,181651,1,0,0:0:0:0:
402,192,182041,1,0,0:0:0:0:
109,192,182430,1,0,0:0:0:0:
475,192,182820,1,0,0:0:0:0:
36,192,183209,1,0,0:0:0:0:
402,192,183599,1,0,0:0:0:0:
109,192,183989,1,0,0:0:0:0:
329,192,184378,1,0,0:0:0:0:
182,192,184768,1,0,0:0:0:0:
475,192,185158,128,0,185352:0:0:0:0:
36,192,185352,1,0,0:0:0:0:
475,192,185547,128,0,185742:0:0:0:0:
36,192,185742,1,0,0:0:0:0:
402,192,185937,128,0,186132:0:0:0:0:
109,192,186132,1,0,0:0:0:0:
402,192,186326,128,0,186521:0:0:0:0:
109,192,186521,1,0,0:0:0:0:
256,192,186716,128,0,186911:0:0:0:0:
