osu file format v14

[General]
AudioFilename: 03. French Virgin Party.mp3
AudioLeadIn: 0
PreviewTime: 86976
Countdown: 0
SampleSet: Soft
StackLeniency: 0.9
Mode: 3
LetterboxInBreaks: 0
EpilepsyWarning: 1
SpecialStyle: 0
WidescreenStoryboard: 0

[Editor]
Bookmarks: 125166
DistanceSpacing: 0.8
BeatDivisor: 8
GridSize: 32
TimelineZoom: 2.499999

[Metadata]
Title:French Virgin Party
TitleUnicode:French Virgin Party
Artist:Glen Check
ArtistUnicode:Glen Check
Creator:Jingshenbing
Version:4K MX
Source:
Tags:AlpacaCokelat Haute Couture Nijigen-kun Miramono TheForgotten5 Kioshinxs electronic english
BeatmapID:473551
BeatmapSetID:183511

[Difficulty]
HPDrainRate:9
CircleSize:4
OverallDifficulty:8
ApproachRate:5
SliderMultiplier:1.4
SliderTickRate:2

[Events]
//Background and Video events
0,0,"Glen-Check-BW.jpg",0,0
Video,5774,"French Virgin Party.flv"
//Break Periods
//Storyboard Layer 0 (Background)
//Storyboard Layer 1 (Fail)
//Storyboard Layer 2 (Pass)
//Storyboard Layer 3 (Foreground)
//Storyboard Layer 4 (Overlay)
//Storyboard Sound Samples

[TimingPoints]
12171,389.61038961039,4,2,1,14,1,0
62041,-100,4,2,1,14,0,1
74508,-100,4,2,1,14,0,0
86976,-100,4,2,1,14,0,1
99443,-100,4,2,1,14,0,0
111911,-100,4,2,1,14,0,1
124378,-100,4,2,1,14,0,0
161781,-100,4,2,1,14,0,1
174248,-100,4,2,1,14,0,0

[HitObjects]
448,192,12170,5,0,0:0:0:0:
64,192,12170,1,0,0:0:0:0:
320,192,12755,1,0,0:0:0:0:
448,192,12950,1,0,0:0:0:0:
192,192,12950,1,0,0:0:0:0:
320,192,13145,1,0,0:0:0:0:
64,192,13145,1,0,0:0:0:0:
192,192,13339,1,0,0:0:0:0:
448,192,13534,1,0,0:0:0:0:
64,192,13534,1,0,0:0:0:0:
320,192,13729,1,0,0:0:0:0:
192,192,13729,1,0,0:0:0:0:
320,192,14313,1,0,0:0:0:0:
192,192,14508,1,0,0:0:0:0:
448,192,14508,1,0,0:0:0:0:
320,192,14703,1,0,0:0:0:0:
192,192,14800,1,0,0:0:0:0:
64,192,14898,1,0,0:0:0:0:
448,192,14898,1,0,0:0:0:0:
320,192,15093,1,0,0:0:0:0:
64,192,15093,1,0,0:0:0:0:
192,192,15287,1,0,0:0:0:0:
448,192,15287,1,0,0:0:0:0:
192,192,15872,1,0,0:0:0:0:
192,192,16067,1,0,0:0:0:0:
448,192,16067,1,0,0:0:0:0:
320,192,16261,1,0,0:0:0:0:
64,192,16261,1,0,0:0:0:0:
192,192,16456,1,0,0:0:0:0:
320,192,16651,1,0,0:0:0:0:
448,192,16651,1,0,0:0:0:0:
64,192,16846,1,0,0:0:0:0:
192,192,16846,1,0,0:0:0:0:
448,192,17430,1,0,0:0:0:0:
192,192,17625,1,0,0:0:0:0:
64,192,17820,5,0,0:0:0:0:
448,192,17820,1,0,0:0:0:0:
192,192,18015,1,0,0:0:0:0:
64,192,18209,1,0,0:0:0:0:
448,192,18209,1,0,0:0:0:0:
192,192,18404,1,0,0:0:0:0:
320,192,18404,1,0,0:0:0:0:
320,192,18599,1,0,0:0:0:0:
448,192,18696,1,0,0:0:0:0:
192,192,18989,1,0,0:0:0:0:
320,192,19086,1,0,0:0:0:0:
448,192,19183,1,0,0:0:0:0:
64,192,19183,1,0,0:0:0:0:
320,192,19378,1,0,0:0:0:0:
448,192,19378,1,0,0:0:0:0:
192,192,19573,1,0,0:0:0:0:
320,192,19768,1,0,0:0:0:0:
64,192,19768,1,0,0:0:0:0:
192,192,19865,1,0,0:0:0:0:
320,192,19963,1,0,0:0:0:0:
448,192,19963,1,0,0:0:0:0:
192,192,20158,1,0,0:0:0:0:
448,192,20255,1,0,0:0:0:0:
64,192,20547,1,0,0:0:0:0:
320,192,20645,1,0,0:0:0:0:
192,192,20742,1,0,0:0:0:0:
448,192,20937,1,0,0:0:0:0:
448,192,21034,1,0,0:0:0:0:
320,192,21132,1,0,0:0:0:0:
64,192,21326,1,0,0:0:0:0:
320,192,21326,1,0,0:0:0:0:
448,192,21424,1,0,0:0:0:0:
320,192,21521,1,0,0:0:0:0:
192,192,21521,1,0,0:0:0:0:
192,192,21716,1,0,0:0:0:0:
448,192,21813,1,0,0:0:0:0:
64,192,22106,1,0,0:0:0:0:
192,192,22203,1,0,0:0:0:0:
320,192,22300,1,0,0:0:0:0:
448,192,22300,1,0,0:0:0:0:
320,192,22495,1,0,0:0:0:0:
64,192,22495,1,0,0:0:0:0:
192,192,22690,1,0,0:0:0:0:
64,192,22885,1,0,0:0:0:0:
320,192,22885,1,0,0:0:0:0:
448,192,22982,1,0,0:0:0:0:
192,192,23080,1,0,0:0:0:0:
320,192,23080,1,0,0:0:0:0:
64,192,23274,1,0,0:0:0:0:
448,192,23372,1,0,0:0:0:0:
192,192,23469,1,0,0:0:0:0:
320,192,23469,1,0,0:0:0:0:
64,192,23664,1,0,0:0:0:0:
320,192,23664,1,0,0:0:0:0:
448,192,23761,1,0,0:0:0:0:
64,192,23859,1,0,0:0:0:0:
192,192,24054,1,0,0:0:0:0:
320,192,24054,1,0,0:0:0:0:
192,192,24248,1,0,0:0:0:0:
320,192,24248,1,0,0:0:0:0:
64,192,24638,1,0,0:0:0:0:
320,192,24638,1,0,0:0:0:0:
192,192,24833,1,0,0:0:0:0:
320,192,25028,1,0,0:0:0:0:
192,192,25028,1,0,0:0:0:0:
448,192,25222,1,0,0:0:0:0:
320,192,25417,1,0,0:0:0:0:
64,192,25417,1,0,0:0:0:0:
192,192,25612,1,0,0:0:0:0:
192,192,25807,1,0,0:0:0:0:
448,192,25807,1,0,0:0:0:0:
64,192,26002,1,0,0:0:0:0:
192,192,26196,1,0,0:0:0:0:
320,192,26196,1,0,0:0:0:0:
192,192,26391,1,0,0:0:0:0:
320,192,26586,1,0,0:0:0:0:
448,192,26586,1,0,0:0:0:0:
448,192,26781,1,0,0:0:0:0:
320,192,26976,1,0,0:0:0:0:
64,192,26976,1,0,0:0:0:0:
192,192,27171,1,0,0:0:0:0:
192,192,27365,1,0,0:0:0:0:
448,192,27365,1,0,0:0:0:0:
64,192,27560,1,0,0:0:0:0:
192,192,27755,1,0,0:0:0:0:
448,192,27755,1,0,0:0:0:0:
320,192,27950,1,0,0:0:0:0:
192,192,28145,1,0,0:0:0:0:
64,192,28145,1,0,0:0:0:0:
64,192,28339,1,0,0:0:0:0:
192,192,28534,1,0,0:0:0:0:
448,192,28534,1,0,0:0:0:0:
320,192,28729,1,0,0:0:0:0:
320,192,28924,1,0,0:0:0:0:
64,192,28924,1,0,0:0:0:0:
448,192,29119,1,0,0:0:0:0:
192,192,29313,1,0,0:0:0:0:
448,192,29313,1,0,0:0:0:0:
64,192,29508,1,0,0:0:0:0:
192,192,29703,1,0,0:0:0:0:
320,192,29703,1,0,0:0:0:0:
64,192,29898,1,0,0:0:0:0:
192,192,30093,1,0,0:0:0:0:
448,192,30093,1,0,0:0:0:0:
320,192,30287,1,0,0:0:0:0:
320,192,30482,1,0,0:0:0:0:
64,192,30482,1,0,0:0:0:0:
448,192,30677,1,0,0:0:0:0:
320,192,30872,1,0,0:0:0:0:
192,192,30872,1,0,0:0:0:0:
64,192,30872,1,0,0:0:0:0:
448,192,31067,1,0,0:0:0:0:
320,192,31261,1,0,0:0:0:0:
64,192,31261,1,0,0:0:0:0:
448,192,31456,1,0,0:0:0:0:
192,192,31651,1,0,0:0:0:0:
320,192,31651,1,0,0:0:0:0:
448,192,31846,1,0,0:0:0:0:
320,192,32041,1,0,0:0:0:0:
64,192,32041,1,0,0:0:0:0:
448,192,32235,1,0,0:0:0:0:
448,192,32430,1,0,0:0:0:0:
192,192,32430,1,0,0:0:0:0:
320,192,32625,1,0,0:0:0:0:
192,192,32820,1,0,0:0:0:0:
64,192,32820,1,0,0:0:0:0:
320,192,33015,1,0,0:0:0:0:
448,192,33209,1,0,0:0:0:0:
192,192,33209,1,0,0:0:0:0:
320,192,33404,1,0,0:0:0:0:
192,192,33599,1,0,0:0:0:0:
64,192,33599,1,0,0:0:0:0:
320,192,33794,1,0,0:0:0:0:
64,192,33989,1,0,0:0:0:0:
320,192,33989,1,0,0:0:0:0:
192,192,34183,1,0,0:0:0:0:
192,192,34378,1,0,0:0:0:0:
448,192,34378,1,0,0:0:0:0:
320,192,34573,1,0,0:0:0:0:
64,192,34768,1,0,0:0:0:0:
320,192,34768,1,0,0:0:0:0:
192,192,34963,1,0,0:0:0:0:
192,192,35158,1,0,0:0:0:0:
448,192,35158,1,0,0:0:0:0:
320,192,35352,1,0,0:0:0:0:
192,192,35547,1,0,0:0:0:0:
320,192,35547,1,0,0:0:0:0:
64,192,35742,1,0,0:0:0:0:
448,192,35937,1,0,0:0:0:0:
320,192,35937,1,0,0:0:0:0:
192,192,36132,1,0,0:0:0:0:
192,192,36326,1,0,0:0:0:0:
64,192,36326,1,0,0:0:0:0:
320,192,36521,1,0,0:0:0:0:
192,192,36716,1,0,0:0:0:0:
448,192,36716,1,0,0:0:0:0:
320,192,36911,1,0,0:0:0:0:
448,192,37106,1,0,0:0:0:0:
64,192,37106,1,0,0:0:0:0:
320,192,37106,1,0,0:0:0:0:
192,192,37300,1,0,0:0:0:0:
448,192,37495,1,0,0:0:0:0:
64,192,37495,1,0,0:0:0:0:
192,192,37690,1,0,0:0:0:0:
64,192,37885,1,0,0:0:0:0:
320,192,37885,1,0,0:0:0:0:
448,192,38080,1,0,0:0:0:0:
192,192,38274,1,0,0:0:0:0:
448,192,38274,1,0,0:0:0:0:
192,192,38469,1,0,0:0:0:0:
64,192,38664,1,0,0:0:0:0:
320,192,38664,1,0,0:0:0:0:
320,192,38859,1,0,0:0:0:0:
64,192,39054,1,0,0:0:0:0:
448,192,39054,1,0,0:0:0:0:
320,192,39248,1,0,0:0:0:0:
64,192,39443,1,0,0:0:0:0:
320,192,39443,1,0,0:0:0:0:
192,192,39638,1,0,0:0:0:0:
64,192,39833,1,0,0:0:0:0:
448,192,39833,1,0,0:0:0:0:
320,192,40028,1,0,0:0:0:0:
192,192,40222,1,0,0:0:0:0:
448,192,40222,1,0,0:0:0:0:
64,192,40417,1,0,0:0:0:0:
320,192,40612,1,0,0:0:0:0:
448,192,40612,1,0,0:0:0:0:
64,192,40807,1,0,0:0:0:0:
192,192,41002,1,0,0:0:0:0:
448,192,41002,1,0,0:0:0:0:
64,192,41196,1,0,0:0:0:0:
320,192,41391,1,0,0:0:0:0:
448,192,41391,1,0,0:0:0:0:
64,192,41586,1,0,0:0:0:0:
64,192,41781,1,0,0:0:0:0:
320,192,41781,1,0,0:0:0:0:
448,192,41976,1,0,0:0:0:0:
192,192,42171,1,0,0:0:0:0:
320,192,42171,1,0,0:0:0:0:
448,192,42365,1,0,0:0:0:0:
64,192,42560,1,0,0:0:0:0:
320,192,42560,1,0,0:0:0:0:
448,192,42755,1,0,0:0:0:0:
192,192,42950,1,0,0:0:0:0:
320,192,42950,1,0,0:0:0:0:
448,192,43145,1,0,0:0:0:0:
320,192,43339,1,0,0:0:0:0:
64,192,43339,1,0,0:0:0:0:
192,192,43339,1,0,0:0:0:0:
192,192,43534,1,0,0:0:0:0:
448,192,43729,1,0,0:0:0:0:
64,192,43729,1,0,0:0:0:0:
192,192,43924,1,0,0:0:0:0:
64,192,44119,1,0,0:0:0:0:
320,192,44119,1,0,0:0:0:0:
192,192,44313,1,0,0:0:0:0:
448,192,44508,1,0,0:0:0:0:
64,192,44508,1,0,0:0:0:0:
192,192,44703,1,0,0:0:0:0:
64,192,44898,1,0,0:0:0:0:
320,192,44898,1,0,0:0:0:0:
320,192,45093,1,0,0:0:0:0:
448,192,45287,1,0,0:0:0:0:
64,192,45287,1,0,0:0:0:0:
320,192,45482,1,0,0:0:0:0:
192,192,45677,1,0,0:0:0:0:
64,192,45677,1,0,0:0:0:0:
320,192,45872,1,0,0:0:0:0:
448,192,46067,1,0,0:0:0:0:
192,192,46067,1,0,0:0:0:0:
320,192,46261,1,0,0:0:0:0:
64,192,46456,1,0,0:0:0:0:
192,192,46456,1,0,0:0:0:0:
448,192,46651,1,0,0:0:0:0:
320,192,46846,1,0,0:0:0:0:
64,192,46846,1,0,0:0:0:0:
448,192,47041,1,0,0:0:0:0:
64,192,47235,1,0,0:0:0:0:
192,192,47235,1,0,0:0:0:0:
448,192,47430,1,0,0:0:0:0:
320,192,47625,1,0,0:0:0:0:
64,192,47625,1,0,0:0:0:0:
448,192,47820,1,0,0:0:0:0:
320,192,48015,1,0,0:0:0:0:
192,192,48015,1,0,0:0:0:0:
64,192,48209,1,0,0:0:0:0:
448,192,48404,1,0,0:0:0:0:
192,192,48404,1,0,0:0:0:0:
64,192,48599,1,0,0:0:0:0:
192,192,48794,1,0,0:0:0:0:
320,192,48794,1,0,0:0:0:0:
64,192,48989,1,0,0:0:0:0:
448,192,49183,1,0,0:0:0:0:
192,192,49183,1,0,0:0:0:0:
64,192,49378,1,0,0:0:0:0:
448,192,49378,1,0,0:0:0:0:
320,192,49476,1,0,0:0:0:0:
192,192,49573,1,0,0:0:0:0:
448,192,49573,1,0,0:0:0:0:
320,192,49865,1,0,0:0:0:0:
448,192,49963,1,0,0:0:0:0:
320,192,50158,1,0,0:0:0:0:
64,192,50352,1,0,0:0:0:0:
448,192,50352,128,0,51911:0:0:0:0:
320,192,50547,1,0,0:0:0:0:
192,192,50742,1,0,0:0:0:0:
320,192,50937,1,0,0:0:0:0:
192,192,51034,1,0,0:0:0:0:
64,192,51132,1,0,0:0:0:0:
320,192,51326,1,0,0:0:0:0:
192,192,51521,1,0,0:0:0:0:
320,192,51716,1,0,0:0:0:0:
64,192,51911,128,0,52495:0:0:0:0:
192,192,51911,1,0,0:0:0:0:
320,192,52008,1,0,0:0:0:0:
448,192,52106,1,0,0:0:0:0:
320,192,52203,1,0,0:0:0:0:
192,192,52300,1,0,0:0:0:0:
448,192,52300,1,0,0:0:0:0:
320,192,52495,128,0,53469:0:0:0:0:
192,192,52495,1,0,0:0:0:0:
448,192,52690,1,0,0:0:0:0:
192,192,52690,1,0,0:0:0:0:
64,192,52982,1,0,0:0:0:0:
448,192,53080,1,0,0:0:0:0:
64,192,53274,1,0,0:0:0:0:
192,192,53469,1,0,0:0:0:0:
64,192,53664,1,0,0:0:0:0:
192,192,53859,128,0,54054:0:0:0:0:
320,192,53859,1,0,0:0:0:0:
448,192,54054,128,0,54638:0:0:0:0:
64,192,54054,1,0,0:0:0:0:
320,192,54151,1,0,0:0:0:0:
64,192,54248,1,0,0:0:0:0:
320,192,54443,1,0,0:0:0:0:
64,192,54638,128,0,54833:0:0:0:0:
192,192,54638,1,0,0:0:0:0:
320,192,54833,128,0,55807:0:0:0:0:
192,192,55028,1,0,0:0:0:0:
64,192,55125,1,0,0:0:0:0:
192,192,55222,1,0,0:0:0:0:
64,192,55320,1,0,0:0:0:0:
448,192,55417,1,0,0:0:0:0:
192,192,55612,1,0,0:0:0:0:
64,192,55807,1,0,0:0:0:0:
448,192,55807,1,0,0:0:0:0:
192,192,56099,1,0,0:0:0:0:
448,192,56196,1,0,0:0:0:0:
192,192,56391,1,0,0:0:0:0:
448,192,56586,128,0,57755:0:0:0:0:
64,192,56586,1,0,0:0:0:0:
192,192,56781,1,0,0:0:0:0:
320,192,56976,1,0,0:0:0:0:
192,192,57171,1,0,0:0:0:0:
320,192,57268,1,0,0:0:0:0:
64,192,57365,1,0,0:0:0:0:
192,192,57560,1,0,0:0:0:0:
320,192,57755,1,0,0:0:0:0:
192,192,57950,1,0,0:0:0:0:
64,192,58145,128,0,58729:0:0:0:0:
320,192,58145,1,0,0:0:0:0:
448,192,58242,1,0,0:0:0:0:
320,192,58339,1,0,0:0:0:0:
448,192,58437,1,0,0:0:0:0:
320,192,58534,1,0,0:0:0:0:
448,192,58729,128,0,59703:0:0:0:0:
192,192,58924,1,0,0:0:0:0:
320,192,58924,1,0,0:0:0:0:
64,192,59216,1,0,0:0:0:0:
320,192,59313,1,0,0:0:0:0:
64,192,59508,1,0,0:0:0:0:
192,192,59703,1,0,0:0:0:0:
64,192,59898,1,0,0:0:0:0:
64,192,60093,128,0,60287:0:0:0:0:
320,192,60093,1,0,0:0:0:0:
448,192,60287,128,0,60872:0:0:0:0:
192,192,60287,1,0,0:0:0:0:
320,192,60385,1,0,0:0:0:0:
64,192,60482,1,0,0:0:0:0:
192,192,60677,1,0,0:0:0:0:
320,192,60774,1,0,0:0:0:0:
64,192,60872,128,0,61067:0:0:0:0:
448,192,61067,128,0,62041:0:0:0:0:
320,192,61067,1,0,0:0:0:0:
192,192,61164,1,0,0:0:0:0:
64,192,61261,1,0,0:0:0:0:
192,192,61359,1,0,0:0:0:0:
64,192,61456,1,0,0:0:0:0:
320,192,61651,1,0,0:0:0:0:
192,192,61748,1,0,0:0:0:0:
320,192,61846,1,0,0:0:0:0:
64,192,62041,1,0,0:0:0:0:
320,192,62041,1,0,0:0:0:0:
192,192,62235,1,0,0:0:0:0:
320,192,62430,1,0,0:0:0:0:
64,192,62430,1,0,0:0:0:0:
448,192,62625,1,0,0:0:0:0:
320,192,62820,1,0,0:0:0:0:
64,192,62820,1,0,0:0:0:0:
192,192,63015,1,0,0:0:0:0:
192,192,63209,1,0,0:0:0:0:
448,192,63209,1,0,0:0:0:0:
64,192,63404,1,0,0:0:0:0:
448,192,63599,1,0,0:0:0:0:
192,192,63599,1,0,0:0:0:0:
320,192,63794,1,0,0:0:0:0:
192,192,63989,1,0,0:0:0:0:
64,192,63989,1,0,0:0:0:0:
448,192,64183,1,0,0:0:0:0:
320,192,64378,1,0,0:0:0:0:
64,192,64378,1,0,0:0:0:0:
192,192,64573,1,0,0:0:0:0:
192,192,64768,1,0,0:0:0:0:
448,192,64768,1,0,0:0:0:0:
64,192,64963,1,0,0:0:0:0:
192,192,65158,1,0,0:0:0:0:
320,192,65158,1,0,0:0:0:0:
448,192,65352,1,0,0:0:0:0:
320,192,65547,1,0,0:0:0:0:
64,192,65547,1,0,0:0:0:0:
64,192,65742,1,0,0:0:0:0:
192,192,65937,1,0,0:0:0:0:
448,192,65937,1,0,0:0:0:0:
320,192,66132,1,0,0:0:0:0:
320,192,66326,1,0,0:0:0:0:
64,192,66326,1,0,0:0:0:0:
448,192,66521,1,0,0:0:0:0:
64,192,66716,1,0,0:0:0:0:
320,192,66716,1,0,0:0:0:0:
448,192,66911,1,0,0:0:0:0:
192,192,67106,1,0,0:0:0:0:
320,192,67106,1,0,0:0:0:0:
448,192,67300,1,0,0:0:0:0:
320,192,67495,1,0,0:0:0:0:
64,192,67495,1,0,0:0:0:0:
192,192,67690,1,0,0:0:0:0:
192,192,67885,1,0,0:0:0:0:
448,192,67885,1,0,0:0:0:0:
64,192,68080,1,0,0:0:0:0:
192,192,68274,1,0,0:0:0:0:
448,192,68274,1,0,0:0:0:0:
320,192,68274,1,0,0:0:0:0:
192,192,68469,1,0,0:0:0:0:
448,192,68664,1,0,0:0:0:0:
64,192,68664,1,0,0:0:0:0:
192,192,68859,1,0,0:0:0:0:
64,192,69054,1,0,0:0:0:0:
320,192,69054,1,0,0:0:0:0:
192,192,69248,1,0,0:0:0:0:
64,192,69443,1,0,0:0:0:0:
448,192,69443,1,0,0:0:0:0:
320,192,69638,1,0,0:0:0:0:
192,192,69833,1,0,0:0:0:0:
448,192,69833,1,0,0:0:0:0:
320,192,70028,1,0,0:0:0:0:
448,192,70222,1,0,0:0:0:0:
64,192,70222,1,0,0:0:0:0:
320,192,70417,1,0,0:0:0:0:
192,192,70612,1,0,0:0:0:0:
448,192,70612,1,0,0:0:0:0:
320,192,70807,1,0,0:0:0:0:
448,192,71002,1,0,0:0:0:0:
64,192,71002,1,0,0:0:0:0:
192,192,71196,1,0,0:0:0:0:
320,192,71391,1,0,0:0:0:0:
64,192,71391,1,0,0:0:0:0:
192,192,71586,1,0,0:0:0:0:
320,192,71781,1,0,0:0:0:0:
448,192,71781,1,0,0:0:0:0:
192,192,71976,1,0,0:0:0:0:
64,192,72171,1,0,0:0:0:0:
320,192,72171,1,0,0:0:0:0:
192,192,72365,1,0,0:0:0:0:
320,192,72560,1,0,0:0:0:0:
448,192,72560,1,0,0:0:0:0:
192,192,72755,1,0,0:0:0:0:
192,192,72950,1,0,0:0:0:0:
448,192,72950,1,0,0:0:0:0:
320,192,73145,1,0,0:0:0:0:
64,192,73339,1,0,0:0:0:0:
192,192,73339,1,0,0:0:0:0:
320,192,73534,1,0,0:0:0:0:
192,192,73729,1,0,0:0:0:0:
448,192,73729,1,0,0:0:0:0:
320,192,73924,1,0,0:0:0:0:
192,192,74119,1,0,0:0:0:0:
64,192,74119,1,0,0:0:0:0:
320,192,74313,1,0,0:0:0:0:
192,192,74508,1,0,0:0:0:0:
448,192,74508,1,0,0:0:0:0:
64,192,74800,1,0,0:0:0:0:
448,192,74898,1,0,0:0:0:0:
64,192,75093,1,0,0:0:0:0:
320,192,75287,128,0,76846:0:0:0:0:
192,192,75287,1,0,0:0:0:0:
64,192,75482,1,0,0:0:0:0:
448,192,75677,1,0,0:0:0:0:
64,192,75872,1,0,0:0:0:0:
448,192,75969,1,0,0:0:0:0:
192,192,76067,1,0,0:0:0:0:
64,192,76261,1,0,0:0:0:0:
448,192,76456,1,0,0:0:0:0:
192,192,76651,1,0,0:0:0:0:
64,192,76846,128,0,77430:0:0:0:0:
192,192,76846,1,0,0:0:0:0:
320,192,76943,1,0,0:0:0:0:
192,192,77041,1,0,0:0:0:0:
320,192,77138,1,0,0:0:0:0:
448,192,77235,1,0,0:0:0:0:
320,192,77430,128,0,78404:0:0:0:0:
448,192,77430,1,0,0:0:0:0:
192,192,77625,1,0,0:0:0:0:
64,192,77625,1,0,0:0:0:0:
192,192,77917,1,0,0:0:0:0:
448,192,78015,1,0,0:0:0:0:
192,192,78209,1,0,0:0:0:0:
64,192,78404,1,0,0:0:0:0:
192,192,78599,1,0,0:0:0:0:
448,192,78794,1,0,0:0:0:0:
320,192,78794,128,0,78989:0:0:0:0:
192,192,78989,1,0,0:0:0:0:
64,192,78989,128,0,79573:0:0:0:0:
448,192,79086,1,0,0:0:0:0:
320,192,79183,1,0,0:0:0:0:
192,192,79378,1,0,0:0:0:0:
320,192,79573,128,0,79768:0:0:0:0:
448,192,79573,1,0,0:0:0:0:
64,192,79768,128,0,80742:0:0:0:0:
192,192,79768,1,0,0:0:0:0:
448,192,79963,1,0,0:0:0:0:
320,192,80060,1,0,0:0:0:0:
192,192,80158,1,0,0:0:0:0:
320,192,80255,1,0,0:0:0:0:
448,192,80352,1,0,0:0:0:0:
320,192,80547,1,0,0:0:0:0:
448,192,80742,1,0,0:0:0:0:
192,192,80742,1,0,0:0:0:0:
320,192,81034,1,0,0:0:0:0:
448,192,81132,1,0,0:0:0:0:
320,192,81326,1,0,0:0:0:0:
64,192,81521,128,0,83080:0:0:0:0:
192,192,81521,1,0,0:0:0:0:
320,192,81716,1,0,0:0:0:0:
448,192,81911,1,0,0:0:0:0:
320,192,82106,1,0,0:0:0:0:
448,192,82203,1,0,0:0:0:0:
192,192,82300,1,0,0:0:0:0:
320,192,82495,1,0,0:0:0:0:
448,192,82690,1,0,0:0:0:0:
320,192,82885,1,0,0:0:0:0:
448,192,83080,128,0,83664:0:0:0:0:
192,192,83080,1,0,0:0:0:0:
320,192,83177,1,0,0:0:0:0:
64,192,83274,1,0,0:0:0:0:
192,192,83372,1,0,0:0:0:0:
320,192,83469,1,0,0:0:0:0:
192,192,83664,128,0,84638:0:0:0:0:
64,192,83664,1,0,0:0:0:0:
448,192,83859,1,0,0:0:0:0:
64,192,83859,1,0,0:0:0:0:
320,192,84151,1,0,0:0:0:0:
448,192,84248,1,0,0:0:0:0:
320,192,84443,1,0,0:0:0:0:
64,192,84638,1,0,0:0:0:0:
320,192,84833,1,0,0:0:0:0:
448,192,85028,1,0,0:0:0:0:
64,192,85028,128,0,85222:0:0:0:0:
320,192,85222,128,0,85807:0:0:0:0:
192,192,85222,1,0,0:0:0:0:
448,192,85320,1,0,0:0:0:0:
64,192,85417,1,0,0:0:0:0:
448,192,85612,1,0,0:0:0:0:
64,192,85709,1,0,0:0:0:0:
192,192,85807,128,0,86002:0:0:0:0:
448,192,85807,1,0,0:0:0:0:
448,192,86002,128,0,86976:0:0:0:0:
320,192,86002,1,0,0:0:0:0:
64,192,86099,1,0,0:0:0:0:
320,192,86196,1,0,0:0:0:0:
192,192,86294,1,0,0:0:0:0:
320,192,86391,1,0,0:0:0:0:
192,192,86586,1,0,0:0:0:0:
320,192,86683,1,0,0:0:0:0:
192,192,86781,1,0,0:0:0:0:
320,192,86976,1,0,0:0:0:0:
64,192,86976,1,0,0:0:0:0:
192,192,87171,1,0,0:0:0:0:
448,192,87365,1,0,0:0:0:0:
64,192,87365,1,0,0:0:0:0:
192,192,87560,1,0,0:0:0:0:
448,192,87755,1,0,0:0:0:0:
64,192,87755,1,0,0:0:0:0:
320,192,87950,1,0,0:0:0:0:
192,192,88145,1,0,0:0:0:0:
448,192,88145,1,0,0:0:0:0:
192,192,88339,1,0,0:0:0:0:
64,192,88534,1,0,0:0:0:0:
320,192,88534,1,0,0:0:0:0:
448,192,88729,1,0,0:0:0:0:
448,192,88924,1,0,0:0:0:0:
192,192,88924,1,0,0:0:0:0:
320,192,89119,1,0,0:0:0:0:
448,192,89313,1,0,0:0:0:0:
64,192,89313,1,0,0:0:0:0:
192,192,89654,1,0,0:0:0:0:
448,192,89703,1,0,0:0:0:0:
320,192,89898,1,0,0:0:0:0:
64,192,90093,1,0,0:0:0:0:
320,192,90093,1,0,0:0:0:0:
448,192,90287,1,0,0:0:0:0:
192,192,90482,1,0,0:0:0:0:
448,192,90580,1,0,0:0:0:0:
448,192,90872,1,0,0:0:0:0:
64,192,90872,1,0,0:0:0:0:
192,192,91261,1,0,0:0:0:0:
448,192,91261,1,0,0:0:0:0:
192,192,91456,1,0,0:0:0:0:
64,192,91651,1,0,0:0:0:0:
448,192,91846,1,0,0:0:0:0:
192,192,92041,1,0,0:0:0:0:
448,192,92138,1,0,0:0:0:0:
448,192,92430,1,0,0:0:0:0:
64,192,92430,1,0,0:0:0:0:
192,192,92771,1,0,0:0:0:0:
320,192,93015,1,0,0:0:0:0:
64,192,93209,1,0,0:0:0:0:
320,192,93209,1,0,0:0:0:0:
192,192,93209,1,0,0:0:0:0:
192,192,93404,1,0,0:0:0:0:
64,192,93599,1,0,0:0:0:0:
448,192,93599,1,0,0:0:0:0:
320,192,93794,1,0,0:0:0:0:
64,192,93989,1,0,0:0:0:0:
448,192,93989,1,0,0:0:0:0:
192,192,94183,1,0,0:0:0:0:
320,192,94378,1,0,0:0:0:0:
64,192,94378,1,0,0:0:0:0:
320,192,94573,1,0,0:0:0:0:
448,192,94768,1,0,0:0:0:0:
64,192,94963,1,0,0:0:0:0:
64,192,95158,1,0,0:0:0:0:
320,192,95158,1,0,0:0:0:0:
192,192,95352,1,0,0:0:0:0:
64,192,95547,1,0,0:0:0:0:
448,192,95547,1,0,0:0:0:0:
192,192,95742,1,0,0:0:0:0:
64,192,95888,1,0,0:0:0:0:
320,192,95937,1,0,0:0:0:0:
192,192,96132,1,0,0:0:0:0:
448,192,96326,1,0,0:0:0:0:
64,192,96521,1,0,0:0:0:0:
320,192,96716,1,0,0:0:0:0:
64,192,96813,1,0,0:0:0:0:
64,192,97106,1,0,0:0:0:0:
448,192,97106,1,0,0:0:0:0:
320,192,97495,1,0,0:0:0:0:
64,192,97495,1,0,0:0:0:0:
192,192,97690,1,0,0:0:0:0:
320,192,97885,1,0,0:0:0:0:
448,192,97885,1,0,0:0:0:0:
192,192,98080,1,0,0:0:0:0:
320,192,98274,1,0,0:0:0:0:
64,192,98274,1,0,0:0:0:0:
192,192,98469,1,0,0:0:0:0:
320,192,98664,1,0,0:0:0:0:
448,192,98664,1,0,0:0:0:0:
192,192,98859,1,0,0:0:0:0:
448,192,99054,1,0,0:0:0:0:
64,192,99054,1,0,0:0:0:0:
448,192,99248,1,0,0:0:0:0:
64,192,99248,1,0,0:0:0:0:
192,192,99346,1,0,0:0:0:0:
320,192,99346,1,0,0:0:0:0:
448,192,99443,1,0,0:0:0:0:
64,192,99443,1,0,0:0:0:0:
320,192,100028,1,0,0:0:0:0:
192,192,100222,1,0,0:0:0:0:
448,192,100222,1,0,0:0:0:0:
64,192,100417,1,0,0:0:0:0:
320,192,100417,1,0,0:0:0:0:
192,192,100612,1,0,0:0:0:0:
64,192,100807,1,0,0:0:0:0:
320,192,100807,1,0,0:0:0:0:
192,192,101002,1,0,0:0:0:0:
320,192,101002,1,0,0:0:0:0:
448,192,101586,1,0,0:0:0:0:
320,192,101781,1,0,0:0:0:0:
64,192,101781,1,0,0:0:0:0:
448,192,101976,1,0,0:0:0:0:
192,192,101976,1,0,0:0:0:0:
320,192,102073,1,0,0:0:0:0:
448,192,102171,1,0,0:0:0:0:
64,192,102365,1,0,0:0:0:0:
320,192,102365,1,0,0:0:0:0:
192,192,102560,1,0,0:0:0:0:
448,192,102560,1,0,0:0:0:0:
320,192,103145,1,0,0:0:0:0:
192,192,103339,1,0,0:0:0:0:
448,192,103339,1,0,0:0:0:0:
64,192,103534,1,0,0:0:0:0:
320,192,103534,1,0,0:0:0:0:
192,192,103729,1,0,0:0:0:0:
64,192,103924,1,0,0:0:0:0:
320,192,103924,1,0,0:0:0:0:
320,192,104119,1,0,0:0:0:0:
448,192,104119,1,0,0:0:0:0:
192,192,104703,1,0,0:0:0:0:
320,192,104898,1,0,0:0:0:0:
448,192,104898,1,0,0:0:0:0:
64,192,105093,1,0,0:0:0:0:
192,192,105093,1,0,0:0:0:0:
64,192,105287,1,0,0:0:0:0:
448,192,105287,1,0,0:0:0:0:
192,192,105482,1,0,0:0:0:0:
320,192,105482,1,0,0:0:0:0:
448,192,105580,1,0,0:0:0:0:
64,192,105677,1,0,0:0:0:0:
320,192,105677,1,0,0:0:0:0:
192,192,105872,1,0,0:0:0:0:
448,192,105969,1,0,0:0:0:0:
64,192,106261,1,0,0:0:0:0:
192,192,106359,1,0,0:0:0:0:
320,192,106456,1,0,0:0:0:0:
448,192,106456,1,0,0:0:0:0:
320,192,106651,1,0,0:0:0:0:
192,192,106846,1,0,0:0:0:0:
64,192,107041,1,0,0:0:0:0:
192,192,107041,1,0,0:0:0:0:
448,192,107138,1,0,0:0:0:0:
320,192,107235,1,0,0:0:0:0:
192,192,107235,1,0,0:0:0:0:
320,192,107430,1,0,0:0:0:0:
64,192,107528,1,0,0:0:0:0:
320,192,107820,1,0,0:0:0:0:
192,192,107917,1,0,0:0:0:0:
448,192,108015,1,0,0:0:0:0:
64,192,108015,1,0,0:0:0:0:
192,192,108209,1,0,0:0:0:0:
320,192,108307,1,0,0:0:0:0:
448,192,108404,1,0,0:0:0:0:
64,192,108599,1,0,0:0:0:0:
448,192,108599,1,0,0:0:0:0:
320,192,108696,1,0,0:0:0:0:
192,192,108794,1,0,0:0:0:0:
448,192,108794,1,0,0:0:0:0:
192,192,108989,1,0,0:0:0:0:
64,192,109086,1,0,0:0:0:0:
448,192,109378,1,0,0:0:0:0:
320,192,109476,1,0,0:0:0:0:
448,192,109573,1,0,0:0:0:0:
64,192,109573,1,0,0:0:0:0:
192,192,109768,1,0,0:0:0:0:
320,192,109963,1,0,0:0:0:0:
448,192,110158,1,0,0:0:0:0:
192,192,110158,1,0,0:0:0:0:
64,192,110255,1,0,0:0:0:0:
192,192,110352,1,0,0:0:0:0:
320,192,110352,1,0,0:0:0:0:
448,192,110352,1,0,0:0:0:0:
320,192,110547,1,0,0:0:0:0:
64,192,110645,1,0,0:0:0:0:
320,192,110742,1,0,0:0:0:0:
192,192,110742,1,0,0:0:0:0:
320,192,110937,1,0,0:0:0:0:
448,192,110937,1,0,0:0:0:0:
192,192,111034,1,0,0:0:0:0:
448,192,111132,1,0,0:0:0:0:
64,192,111132,1,0,0:0:0:0:
320,192,111326,1,0,0:0:0:0:
192,192,111326,1,0,0:0:0:0:
320,192,111521,1,0,0:0:0:0:
192,192,111521,1,0,0:0:0:0:
320,192,111911,1,0,0:0:0:0:
64,192,111911,1,0,0:0:0:0:
448,192,111911,1,0,0:0:0:0:
192,192,112106,1,0,0:0:0:0:
64,192,112300,1,0,0:0:0:0:
320,192,112300,1,0,0:0:0:0:
448,192,112495,1,0,0:0:0:0:
320,192,112690,1,0,0:0:0:0:
64,192,112690,1,0,0:0:0:0:
192,192,112885,1,0,0:0:0:0:
192,192,113080,1,0,0:0:0:0:
448,192,113080,1,0,0:0:0:0:
64,192,113274,1,0,0:0:0:0:
64,192,113469,1,0,0:0:0:0:
320,192,113469,1,0,0:0:0:0:
192,192,113664,1,0,0:0:0:0:
320,192,113859,1,0,0:0:0:0:
448,192,113859,1,0,0:0:0:0:
64,192,114054,1,0,0:0:0:0:
192,192,114248,1,0,0:0:0:0:
448,192,114248,1,0,0:0:0:0:
320,192,114443,1,0,0:0:0:0:
64,192,114638,1,0,0:0:0:0:
320,192,114638,1,0,0:0:0:0:
448,192,114833,1,0,0:0:0:0:
64,192,115028,1,0,0:0:0:0:
320,192,115028,1,0,0:0:0:0:
192,192,115222,1,0,0:0:0:0:
64,192,115417,1,0,0:0:0:0:
320,192,115417,1,0,0:0:0:0:
448,192,115612,1,0,0:0:0:0:
320,192,115807,1,0,0:0:0:0:
448,192,115807,1,0,0:0:0:0:
192,192,116002,1,0,0:0:0:0:
192,192,116196,1,0,0:0:0:0:
64,192,116196,1,0,0:0:0:0:
64,192,116391,1,0,0:0:0:0:
192,192,116586,1,0,0:0:0:0:
448,192,116586,1,0,0:0:0:0:
320,192,116781,1,0,0:0:0:0:
192,192,116976,1,0,0:0:0:0:
448,192,116976,1,0,0:0:0:0:
448,192,117171,1,0,0:0:0:0:
320,192,117365,1,0,0:0:0:0:
64,192,117365,1,0,0:0:0:0:
192,192,117560,1,0,0:0:0:0:
192,192,117755,1,0,0:0:0:0:
448,192,117755,1,0,0:0:0:0:
64,192,117950,1,0,0:0:0:0:
320,192,118145,1,0,0:0:0:0:
448,192,118145,1,0,0:0:0:0:
64,192,118145,1,0,0:0:0:0:
192,192,118339,1,0,0:0:0:0:
64,192,118534,1,0,0:0:0:0:
448,192,118534,1,0,0:0:0:0:
192,192,118729,1,0,0:0:0:0:
320,192,118924,1,0,0:0:0:0:
64,192,118924,1,0,0:0:0:0:
192,192,119119,1,0,0:0:0:0:
64,192,119313,1,0,0:0:0:0:
448,192,119313,1,0,0:0:0:0:
192,192,119508,1,0,0:0:0:0:
192,192,119703,1,0,0:0:0:0:
64,192,119703,1,0,0:0:0:0:
320,192,119898,1,0,0:0:0:0:
192,192,120093,1,0,0:0:0:0:
448,192,120093,1,0,0:0:0:0:
320,192,120287,1,0,0:0:0:0:
192,192,120482,1,0,0:0:0:0:
64,192,120482,1,0,0:0:0:0:
320,192,120677,1,0,0:0:0:0:
192,192,120872,1,0,0:0:0:0:
448,192,120872,1,0,0:0:0:0:
320,192,121067,1,0,0:0:0:0:
320,192,121261,1,0,0:0:0:0:
64,192,121261,1,0,0:0:0:0:
448,192,121456,1,0,0:0:0:0:
320,192,121651,1,0,0:0:0:0:
192,192,121651,1,0,0:0:0:0:
448,192,121846,1,0,0:0:0:0:
320,192,122041,1,0,0:0:0:0:
64,192,122041,1,0,0:0:0:0:
448,192,122235,1,0,0:0:0:0:
320,192,122430,1,0,0:0:0:0:
192,192,122430,1,0,0:0:0:0:
448,192,122625,1,0,0:0:0:0:
448,192,122820,1,0,0:0:0:0:
192,192,122820,1,0,0:0:0:0:
64,192,123015,1,0,0:0:0:0:
448,192,123209,1,0,0:0:0:0:
320,192,123209,1,0,0:0:0:0:
64,192,123404,1,0,0:0:0:0:
448,192,123599,1,0,0:0:0:0:
192,192,123599,1,0,0:0:0:0:
64,192,123794,1,0,0:0:0:0:
448,192,123989,1,0,0:0:0:0:
320,192,123989,1,0,0:0:0:0:
64,192,124183,1,0,0:0:0:0:
448,192,124378,1,0,0:0:0:0:
192,192,124378,1,0,0:0:0:0:
64,192,124378,1,0,0:0:0:0:
320,192,124573,1,0,0:0:0:0:
448,192,124768,1,0,0:0:0:0:
64,192,124768,1,0,0:0:0:0:
192,192,124963,1,0,0:0:0:0:
448,192,125158,1,0,0:0:0:0:
64,192,125158,1,0,0:0:0:0:
320,192,125352,1,0,0:0:0:0:
192,192,125547,1,0,0:0:0:0:
448,192,125547,1,0,0:0:0:0:
192,192,125742,1,0,0:0:0:0:
64,192,125937,1,0,0:0:0:0:
448,192,126132,1,0,0:0:0:0:
448,192,126326,1,0,0:0:0:0:
192,192,126326,1,0,0:0:0:0:
320,192,126521,1,0,0:0:0:0:
448,192,126716,1,0,0:0:0:0:
64,192,126716,1,0,0:0:0:0:
320,192,126911,1,0,0:0:0:0:
192,192,127057,1,0,0:0:0:0:
448,192,127106,1,0,0:0:0:0:
320,192,127300,1,0,0:0:0:0:
64,192,127495,1,0,0:0:0:0:
448,192,127690,1,0,0:0:0:0:
192,192,127885,1,0,0:0:0:0:
448,192,127982,1,0,0:0:0:0:
448,192,128274,1,0,0:0:0:0:
64,192,128274,1,0,0:0:0:0:
320,192,128469,1,0,0:0:0:0:
192,192,128664,1,0,0:0:0:0:
448,192,128664,1,0,0:0:0:0:
192,192,128859,1,0,0:0:0:0:
64,192,129054,1,0,0:0:0:0:
448,192,129248,1,0,0:0:0:0:
192,192,129443,1,0,0:0:0:0:
448,192,129541,1,0,0:0:0:0:
448,192,129833,1,0,0:0:0:0:
64,192,129833,1,0,0:0:0:0:
320,192,130028,1,0,0:0:0:0:
192,192,130174,1,0,0:0:0:0:
448,192,130222,1,0,0:0:0:0:
320,192,130417,1,0,0:0:0:0:
64,192,130612,1,0,0:0:0:0:
448,192,130612,1,0,0:0:0:0:
192,192,130612,1,0,0:0:0:0:
320,192,130807,1,0,0:0:0:0:
192,192,131002,1,0,0:0:0:0:
448,192,131002,1,0,0:0:0:0:
320,192,131196,1,0,0:0:0:0:
192,192,131391,1,0,0:0:0:0:
64,192,131586,1,0,0:0:0:0:
448,192,131781,1,0,0:0:0:0:
192,192,131781,1,0,0:0:0:0:
448,192,131976,1,0,0:0:0:0:
64,192,132171,1,0,0:0:0:0:
192,192,132365,1,0,0:0:0:0:
192,192,132560,1,0,0:0:0:0:
448,192,132560,1,0,0:0:0:0:
320,192,132755,1,0,0:0:0:0:
192,192,132950,1,0,0:0:0:0:
448,192,132950,1,0,0:0:0:0:
320,192,133145,1,0,0:0:0:0:
448,192,133291,1,0,0:0:0:0:
64,192,133339,1,0,0:0:0:0:
320,192,133534,1,0,0:0:0:0:
64,192,133729,1,0,0:0:0:0:
192,192,133924,1,0,0:0:0:0:
448,192,134119,1,0,0:0:0:0:
192,192,134216,1,0,0:0:0:0:
192,192,134508,1,0,0:0:0:0:
64,192,134703,1,0,0:0:0:0:
448,192,134898,1,0,0:0:0:0:
192,192,134898,1,0,0:0:0:0:
320,192,135093,1,0,0:0:0:0:
448,192,135287,1,0,0:0:0:0:
64,192,135287,1,0,0:0:0:0:
192,192,135482,1,0,0:0:0:0:
448,192,135677,1,0,0:0:0:0:
64,192,135677,1,0,0:0:0:0:
320,192,135872,1,0,0:0:0:0:
448,192,136067,1,0,0:0:0:0:
64,192,136067,1,0,0:0:0:0:
192,192,136261,1,0,0:0:0:0:
320,192,136456,1,0,0:0:0:0:
64,192,136456,1,0,0:0:0:0:
192,192,136554,1,0,0:0:0:0:
320,192,136651,1,0,0:0:0:0:
448,192,136748,1,0,0:0:0:0:
320,192,136846,1,0,0:0:0:0:
64,192,136846,1,0,0:0:0:0:
320,192,137235,1,0,0:0:0:0:
64,192,137235,1,0,0:0:0:0:
448,192,137625,1,0,0:0:0:0:
320,192,137625,1,0,0:0:0:0:
64,192,137625,1,0,0:0:0:0:
192,192,137820,1,0,0:0:0:0:
192,192,137917,1,0,0:0:0:0:
64,192,138015,1,0,0:0:0:0:
320,192,138015,1,0,0:0:0:0:
192,192,138404,1,0,0:0:0:0:
448,192,138404,1,0,0:0:0:0:
320,192,138696,1,0,0:0:0:0:
64,192,138696,1,0,0:0:0:0:
192,192,138794,1,0,0:0:0:0:
448,192,138794,1,0,0:0:0:0:
64,192,138989,1,0,0:0:0:0:
320,192,138989,1,0,0:0:0:0:
448,192,139183,1,0,0:0:0:0:
320,192,139183,1,0,0:0:0:0:
192,192,139183,1,0,0:0:0:0:
64,192,139378,1,0,0:0:0:0:
320,192,139573,1,0,0:0:0:0:
192,192,139573,1,0,0:0:0:0:
448,192,139768,1,0,0:0:0:0:
64,192,139768,1,0,0:0:0:0:
64,192,139865,1,0,0:0:0:0:
192,192,139963,1,0,0:0:0:0:
320,192,139963,1,0,0:0:0:0:
192,192,140352,1,0,0:0:0:0:
320,192,140352,1,0,0:0:0:0:
448,192,140742,1,0,0:0:0:0:
192,192,140742,1,0,0:0:0:0:
320,192,140742,1,0,0:0:0:0:
192,192,140937,1,0,0:0:0:0:
64,192,141034,1,0,0:0:0:0:
192,192,141132,1,0,0:0:0:0:
320,192,141132,1,0,0:0:0:0:
320,192,141326,1,0,0:0:0:0:
448,192,141521,1,0,0:0:0:0:
192,192,141521,1,0,0:0:0:0:
192,192,141716,1,0,0:0:0:0:
320,192,141813,1,0,0:0:0:0:
448,192,141813,1,0,0:0:0:0:
192,192,141911,1,0,0:0:0:0:
320,192,142106,1,0,0:0:0:0:
448,192,142106,1,0,0:0:0:0:
448,192,142300,1,0,0:0:0:0:
192,192,142300,1,0,0:0:0:0:
64,192,142300,1,0,0:0:0:0:
320,192,142495,1,0,0:0:0:0:
192,192,142690,1,0,0:0:0:0:
448,192,142690,1,0,0:0:0:0:
192,192,142885,1,0,0:0:0:0:
448,192,142885,1,0,0:0:0:0:
320,192,142982,1,0,0:0:0:0:
192,192,143080,1,0,0:0:0:0:
64,192,143080,1,0,0:0:0:0:
64,192,143274,1,0,0:0:0:0:
64,192,143469,1,0,0:0:0:0:
192,192,143469,1,0,0:0:0:0:
64,192,143859,1,0,0:0:0:0:
192,192,143859,1,0,0:0:0:0:
448,192,143859,1,0,0:0:0:0:
320,192,144054,1,0,0:0:0:0:
448,192,144151,1,0,0:0:0:0:
192,192,144248,1,0,0:0:0:0:
64,192,144248,1,0,0:0:0:0:
320,192,144638,1,0,0:0:0:0:
64,192,144638,1,0,0:0:0:0:
64,192,144930,1,0,0:0:0:0:
320,192,144930,1,0,0:0:0:0:
448,192,145028,1,0,0:0:0:0:
64,192,145222,1,0,0:0:0:0:
320,192,145222,1,0,0:0:0:0:
448,192,145417,1,0,0:0:0:0:
320,192,145417,1,0,0:0:0:0:
64,192,145417,1,0,0:0:0:0:
192,192,145612,1,0,0:0:0:0:
320,192,145807,1,0,0:0:0:0:
448,192,146002,1,0,0:0:0:0:
192,192,146002,1,0,0:0:0:0:
64,192,146099,1,0,0:0:0:0:
192,192,146196,1,0,0:0:0:0:
448,192,146196,1,0,0:0:0:0:
320,192,146391,1,0,0:0:0:0:
192,192,146586,1,0,0:0:0:0:
448,192,146586,1,0,0:0:0:0:
192,192,146976,1,0,0:0:0:0:
448,192,146976,1,0,0:0:0:0:
64,192,146976,1,0,0:0:0:0:
192,192,147171,1,0,0:0:0:0:
64,192,147268,1,0,0:0:0:0:
192,192,147365,1,0,0:0:0:0:
448,192,147365,1,0,0:0:0:0:
320,192,147755,1,0,0:0:0:0:
448,192,147755,1,0,0:0:0:0:
192,192,147950,1,0,0:0:0:0:
320,192,148047,1,0,0:0:0:0:
448,192,148047,1,0,0:0:0:0:
64,192,148145,1,0,0:0:0:0:
320,192,148339,1,0,0:0:0:0:
448,192,148339,1,0,0:0:0:0:
448,192,148534,1,0,0:0:0:0:
192,192,148534,1,0,0:0:0:0:
64,192,148534,1,0,0:0:0:0:
192,192,148729,1,0,0:0:0:0:
320,192,148729,1,0,0:0:0:0:
64,192,148924,1,0,0:0:0:0:
448,192,148924,1,0,0:0:0:0:
64,192,149119,1,0,0:0:0:0:
448,192,149119,1,0,0:0:0:0:
320,192,149313,1,0,0:0:0:0:
192,192,149313,1,0,0:0:0:0:
64,192,149313,1,0,0:0:0:0:
448,192,149508,1,0,0:0:0:0:
320,192,149703,1,0,0:0:0:0:
192,192,149703,1,0,0:0:0:0:
448,192,149898,1,0,0:0:0:0:
320,192,150093,1,0,0:0:0:0:
64,192,150093,1,0,0:0:0:0:
192,192,150093,1,0,0:0:0:0:
448,192,150287,1,0,0:0:0:0:
192,192,150287,1,0,0:0:0:0:
192,192,150385,1,0,0:0:0:0:
320,192,150482,1,0,0:0:0:0:
448,192,150677,1,0,0:0:0:0:
64,192,150872,1,0,0:0:0:0:
320,192,150872,1,0,0:0:0:0:
448,192,151067,1,0,0:0:0:0:
64,192,151164,1,0,0:0:0:0:
320,192,151261,1,0,0:0:0:0:
448,192,151456,1,0,0:0:0:0:
64,192,151456,1,0,0:0:0:0:
320,192,151651,1,0,0:0:0:0:
192,192,151651,1,0,0:0:0:0:
448,192,151846,1,0,0:0:0:0:
192,192,152041,1,0,0:0:0:0:
192,192,152235,1,0,0:0:0:0:
320,192,152235,1,0,0:0:0:0:
448,192,152333,1,0,0:0:0:0:
64,192,152430,1,0,0:0:0:0:
192,192,152430,1,0,0:0:0:0:
320,192,152625,1,0,0:0:0:0:
192,192,152820,1,0,0:0:0:0:
320,192,153015,1,0,0:0:0:0:
448,192,153209,1,0,0:0:0:0:
192,192,153209,1,0,0:0:0:0:
64,192,153209,1,0,0:0:0:0:
320,192,153404,1,0,0:0:0:0:
192,192,153404,1,0,0:0:0:0:
64,192,153502,1,0,0:0:0:0:
192,192,153599,1,0,0:0:0:0:
320,192,153794,1,0,0:0:0:0:
192,192,153989,1,0,0:0:0:0:
64,192,153989,1,0,0:0:0:0:
448,192,154183,1,0,0:0:0:0:
64,192,154281,1,0,0:0:0:0:
192,192,154378,1,0,0:0:0:0:
448,192,154573,1,0,0:0:0:0:
64,192,154573,1,0,0:0:0:0:
192,192,154768,1,0,0:0:0:0:
320,192,154768,1,0,0:0:0:0:
448,192,154963,1,0,0:0:0:0:
192,192,155158,1,0,0:0:0:0:
64,192,155158,1,0,0:0:0:0:
64,192,155352,1,0,0:0:0:0:
320,192,155352,1,0,0:0:0:0:
192,192,155450,1,0,0:0:0:0:
320,192,155547,1,0,0:0:0:0:
64,192,155547,1,0,0:0:0:0:
448,192,155547,1,0,0:0:0:0:
192,192,155742,1,0,0:0:0:0:
448,192,155742,1,0,0:0:0:0:
64,192,155937,1,0,0:0:0:0:
192,192,156132,1,0,0:0:0:0:
64,192,156326,1,0,0:0:0:0:
448,192,156326,1,0,0:0:0:0:
192,192,156521,1,0,0:0:0:0:
320,192,156521,1,0,0:0:0:0:
448,192,156619,1,0,0:0:0:0:
64,192,156716,1,0,0:0:0:0:
192,192,156911,1,0,0:0:0:0:
64,192,157106,1,0,0:0:0:0:
448,192,157106,1,0,0:0:0:0:
192,192,157300,1,0,0:0:0:0:
448,192,157398,1,0,0:0:0:0:
64,192,157495,1,0,0:0:0:0:
448,192,157690,1,0,0:0:0:0:
192,192,157690,1,0,0:0:0:0:
64,192,157885,1,0,0:0:0:0:
320,192,157885,1,0,0:0:0:0:
448,192,157885,1,0,0:0:0:0:
192,192,158080,1,0,0:0:0:0:
64,192,158274,1,0,0:0:0:0:
320,192,158274,1,0,0:0:0:0:
192,192,158469,1,0,0:0:0:0:
448,192,158469,1,0,0:0:0:0:
448,192,158567,1,0,0:0:0:0:
192,192,158664,1,0,0:0:0:0:
320,192,158664,1,0,0:0:0:0:
64,192,158859,1,0,0:0:0:0:
320,192,158859,1,0,0:0:0:0:
192,192,159054,1,0,0:0:0:0:
64,192,159248,1,0,0:0:0:0:
192,192,159443,1,0,0:0:0:0:
448,192,159443,1,0,0:0:0:0:
320,192,159443,1,0,0:0:0:0:
64,192,159638,1,0,0:0:0:0:
320,192,159638,1,0,0:0:0:0:
448,192,159735,1,0,0:0:0:0:
192,192,159833,1,0,0:0:0:0:
64,192,160028,1,0,0:0:0:0:
192,192,160222,1,0,0:0:0:0:
448,192,160222,1,0,0:0:0:0:
192,192,160417,1,0,0:0:0:0:
448,192,160417,1,0,0:0:0:0:
192,192,160612,1,0,0:0:0:0:
320,192,160612,1,0,0:0:0:0:
192,192,160807,1,0,0:0:0:0:
448,192,161002,1,0,0:0:0:0:
64,192,161002,1,0,0:0:0:0:
320,192,161002,1,0,0:0:0:0:
448,192,161196,1,0,0:0:0:0:
320,192,161196,1,0,0:0:0:0:
448,192,161391,1,0,0:0:0:0:
64,192,161391,1,0,0:0:0:0:
192,192,161781,1,0,0:0:0:0:
448,192,161781,1,0,0:0:0:0:
64,192,161781,1,0,0:0:0:0:
192,192,161976,1,0,0:0:0:0:
320,192,161976,1,0,0:0:0:0:
448,192,162073,1,0,0:0:0:0:
320,192,162171,1,0,0:0:0:0:
64,192,162171,1,0,0:0:0:0:
192,192,162365,1,0,0:0:0:0:
448,192,162365,1,0,0:0:0:0:
320,192,162560,1,0,0:0:0:0:
64,192,162560,1,0,0:0:0:0:
448,192,162755,1,0,0:0:0:0:
192,192,162950,1,0,0:0:0:0:
320,192,162950,1,0,0:0:0:0:
192,192,163145,1,0,0:0:0:0:
448,192,163145,1,0,0:0:0:0:
448,192,163242,1,0,0:0:0:0:
64,192,163339,1,0,0:0:0:0:
320,192,163534,1,0,0:0:0:0:
448,192,163534,1,0,0:0:0:0:
320,192,163729,1,0,0:0:0:0:
192,192,163729,1,0,0:0:0:0:
448,192,163924,1,0,0:0:0:0:
64,192,164119,1,0,0:0:0:0:
320,192,164119,1,0,0:0:0:0:
448,192,164313,1,0,0:0:0:0:
192,192,164313,1,0,0:0:0:0:
448,192,164411,1,0,0:0:0:0:
192,192,164459,1,0,0:0:0:0:
64,192,164508,1,0,0:0:0:0:
320,192,164703,1,0,0:0:0:0:
448,192,164898,1,0,0:0:0:0:
64,192,164898,1,0,0:0:0:0:
320,192,165093,1,0,0:0:0:0:
192,192,165093,1,0,0:0:0:0:
448,192,165190,1,0,0:0:0:0:
64,192,165287,1,0,0:0:0:0:
320,192,165385,1,0,0:0:0:0:
448,192,165482,1,0,0:0:0:0:
192,192,165482,1,0,0:0:0:0:
320,192,165677,1,0,0:0:0:0:
64,192,165677,1,0,0:0:0:0:
448,192,165872,1,0,0:0:0:0:
320,192,165872,1,0,0:0:0:0:
192,192,166067,1,0,0:0:0:0:
64,192,166067,1,0,0:0:0:0:
192,192,166261,1,0,0:0:0:0:
448,192,166261,1,0,0:0:0:0:
448,192,166359,1,0,0:0:0:0:
64,192,166456,1,0,0:0:0:0:
320,192,166651,1,0,0:0:0:0:
448,192,166651,1,0,0:0:0:0:
64,192,166846,1,0,0:0:0:0:
320,192,166943,1,0,0:0:0:0:
448,192,167041,1,0,0:0:0:0:
320,192,167235,1,0,0:0:0:0:
64,192,167235,1,0,0:0:0:0:
448,192,167430,1,0,0:0:0:0:
448,192,167528,1,0,0:0:0:0:
192,192,167576,1,0,0:0:0:0:
320,192,167820,1,0,0:0:0:0:
448,192,168015,1,0,0:0:0:0:
192,192,168015,1,0,0:0:0:0:
64,192,168015,1,0,0:0:0:0:
320,192,168209,1,0,0:0:0:0:
192,192,168209,1,0,0:0:0:0:
64,192,168307,1,0,0:0:0:0:
448,192,168404,1,0,0:0:0:0:
192,192,168404,1,0,0:0:0:0:
64,192,168599,1,0,0:0:0:0:
320,192,168599,1,0,0:0:0:0:
192,192,168794,1,0,0:0:0:0:
448,192,168794,1,0,0:0:0:0:
64,192,168989,1,0,0:0:0:0:
192,192,168989,1,0,0:0:0:0:
320,192,169183,1,0,0:0:0:0:
448,192,169183,1,0,0:0:0:0:
320,192,169378,1,0,0:0:0:0:
64,192,169378,1,0,0:0:0:0:
64,192,169476,1,0,0:0:0:0:
448,192,169573,1,0,0:0:0:0:
192,192,169768,1,0,0:0:0:0:
64,192,169768,1,0,0:0:0:0:
192,192,169963,1,0,0:0:0:0:
448,192,169963,1,0,0:0:0:0:
64,192,170158,1,0,0:0:0:0:
320,192,170158,1,0,0:0:0:0:
192,192,170352,1,0,0:0:0:0:
448,192,170352,1,0,0:0:0:0:
64,192,170547,1,0,0:0:0:0:
64,192,170645,1,0,0:0:0:0:
320,192,170693,1,0,0:0:0:0:
448,192,170742,1,0,0:0:0:0:
192,192,170937,1,0,0:0:0:0:
64,192,170937,1,0,0:0:0:0:
448,192,171132,1,0,0:0:0:0:
64,192,171132,1,0,0:0:0:0:
192,192,171326,1,0,0:0:0:0:
320,192,171326,1,0,0:0:0:0:
64,192,171424,1,0,0:0:0:0:
448,192,171497,1,0,0:0:0:0:
192,192,171619,1,0,0:0:0:0:
64,192,171716,1,0,0:0:0:0:
320,192,171716,1,0,0:0:0:0:
192,192,171911,1,0,0:0:0:0:
448,192,171911,1,0,0:0:0:0:
192,192,172106,1,0,0:0:0:0:
64,192,172106,1,0,0:0:0:0:
320,192,172300,1,0,0:0:0:0:
448,192,172300,1,0,0:0:0:0:
320,192,172495,1,0,0:0:0:0:
64,192,172495,1,0,0:0:0:0:
64,192,172593,1,0,0:0:0:0:
320,192,172690,1,0,0:0:0:0:
448,192,172885,1,0,0:0:0:0:
192,192,172885,1,0,0:0:0:0:
320,192,173080,1,0,0:0:0:0:
64,192,173080,1,0,0:0:0:0:
192,192,173080,1,0,0:0:0:0:
448,192,173274,1,0,0:0:0:0:
192,192,173274,1,0,0:0:0:0:
320,192,173469,1,0,0:0:0:0:
192,192,173469,1,0,0:0:0:0:
192,192,173664,1,0,0:0:0:0:
448,192,173664,1,0,0:0:0:0:
448,192,173761,1,0,0:0:0:0:
320,192,173859,1,0,0:0:0:0:
192,192,173859,1,0,0:0:0:0:
64,192,173859,1,0,0:0:0:0:
320,192,174054,1,0,0:0:0:0:
192,192,174054,1,0,0:0:0:0:
448,192,174054,1,0,0:0:0:0:
320,192,174248,1,0,0:0:0:0:
64,192,174248,1,0,0:0:0:0:
192,192,174443,1,0,0:0:0:0:
320,192,174638,1,0,0:0:0:0:
448,192,174833,1,0,0:0:0:0:
192,192,174833,1,0,0:0:0:0:
320,192,175028,1,0,0:0:0:0:
64,192,175028,1,0,0:0:0:0:
64,192,175222,1,0,0:0:0:0:
192,192,175222,1,0,0:0:0:0:
448,192,175417,1,0,0:0:0:0:
320,192,175417,1,0,0:0:0:0:
64,192,175612,1,0,0:0:0:0:
320,192,175612,1,0,0:0:0:0:
448,192,175807,1,0,0:0:0:0:
192,192,175807,1,0,0:0:0:0:
64,192,176586,1,0,0:0:0:0:
448,192,176781,1,0,0:0:0:0:
448,192,176878,1,0,0:0:0:0:
192,192,176976,1,0,0:0:0:0:
320,192,177171,1,0,0:0:0:0:
192,192,177365,1,0,0:0:0:0:
448,192,177365,1,0,0:0:0:0:
320,192,177560,1,0,0:0:0:0:
192,192,177755,1,0,0:0:0:0:
320,192,177950,1,0,0:0:0:0:
448,192,178145,1,0,0:0:0:0:
320,192,178339,1,0,0:0:0:0:
192,192,178534,1,0,0:0:0:0:
64,192,178729,1,0,0:0:0:0:
320,192,178924,1,0,0:0:0:0:
192,192,178924,1,0,0:0:0:0:
64,192,179703,1,0,0:0:0:0:
320,192,179898,1,0,0:0:0:0:
448,192,179898,1,0,0:0:0:0:
320,192,180093,1,0,0:0:0:0:
448,192,180093,1,0,0:0:0:0:
64,192,180287,1,0,0:0:0:0:
64,192,180385,1,0,0:0:0:0:
192,192,180482,1,0,0:0:0:0:
320,192,180482,1,0,0:0:0:0:
192,192,180677,1,0,0:0:0:0:
448,192,181261,1,0,0:0:0:0:
64,192,181261,1,0,0:0:0:0:
320,192,181456,1,0,0:0:0:0:
192,192,181554,1,0,0:0:0:0:
320,192,182041,1,0,0:0:0:0:
320,192,182333,1,0,0:0:0:0:
320,192,182625,1,0,0:0:0:0:
448,192,182820,1,0,0:0:0:0:
64,192,182820,1,0,0:0:0:0:
320,192,183404,1,0,0:0:0:0:
192,192,183502,1,0,0:0:0:0:
64,192,183599,1,0,0:0:0:0:
320,192,183599,1,0,0:0:0:0:
64,192,183794,1,0,0:0:0:0:
448,192,184378,1,0,0:0:0:0:
320,192,184573,1,0,0:0:0:0:
192,192,184671,1,0,0:0:0:0:
64,192,185158,1,0,0:0:0:0:
448,192,185158,1,0,0:0:0:0:
192,192,185352,1,0,0:0:0:0:
320,192,185352,1,0,0:0:0:0:
64,192,185352,1,0,0:0:0:0:
192,192,185547,1,0,0:0:0:0:
320,192,185547,1,0,0:0:0:0:
448,192,185547,1,0,0:0:0:0:
192,192,185742,1,0,0:0:0:0:
320,192,185742,1,0,0:0:0:0:
64,192,185742,1,0,0:0:0:0:
448,192,185937,1,0,0:0:0:0:
64,192,185937,1,0,0:0:0:0:
64,192,186132,1,0,0:0:0:0:
192,192,186132,1,0,0:0:0:0:
320,192,186132,1,0,0:0:0:0:
448,192,186326,1,0,0:0:0:0:
192,192,186326,1,0,0:0:0:0:
320,192,186326,1,0,0:0:0:0:
64,192,186521,1,0,0:0:0:0:
192,192,186521,1,0,0:0:0:0:
320,192,186521,1,0,0:0:0:0:
64,192,186716,1,0,0:0:0:0:
192,192,186716,1,0,0:0:0:0:
320,192,186716,1,0,0:0:0:0:
448,192,186716,1,0,0:0:0:0:
