osu file format v14

[General]
AudioFilename: Last Christmas (Speed Up Ver.).mp3
AudioLeadIn: 0
PreviewTime: 16951
Countdown: 0
SampleSet: Soft
StackLeniency: 0.4
Mode: 0
LetterboxInBreaks: 0
EpilepsyWarning: 1
WidescreenStoryboard: 0

[Editor]
DistanceSpacing: 1.2
BeatDivisor: 4
GridSize: 4
TimelineZoom: 1

[Metadata]
Title:Last Christmas (Speed Up Ver.)
TitleUnicode:Last Christmas (Speed Up Ver.)
Artist:Glee Cast
ArtistUnicode:Glee Cast
Creator:MkGuh
Version:Xmas
Source:Glee
Tags:Glee The Christmas Album nightcore remix Rachel Berry Finn Hudson New Directions The Music The Complete Season Two short cut ver xmas fox
BeatmapID:813399
BeatmapSetID:371222

[Difficulty]
HPDrainRate:6
CircleSize:4
OverallDifficulty:6
ApproachRate:7
SliderMultiplier:1.6
SliderTickRate:1

[Events]
//Background and Video events
0,0,"BG.jpg",0,0
//Break Periods
//Storyboard Layer 0 (Background)
//Storyboard Layer 1 (Fail)
//Storyboard Layer 2 (Pass)
//Storyboard Layer 3 (Foreground)
//Storyboard Sound Samples

[TimingPoints]
2638,449.034575662326,4,2,0,70,1,0
17007,-90.9090909090909,4,2,0,80,0,1
31376,-111.111111111111,4,2,0,70,0,0
46418,-111.111111111111,4,2,0,40,0,0
47092,-111.111111111111,4,2,0,70,0,0
49337,-100,4,2,0,75,0,0
60114,-90.9090909090909,4,2,0,90,0,1
74371,-90.9090909090909,4,2,0,90,0,0
74483,-90.9090909090909,4,2,0,90,0,1
88852,-100,4,2,0,70,0,0

[Colours]
Combo1 : 236,236,0
Combo2 : 255,0,0
Combo3 : 18,124,255

[HitObjects]
216,256,2638,6,0,P|288:288|360:256,1,160,6|2,0:0|0:0,0:0:0:0:
336,164,3311,1,2,0:0:0:0:
336,164,3536,2,0,P|328:124|340:84,1,80,2|0,0:0|0:0,0:0:0:0:
244,88,3985,2,0,P|254:126|246:165,1,80,2|2,0:0|0:0,0:0:0:0:
164,128,4434,6,0,B|88:104|88:104|0:132,1,160,2|0,0:0|0:0,0:0:0:0:
72,204,5107,2,0,P|44:276|72:352,1,160,2|2,0:0|0:0,0:0:0:0:
160,312,5781,2,0,P|200:304|244:316,1,80,2|0,0:0|0:0,0:0:0:0:
320,364,6230,6,0,B|360:392|392:372|400:368|408:364|444:344|480:380,1,160,2|2,0:0|0:0,0:0:0:0:
496,280,6903,1,2,0:0:0:0:
496,280,7128,2,0,P|484:241|476:200,1,80,2|0,0:0|0:0,0:0:0:0:
400,144,7577,2,0,P|392:104|380:66,2,80,2|2|2,0:0|0:0|0:0,0:0:0:0:
312,180,8250,5,2,0:0:0:0:
312,180,8475,2,0,P|319:219|331:257,2,80,0|2|0,0:0|0:0|0:0,0:0:0:0:
316,84,9149,1,2,0:0:0:0:
388,20,9373,1,2,0:0:0:0:
216,32,9822,6,0,P|140:56|56:28,1,160,2|2,0:0|0:0,0:0:0:0:
0,108,10496,1,2,0:0:0:0:
48,192,10720,2,0,L|56:284,1,80,2|0,0:0|0:0,0:0:0:0:
148,288,11169,2,0,L|140:196,1,80,2|2,0:0|0:0,0:0:0:0:
224,156,11618,6,0,L|232:248,2,80,2|2|0,0:0|0:0|0:0,0:0:0:0:
280,76,12292,2,0,B|356:32|432:80,1,160,2|2,0:0|0:0,0:0:0:0:
496,200,12965,2,0,B|460:288|524:268|484:354,1,160,2|2,0:0|0:0,0:0:0:0:
304,324,13863,6,0,L|404:308,1,80,2|2,0:0|0:0,0:0:0:0:
328,232,14312,2,0,B|260:244|260:244|208:264|200:320,1,160,2|2,0:0|0:0,0:0:0:0:
112,280,14986,1,2,0:0:0:0:
56,200,15210,1,2,0:0:0:0:
88,108,15435,6,0,L|216:64,2,120,8|8|8,3:0|3:0|3:0,0:0:0:0:
160,172,16333,2,0,L|216:152,2,40,2|8|0,0:0|3:0|3:0,0:0:0:0:
168,268,16782,1,8,3:0:0:0:
152,312,16894,1,0,3:0:0:0:
136,352,17007,6,0,P|56:344|20:260,1,176.000005371094,6|8,0:0|0:0,0:0:0:0:
24,160,17680,2,0,P|96:96|100:-4,2,176.000005371094,2|2|0,0:0|0:0|0:0,0:0:0:0:
80,248,18803,6,0,P|128:252|164:272,1,88.000002685547,2|0,0:0|0:0,0:0:0:0:
264,304,19252,1,10,0:0:0:0:
364,344,19476,2,0,L|380:164,1,176.000005371094
360,64,20150,2,0,B|316:84|316:84|268:76,1,88.000002685547,10|0,0:0|0:0,0:0:0:0:
184,28,20599,6,0,P|140:12|84:32,1,88.000002685547,2|0,0:0|0:0,0:0:0:0:
16,84,21048,2,0,L|20:184,1,88.000002685547,10|0,0:0|0:0,0:0:0:0:
68,272,21497,2,0,P|148:304|228:256,1,176.000005371094,2|8,0:0|0:0,0:0:0:0:
288,180,22171,1,0,0:0:0:0:
372,244,22395,6,0,L|412:328,2,88.000002685547,2|0|8,0:0|0:0|0:0,0:0:0:0:
288,180,23069,2,0,B|320:136|320:136|320:68|320:68|348:20,1,176.000005371094,2|0,0:0|0:0,0:0:0:0:
240,24,23742,1,8,0:0:0:0:
28,32,24191,6,0,P|24:104|96:172,1,176.000005371094,2|8,0:0|0:0,0:0:0:0:
200,176,24865,2,0,P|265:230|266:315,1,176.000005371094
364,356,25538,2,0,L|456:368,2,88.000002685547,8|0|2,0:0|0:0|0:0,0:0:0:0:
265,316,26212,5,2,0:0:0:0:
168,356,26436,1,10,0:0:0:0:
168,356,26661,2,0,B|116:308|116:308|76:356|8:332,1,176.000005371094,2|0,0:0|0:0,0:0:0:0:
44,232,27334,2,0,P|40:176|56:136,1,88.000002685547,8|0,0:0|0:0,0:0:0:0:
140,88,27783,6,0,L|228:120,2,88.000002685547,2|0|8,0:0|0:0|0:0,0:0:0:0:
216,16,28457,2,0,B|296:44|296:44|348:128,2,176.000005371094,2|2|2,0:0|0:0|0:0,0:0:0:0:
240,120,29580,6,0,L|288:204,1,88.000002685547,0|8,0:0|3:0,0:0:0:0:
296,300,30029,2,0,L|268:340,2,44.0000013427735,8|0|2,0:0|3:0|0:0,0:0:0:0:
208,244,30478,1,4,3:0:0:0:
144,328,30702,2,0,L|120:368,2,44.0000013427735,2|0|10,0:0|3:0|0:0,0:0:0:0:
76,240,31151,1,8,3:0:0:0:
56,192,31263,1,0,3:0:0:0:
40,144,31376,6,0,P|52:100|140:72,1,143.999995605469,4|10,0:0|0:0,0:0:0:0:
220,100,32049,1,0,0:0:0:0:
300,136,32274,2,0,P|332:152|376:156,1,71.9999978027344,2|0,0:0|0:0,0:0:0:0:
436,212,32723,2,0,P|416:244|408:280,1,71.9999978027344,8|0,0:0|0:0,0:0:0:0:
324,292,33172,6,0,P|256:272|180:296,1,143.999995605469,2|8,0:0|0:0,0:0:0:0:
100,300,33845,2,0,B|76:260|92:236|96:232|116:208|88:160,1,143.999995605469,2|0,0:0|0:0,0:0:0:0:
140,92,34519,2,0,P|176:88|224:92,1,71.9999978027344,8|0,0:0|0:0,0:0:0:0:
288,128,34968,6,0,P|348:136|380:132,1,71.9999978027344,0|2,0:0|0:0,0:0:0:0:
440,164,35417,2,0,L|436:236,1,71.9999978027344,10|0,0:0|0:0,0:0:0:0:
384,304,35866,1,2,0:0:0:0:
304,332,36091,2,0,B|232:312|156:324,1,143.999995605469,2|0,0:0|0:0,0:0:0:0:
92,272,36764,6,0,B|80:228|80:228|96:180|96:180|84:128,1,143.999995605469,2|8,0:0|0:0,0:0:0:0:
52,52,37438,2,0,B|96:40|132:60|132:60|192:36,1,143.999995605469,2|2,0:0|0:0,0:0:0:0:
276,36,38111,2,0,P|292:72|316:96,1,71.9999978027344,8|2,0:0|0:0,0:0:0:0:
400,112,38560,6,0,L|408:200,1,71.9999978027344
356,252,39009,2,0,L|360:328,1,71.9999978027344,10|0,0:0|0:0,0:0:0:0:
280,356,39458,2,0,P|208:348|144:316,1,143.999995605469,2|10,0:0|0:0,0:0:0:0:
136,144,40356,6,0,P|212:120|256:40,1,143.999995605469,2|10,0:0|0:0,0:0:0:0:
336,60,41030,2,0,P|376:80|416:88,1,71.9999978027344,0|2,0:0|0:0,0:0:0:0:
476,132,41479,2,0,B|472:172|472:172|500:224|460:276,1,143.999995605469,2|0,0:0|0:0,0:0:0:0:
396,216,42153,6,0,B|360:216|360:216|320:228,1,71.9999978027344,0|2,0:0|0:0,0:0:0:0:
284,304,42602,2,0,B|249:314|249:314|213:314,1,71.9999978027344,8|0,0:0|0:0,0:0:0:0:
144,264,43051,2,0,L|132:224,2,35.9999989013672,2|0|0,0:0|0:0|0:0,0:0:0:0:
64,300,43500,1,8,0:0:0:0:
40,216,43724,1,2,0:0:0:0:
64,132,43949,6,0,L|84:56,2,71.9999978027344,2|8|8,0:0|3:0|0:0,0:0:0:0:
92,164,44510,1,8,3:0:0:0:
124,192,44622,1,2,0:0:0:0:
212,212,44847,2,0,P|260:200|284:184,1,71.9999978027344,0|2,3:0|0:0,0:0:0:0:
304,152,45184,1,0,3:0:0:0:
320,112,45296,1,8,0:0:0:0:
372,44,45520,1,0,3:0:0:0:
468,16,45745,6,0,L|476:168,1,143.999995605469,4|8,0:0|0:0,0:0:0:0:
468,244,46418,1,4,0:0:0:0:
424,320,46643,2,0,P|396:344|356:356,1,71.9999978027344,4|0,0:0|0:0,0:0:0:0:
348,268,47092,2,0,P|312:256|276:256,1,71.9999978027344,8|2,0:0|0:0,0:0:0:0:
148,312,47541,6,0,P|76:328|12:296,1,143.999995605469,2|10,0:0|0:0,0:0:0:0:
36,216,48215,1,0,0:0:0:0:
64,136,48439,2,0,L|84:64,1,71.9999978027344,2|2,0:0|0:0,0:0:0:0:
168,60,48888,2,0,L|148:132,1,71.9999978027344,8|0,0:0|0:0,0:0:0:0:
212,200,49337,6,0,P|292:196|372:156,1,160,2|8,0:0|0:0,0:0:0:0:
412,80,50011,2,0,B|460:108|460:168|460:168|460:232,1,160,2|2,0:0|0:0,0:0:0:0:
428,312,50684,2,0,P|388:320|352:344,1,80,10|2,0:0|0:0,0:0:0:0:
260,332,51133,6,0,B|160:300|196:360|96:324,1,160,0|10,0:0|0:0,0:0:0:0:
144,240,51807,1,2,0:0:0:0:
120,148,52031,2,0,P|132:112|176:76,1,80,2|0,0:0|0:0,0:0:0:0:
252,48,52480,2,0,P|292:48|336:24,1,80,10|0,0:0|0:0,0:0:0:0:
412,80,52929,6,0,B|428:128|428:128|404:184|448:236,1,160,2|10,0:0|0:0,0:0:0:0:
508,296,53603,2,0,P|428:276|352:308,1,160,2|2,0:0|0:0,0:0:0:0:
280,248,54276,2,0,L|212:200,1,80,8|2,0:0|0:0,0:0:0:0:
120,224,54726,6,0,P|132:148|204:104,1,160,0|8,0:0|0:0,0:0:0:0:
291,111,55399,2,0,P|367:131|455:111,1,160,2|2,0:0|0:0,0:0:0:0:
508,40,56073,1,8,0:0:0:0:
446,116,56297,1,0,0:0:0:0:
500,196,56522,6,0,B|488:256|488:256|440:268|416:324,1,160,2|8,0:0|0:0,0:0:0:0:
324,308,57195,2,0,P|248:284|156:308,1,160,2|2,0:0|0:0,0:0:0:0:
84,260,57869,2,0,P|76:224|84:180,1,80,10|0,0:0|0:0,0:0:0:0:
148,84,58318,6,0,P|200:64|224:24,1,80,2|8,0:0|3:0,0:0:0:0:
304,12,58767,2,0,L|320:72,2,40,8|0|2,3:2|3:0|0:0,0:0:0:0:
404,12,59216,1,8,3:0:0:0:
460,88,59440,2,0,L|452:144,2,40,2|0|8,0:0|3:0|0:0,0:0:0:0:
376,156,59889,1,2,0:0:0:0:
344,192,60002,1,0,3:0:0:0:
308,224,60114,6,0,P|224:252|140:220,1,176.000005371094,6|8,0:0|0:0,0:0:0:0:
224,152,60787,2,0,B|232:112|224:68|224:68|280:72|320:24,2,176.000005371094,2|2|2,0:0|0:0|0:0,0:0:0:0:
124,108,61910,6,0,P|80:96|28:112,1,88.000002685547,2|0,0:0|0:0,0:0:0:0:
76,204,62359,2,0,P|84:252|120:284,1,88.000002685547,10|2,0:0|0:0,0:0:0:0:
188,204,62808,2,0,P|272:216|324:292,1,176.000005371094,0|10,0:0|0:0,0:0:0:0:
220,304,63482,1,2,0:0:0:0:
312,360,63706,6,0,B|364:364|400:308,1,88.000002685547,2|0,0:0|0:0,0:0:0:0:
396,220,64155,2,0,P|392:176|404:120,1,88.000002685547,10|0,0:0|0:0,0:0:0:0:
476,60,64604,2,0,B|448:36|400:28|400:28|356:52|288:24,1,176.000005371094,2|8,0:0|0:0,0:0:0:0:
284,136,65278,1,0,0:0:0:0:
184,104,65502,6,0,P|140:100|96:120,2,88.000002685547,2|2|8,0:0|0:0|0:0,0:0:0:0:
160,208,66176,2,0,P|172:272|104:360,1,176.000005371094,2|0,0:0|0:0,0:0:0:0:
72,260,66849,1,8,0:0:0:0:
268,340,67298,6,0,B|300:328|332:336|332:336|340:300|376:264|436:272,1,176.000005371094,2|8,0:0|0:0,0:0:0:0:
436,376,67972,2,0,B|500:356|512:296|512:296|524:232,1,176.000005371094,2|0,0:0|0:0,0:0:0:0:
460,152,68646,2,0,P|412:156|372:136,1,88.000002685547,8|0,0:0|0:0,0:0:0:0:
336,44,69095,6,0,B|292:44|292:44|232:68,2,88.000002685547,2|2|8,0:0|0:0|0:0,0:0:0:0:
376,139,69768,2,0,P|380:227|328:304,1,176.000005371094,2|0,0:0|0:0,0:0:0:0:
232,272,70442,2,0,P|148:264|72:320,1,176.000005371094,8|2,0:0|0:0,0:0:0:0:
12,228,71115,5,0,0:0:0:0:
76,144,71340,1,8,0:0:0:0:
180,144,71564,2,0,P|152:68|60:40,2,176.000005371094,2|2|2,0:0|0:0|0:0,0:0:0:0:
256,216,72687,6,0,L|336:172,1,88.000002685547,2|8,0:0|3:0,0:0:0:0:
388,264,73136,2,0,L|436:232,2,44.0000013427735,8|0|2,0:0|3:0|0:0,0:0:0:0:
316,340,73585,1,4,3:0:0:0:
212,332,73809,1,2,0:0:0:0:
160,324,73922,1,0,3:0:0:0:
108,316,74034,1,8,0:0:0:0:
32,244,74259,1,8,3:0:0:0:
32,192,74371,1,0,3:0:0:0:
36,140,74483,6,0,P|48:96|168:68,1,176.000005371094,6|8,0:0|0:0,0:0:0:0:
256,116,75157,1,2,0:0:0:0:
352,68,75381,2,0,P|396:60|448:80,1,88.000002685547,0|2,0:0|0:0,0:0:0:0:
388,168,75830,2,0,P|376:212|392:264,1,88.000002685547,8|2,0:0|0:0,0:0:0:0:
464,324,76279,6,0,P|384:356|304:316,1,176.000005371094,2|10,0:0|0:0,0:0:0:0:
236,240,76953,2,0,P|156:207|79:244,1,176.000005371094,2|0,0:0|0:0,0:0:0:0:
24,156,77626,1,10,0:0:0:0:
80,64,77851,1,0,0:0:0:0:
184,88,78075,6,0,P|228:96|272:88,1,88.000002685547,2|0,0:0|0:0,0:0:0:0:
368,52,78524,2,0,B|392:100|368:136|364:144|360:152|344:188|368:228,2,176.000005371094,10|2|8,0:0|0:0|0:0,0:0:0:0:
270,88,79647,1,0,0:0:0:0:
260,192,79871,6,0,P|268:236|288:284,2,88.000002685547,2|0|8,0:0|0:0|0:0,0:0:0:0:
172,136,80545,2,0,B|128:152|128:152|68:96|-16:144,1,176.000005371094,2|0,0:0|0:0,0:0:0:0:
56,228,81219,1,8,0:0:0:0:
132,372,81668,6,0,P|212:344|308:368,1,176.000005371094,2|8,0:0|0:0,0:0:0:0:
328,260,82341,2,0,P|396:284|492:240,1,176.000005371094,2|0,0:0|0:0,0:0:0:0:
400,184,83015,1,8,0:0:0:0:
436,84,83239,1,0,0:0:0:0:
348,28,83464,6,0,P|308:52|236:56,2,88.000002685547,2|0|10,0:0|0:0|0:0,0:0:0:0:
360,132,84137,2,0,P|264:152|168:128,1,176.000005371094,2|0,0:0|0:0,0:0:0:0:
160,36,84811,1,8,0:0:0:0:
60,68,85035,1,2,0:0:0:0:
88,168,85260,6,0,B|76:212|76:212|84:260,1,88.000002685547,2|0,0:0|0:0,0:0:0:0:
28,344,85709,1,8,0:0:0:0:
28,344,85933,2,0,P|100:296|196:312,1,176.000005371094,2|2,0:0|0:0,0:0:0:0:
252,224,86607,2,0,P|292:232|340:224,1,88.000002685547,8|0,0:0|0:0,0:0:0:0:
408,304,87056,5,4,3:0:0:0:
408,304,87281,1,8,3:0:0:0:
484,228,87505,2,0,L|488:176,2,44.0000013427735,8|0|2,0:0|3:0|0:0,0:0:0:0:
388,184,87954,1,4,3:0:0:0:
432,88,88179,2,0,L|436:24,2,44.0000013427735,2|0|8,0:0|3:0|0:0,0:0:0:0:
332,52,88628,1,2,3:2:0:0:
280,68,88740,1,0,3:0:0:0:
232,84,88852,5,6,0:0:0:0:
