osu file format v14

[General]
AudioFilename: Last Christmas (Speed Up Ver.).mp3
AudioLeadIn: 0
PreviewTime: 16951
Countdown: 0
SampleSet: Soft
StackLeniency: 0.4
Mode: 0
LetterboxInBreaks: 0
EpilepsyWarning: 1
WidescreenStoryboard: 0

[Editor]
DistanceSpacing: 1.1
BeatDivisor: 4
GridSize: 4
TimelineZoom: 1

[Metadata]
Title:Last Christmas (Speed Up Ver.)
TitleUnicode:Last Christmas (Speed Up Ver.)
Artist:Glee Cast
ArtistUnicode:Glee Cast
Creator:MkGuh
Version:Normal
Source:Glee
Tags:Glee The Christmas Album nightcore remix Rachel Berry Finn Hudson New Directions The Music The Complete Season Two short cut ver xmas fox
BeatmapID:813400
BeatmapSetID:371222

[Difficulty]
HPDrainRate:4
CircleSize:3
OverallDifficulty:4
ApproachRate:5
SliderMultiplier:1.1
SliderTickRate:1

[Events]
//Background and Video events
0,0,"BG.jpg",0,0
//Break Periods
//Storyboard Layer 0 (Background)
//Storyboard Layer 1 (Fail)
//Storyboard Layer 2 (Pass)
//Storyboard Layer 3 (Foreground)
//Storyboard Sound Samples

[TimingPoints]
2638,449.034575662326,4,2,0,70,1,0
17007,-100,4,2,0,80,0,1
31376,-100,4,2,0,70,0,0
46418,-100,4,2,0,40,0,0
47092,-100,4,2,0,70,0,0
47541,-100,4,2,0,70,0,0
49337,-100,4,2,0,75,0,0
60114,-90.9090909090909,4,2,0,90,0,1
74371,-90.9090909090909,4,2,0,90,0,0
74483,-90.9090909090909,4,2,0,90,0,1
88852,-100,4,2,0,70,0,0

[Colours]
Combo1 : 236,236,0
Combo2 : 255,0,0
Combo3 : 18,124,255

[HitObjects]
32,156,2638,6,0,P|88:168|148:144,1,110,6|2,0:0|0:0,0:0:0:0:
176,104,3311,2,0,L|232:88,1,55,2|2,0:0|0:0,0:0:0:0:
324,168,3985,2,0,L|320:232,1,55,2|2,0:0|0:0,0:0:0:0:
328,284,4434,6,0,P|380:308|448:288,1,110,2|0,0:0|0:0,0:0:0:0:
484,268,5107,2,0,P|508:212|492:156,1,110,2|2,0:0|0:0,0:0:0:0:
460,120,5781,1,2,0:0:0:0:
344,80,6230,6,0,B|296:104|296:104|236:96,1,110,2|2,0:0|0:0,0:0:0:0:
180,88,6903,2,0,L|108:76,1,55,2|2,0:0|0:0,0:0:0:0:
32,156,7577,2,0,L|36:224,1,55,2|2,0:0|0:0,0:0:0:0:
52,268,8026,6,0,B|108:260|108:260|168:280,1,110,2|0,0:0|0:0,0:0:0:0:
204,236,8699,2,0,B|254:253|254:253|310:245,1,110,2|2,0:0|0:0,0:0:0:0:
364,276,9373,1,2,0:0:0:0:
468,212,9822,6,0,P|468:160|448:100,1,110,2|2,0:0|0:0,0:0:0:0:
416,56,10496,1,2,0:0:0:0:
360,36,10720,2,0,B|300:20|240:48,1,110,2|2,0:0|0:0,0:0:0:0:
216,92,11394,1,2,0:0:0:0:
188,144,11618,2,0,P|144:212|56:232,2,165,2|2|2,0:0|0:0|0:0,0:0:0:0:
308,140,13414,6,0,B|356:168|356:168|424:172,1,110,2|2,0:0|0:0,0:0:0:0:
464,204,14088,1,2,0:0:0:0:
492,256,14312,2,0,P|480:292|416:348,1,110,2|2,0:0|0:0,0:0:0:0:
372,324,14986,1,2,0:0:0:0:
316,300,15210,2,0,B|272:284|272:284|196:300|160:232,2,165,2|0|0,0:0|0:0|3:0,0:0:0:0:
244,200,17007,6,0,P|252:140|224:84,1,110,6|8,0:0|0:0,0:0:0:0:
208,40,17680,2,0,P|264:56|320:36,1,110,2|2,0:0|0:0,0:0:0:0:
368,20,18354,1,8,0:0:0:0:
472,84,18803,2,0,L|468:208,1,110,2|10,0:0|0:0,0:0:0:0:
440,248,19476,2,0,P|392:216|336:212,1,110,0|0,0:0|0:0,0:0:0:0:
280,220,20150,2,0,P|248:230|212:236,1,55,10|0,0:0|0:0,0:0:0:0:
172,256,20599,6,0,B|196:316|164:364|164:364,2,110,2|10|2,0:0|0:0|0:0,0:0:0:0:
220,144,21946,1,8,0:0:0:0:
144,48,22395,2,0,P|104:36|36:44,1,110,2|8,0:0|0:0,0:0:0:0:
32,104,23069,2,0,B|44:172|44:172|28:232,1,110,2|0,0:0|0:0,0:0:0:0:
44,272,23742,1,8,0:0:0:0:
144,340,24191,6,0,B|200:352|268:360,1,110,2|8,0:0|0:0,0:0:0:0:
304,328,24865,2,0,P|336:284|340:224,1,110,2|0,0:0|0:0,0:0:0:0:
320,172,25538,1,8,0:0:0:0:
224,96,25987,2,0,P|192:100|160:92,2,55,2|2|10,0:0|0:0|0:0,0:0:0:0:
268,52,26661,2,0,P|320:40|380:56,1,110,2|0,0:0|0:0,0:0:0:0:
420,92,27334,1,8,0:0:0:0:
320,168,27783,6,0,P|280:192|216:208,1,110,2|8,0:0|0:0,0:0:0:0:
160,192,28457,2,0,P|176:244|172:312,1,110,2|2,0:0|0:0,0:0:0:0:
132,344,29131,1,8,0:0:0:0:
252,356,29580,2,0,P|300:368|368:352,1,110,4|8,3:0|0:0,0:0:0:0:
340,300,30253,1,2,0:0:0:0:
312,248,30478,2,0,P|365:236|418:248,1,110,4|10,3:0|0:0,0:0:0:0:
492,340,31376,6,0,B|540:296|532:224,1,110,4|10,0:0|0:0,0:0:0:0:
492,128,32274,2,0,B|448:96|448:96|392:92,1,110,2|8,0:0|0:0,0:0:0:0:
276,64,33172,2,0,P|236:96|176:112,1,110,2|8,0:0|0:0,0:0:0:0:
124,88,33845,2,0,L|124:204,1,110,2|0,0:0|0:0,0:0:0:0:
80,240,34519,1,8,0:0:0:0:
148,340,34968,6,0,P|180:352|220:352,1,55,0|2,0:0|0:0,0:0:0:0:
252,320,35417,2,0,P|288:316|320:324,1,55,10|0,0:0|0:0,0:0:0:0:
364,336,35866,1,2,0:0:0:0:
420,356,36091,2,0,P|460:300|464:256,1,110,2|0,0:0|0:0,0:0:0:0:
460,200,36764,6,0,L|452:80,1,110,2|8,0:0|0:0,0:0:0:0:
416,40,37438,2,0,P|364:20|304:24,1,110,2|2,0:0|0:0,0:0:0:0:
252,40,38111,1,8,0:0:0:0:
192,56,38336,2,0,L|192:172,1,110,2|0,0:0|0:0,0:0:0:0:
188,228,39009,6,0,P|164:280|112:316,2,110,10|2|10,0:0|0:0|0:0,0:0:0:0:
296,176,40356,2,0,P|340:200|420:204,1,110,2|10,0:0|0:0,0:0:0:0:
448,172,41030,1,0,0:0:0:0:
480,120,41254,2,0,P|488:80|488:40,2,55,2|2|8,0:0|0:0|0:0,0:0:0:0:
372,64,42153,5,0,0:0:0:0:
252,44,42602,2,0,L|240:160,1,110,8|2,0:0|0:0,0:0:0:0:
120,140,43500,2,0,L|104:252,1,110,8|2,0:0|0:0,0:0:0:0:
88,308,44173,2,0,P|140:348|244:348,2,165,8|4|0,3:0|3:0|3:0,0:0:0:0:
68,252,45745,5,4,0:0:0:0:
112,140,46194,1,8,0:0:0:0:
220,196,46643,2,0,P|284:204|340:192,1,110,4|8,0:0|0:0,0:0:0:0:
376,84,47541,6,0,P|430:75|484:84,1,110,2|10,0:0|0:0,0:0:0:0:
508,140,48215,1,0,0:0:0:0:
508,140,48439,2,0,L|504:204,1,55,2|2,0:0|0:0,0:0:0:0:
488,252,48888,1,8,0:0:0:0:
384,316,49337,6,0,P|324:292|256:296,1,110,2|8,0:0|0:0,0:0:0:0:
224,312,50011,2,0,B|172:324|172:324|112:316,1,110,2|2,0:0|0:0,0:0:0:0:
72,276,50684,1,10,0:0:0:0:
44,224,50909,2,0,P|40:180|72:108,1,110,2|0,0:0|0:0,0:0:0:0:
112,84,51582,2,0,L|188:68,1,55,10|2,0:0|0:0,0:0:0:0:
224,84,52031,2,0,P|260:92|344:76,1,110,2|10,0:0|0:0,0:0:0:0:
448,44,52929,6,0,L|440:156,1,110,2|10,0:0|0:0,0:0:0:0:
384,172,53603,2,0,L|376:292,1,110,2|2,0:0|0:0,0:0:0:0:
340,332,54276,1,8,0:0:0:0:
284,356,54501,2,0,P|224:360|168:336,1,110,2|0,0:0|0:0,0:0:0:0:
140,296,55175,1,8,0:0:0:0:
128,236,55399,2,0,P|124:180|152:120,1,110,2|2,0:0|0:0,0:0:0:0:
188,88,56073,6,0,L|248:80,2,55,8|0|2,0:0|0:0|0:0,0:0:0:0:
232,200,56971,2,0,P|272:216|304:216,1,55,8|2,0:0|0:0,0:0:0:0:
376,136,57644,1,2,0:0:0:0:
376,136,57869,2,0,P|396:192|396:256,1,110,10|2,0:0|0:0,0:0:0:0:
380,300,58542,2,0,B|348:340|348:340|288:312|224:348,2,165,8|8|2,3:0|3:0|0:0,0:0:0:0:
400,236,60114,6,0,P|344:204|284:196,1,121.000003692627,6|8,0:0|0:0,0:0:0:0:
224,212,60787,2,0,P|156:220|104:204,1,121.000003692627,2|2,0:0|0:0,0:0:0:0:
88,140,61461,2,0,P|92:104|108:72,1,60.5000018463135,8|2,0:0|0:0,0:0:0:0:
160,48,61910,6,0,L|224:36,1,60.5000018463135,2|0,0:0|0:0,0:0:0:0:
288,40,62359,1,10,0:0:0:0:
356,44,62584,2,0,B|404:76|404:76|420:144,1,121.000003692627,2|0,0:0|0:0,0:0:0:0:
436,200,63257,2,0,P|428:240|396:268,1,60.5000018463135,10|2,0:0|0:0,0:0:0:0:
368,300,63706,6,0,P|336:316|296:316,1,60.5000018463135,2|0,0:0|0:0,0:0:0:0:
252,288,64155,2,0,P|216:276|128:288,1,121.000003692627,10|2,0:0|0:0,0:0:0:0:
24,212,65053,2,0,P|8:180|4:144,1,60.5000018463135,8|0,0:0|0:0,0:0:0:0:
20,92,65502,6,0,P|80:92|132:64,1,121.000003692627,2|8,0:0|0:0,0:0:0:0:
180,16,66176,2,0,B|240:16|240:16|300:44,1,121.000003692627,2|0,0:0|0:0,0:0:0:0:
328,100,66849,2,0,L|328:164,2,60.5000018463135,8|0|2,0:0|0:0|0:0,0:0:0:0:
432,184,67748,5,8,0:0:0:0:
416,248,67972,2,0,B|404:288|404:288|408:328|408:328|388:376,1,121.000003692627,2|0,0:0|0:0,0:0:0:0:
328,360,68646,2,0,P|296:352|256:356,1,60.5000018463135,8|0,0:0|0:0,0:0:0:0:
204,364,69095,6,0,P|140:360|88:320,1,121.000003692627,2|8,0:0|0:0,0:0:0:0:
76,264,69768,2,0,L|80:140,1,121.000003692627,2|0,0:0|0:0,0:0:0:0:
112,84,70442,1,8,0:0:0:0:
240,128,70891,6,0,B|280:120|312:132|312:132|360:108,1,121.000003692627,2|8,0:0|0:0,0:0:0:0:
420,104,71564,2,0,B|424:144|424:176|424:176|420:232,1,121.000003692627,2|2,0:0|0:0,0:0:0:0:
404,288,72238,2,0,P|376:308|360:336,1,60.5000018463135,8|2,0:0|0:0,0:0:0:0:
296,328,72687,6,0,P|176:316|112:340,2,181.500005538941,2|2|8,0:0|0:0|0:0,0:0:0:0:
428,352,74483,6,0,P|460:304|468:232,1,121.000003692627,6|8,0:0|0:0,0:0:0:0:
440,184,75157,2,0,P|428:152|432:56,1,121.000003692627,2|2,0:0|0:0,0:0:0:0:
388,16,75830,2,0,P|352:28|316:32,1,60.5000018463135,8|2,0:0|0:0,0:0:0:0:
264,32,76279,6,0,P|232:24|200:24,2,60.5000018463135,2|0|10,0:0|0:0|0:0,0:0:0:0:
280,96,76953,2,0,B|276:140|276:140|252:172|264:236,1,121.000003692627,2|0,0:0|0:0,0:0:0:0:
228,272,77626,2,0,P|176:264|144:264,1,60.5000018463135,10|0,0:0|0:0,0:0:0:0:
112,300,78075,6,0,P|56:328|8:300,2,121.000003692627,2|10|2,0:0|0:0|0:0,0:0:0:0:
60,176,79422,1,8,0:0:0:0:
108,52,79871,6,0,P|168:44|228:60,1,121.000003692627,2|8,0:0|0:0,0:0:0:0:
284,92,80545,2,0,P|348:96|408:68,1,121.000003692627,2|0,0:0|0:0,0:0:0:0:
456,40,81219,2,0,L|488:100,1,60.5000018463135,8|0,0:0|0:0,0:0:0:0:
508,156,81668,6,0,B|500:192|500:192|512:240|480:280,1,121.000003692627,2|8,0:0|0:0,0:0:0:0:
440,320,82341,2,0,P|380:312|320:336,1,121.000003692627,2|0,0:0|0:0,0:0:0:0:
260,308,83015,1,8,0:0:0:0:
136,264,83464,6,0,B|120:228|120:228|120:136,1,121.000003692627,2|10,0:0|0:0,0:0:0:0:
104,80,84137,2,0,P|144:108|220:112,1,121.000003692627,2|0,0:0|0:0,0:0:0:0:
280,96,84811,1,8,0:0:0:0:
408,64,85260,6,0,L|416:192,1,121.000003692627,2|8,0:0|0:0,0:0:0:0:
400,248,85933,2,0,P|368:284|296:296,1,121.000003692627,2|2,0:0|0:0,0:0:0:0:
236,272,86607,1,8,0:0:0:0:
172,256,86831,2,0,B|124:240|124:240|84:228|72:188,2,121.000003692627,0|8|2,0:0|3:0|0:0,0:0:0:0:
236,272,87954,6,0,P|248:240|248:212,1,60.5000018463135,4|2,3:0|0:0,0:0:0:0:
240,148,88403,2,0,P|240:116|252:84,1,60.5000018463135,8|2,0:0|3:2,0:0:0:0:
296,48,88852,5,6,0:0:0:0:
