osu file format v14

[General]
AudioFilename: audio.mp3
AudioLeadIn: 0
PreviewTime: 40941
Countdown: 0
SampleSet: Soft
StackLeniency: 0.7
Mode: 0
LetterboxInBreaks: 0
WidescreenStoryboard: 1

[Editor]
Bookmarks: 97411,108705,199058,210352
DistanceSpacing: 2.4
BeatDivisor: 4
GridSize: 4
TimelineZoom: 1

[Metadata]
Title:The Flawless Wings of Yatagarasu
TitleUnicode:The Flawless Wings of Yatagarasu
Artist:GlassSkinned
ArtistUnicode:GlassSkinned
Creator:_DT3
Version:Hard
Source:東方地霊殿 ~ Subterranean Animism
Tags:Utsuho Reiuji Theme 東方 Touhou Project Nuclear Fusion Remix Newgrounds
BeatmapID:952752
BeatmapSetID:443089

[Difficulty]
HPDrainRate:5
CircleSize:3.8
OverallDifficulty:6
ApproachRate:7.4
SliderMultiplier:1.4
SliderTickRate:1

[Events]
//Background and Video events
0,0,"BG.jpg",0,0
//Break Periods
//Storyboard Layer 0 (Background)
//Storyboard Layer 1 (Fail)
//Storyboard Layer 2 (Pass)
//Storyboard Layer 3 (Foreground)
//Storyboard Sound Samples

[TimingPoints]
0,352.940370370371,4,2,1,15,1,0
0,-113.636363636364,4,2,1,15,0,0
16941,-113.636363636364,4,2,1,45,0,0

[Colours]
Combo1 : 179,33,26
Combo2 : 241,182,1
Combo3 : 255,255,55
Combo4 : 248,136,35
Combo5 : 209,74,16
Combo6 : 215,0,5

[HitObjects]
256,192,11294,12,0,16588,0:0:0:0:
46,209,16941,6,0,P|102:232|167:204,1,123.200003759766
200,136,17470,1,0,0:0:0:0:
200,136,17647,2,0,L|196:73,2,61.6000018798829
261,196,18176,2,0,L|257:259,2,61.6000018798829
322,136,18705,2,0,L|318:74,1,61.6000018798829
257,12,19058,1,0,0:0:0:0:
196,74,19235,2,0,L|134:70,2,61.6000018798829
257,12,19764,6,0,P|313:-11|374:8,1,123.200003759766
412,81,20294,1,0,0:0:0:0:
412,81,20470,2,0,P|405:113|408:154,1,61.6000018798829
449,217,20823,2,0,P|418:230|386:255,1,61.6000018798829
358,325,21176,2,0,P|329:308|290:296,1,61.6000018798829
217,312,21529,2,0,P|214:278|201:240,1,61.6000018798829
126,218,21882,1,0,0:0:0:0:
185,156,22058,2,0,P|191:128|190:84,1,61.6000018798829
161,14,22411,1,0,0:0:0:0:
269,74,22588,6,0,P|268:135|256:195,1,123.200003759766
213,271,23117,1,0,0:0:0:0:
213,271,23294,2,0,P|247:268|289:273,1,61.6000018798829
352,306,23647,2,0,P|353:274|364:236,1,61.6000018798829
451,163,23999,6,0,P|384:175|322:142,1,123.200003759766
253,124,24529,1,0,0:0:0:0:
253,124,24705,2,0,P|248:152|253:195,1,61.6000018798829
303,257,25058,2,0,P|270:275|244:297,1,61.6000018798829
155,368,25411,6,0,P|167:308|138:255,1,123.200003759766
90,182,25941,1,0,0:0:0:0:
90,182,26117,2,0,L|162:180,1,61.6000018798829
205,112,26470,2,0,L|277:110,1,61.6000018798829
354,22,26823,6,0,L|230:25,1,123.200003759766
147,49,27352,1,0,0:0:0:0:
205,112,27529,2,0,L|277:110,1,61.6000018798829
299,190,27882,2,0,L|237:191,1,61.6000018798829
369,132,28235,6,0,P|389:189|370:247,1,123.200003759766
288,274,28764,1,0,0:0:0:0:
288,274,28941,2,0,L|290:344,1,61.6000018798829
205,356,29294,2,0,L|203:294,1,61.6000018798829
114,209,29646,6,0,P|171:190|228:210,1,123.200003759766
288,274,30176,1,0,0:0:0:0:
288,274,30352,2,0,L|352:276,1,61.6000018798829
430,306,30705,2,0,L|431:244,1,61.6000018798829
457,123,31058,6,0,L|333:119,1,123.200003759766
179,196,31764,2,0,L|302:199,1,123.200003759766
334,119,32294,1,0,0:0:0:0:
334,119,32470,2,0,L|272:117,1,61.6000018798829
186,112,32823,2,0,L|124:110,1,61.6000018798829
134,24,33176,2,0,L|257:27,1,123.200003759766
387,115,33705,1,0,0:0:0:0:
387,115,33882,6,0,P|329:135|272:116,1,123.200003759766
199,68,34411,1,0,0:0:0:0:
126,114,34588,2,0,L|131:193,1,61.6000018798829
205,220,34941,2,0,L|210:299,1,61.6000018798829
358,288,35294,6,0,L|279:293,1,61.6000018798829
252,367,35647,2,0,L|173:372,1,61.6000018798829
113,260,35999,2,0,L|117:321,1,61.6000018798829
41,361,36352,2,0,L|38:299,1,61.6000018798829
39,188,36705,6,0,L|38:157,2,30.8000009399414
115,229,37058,2,0,L|114:259,2,30.8000009399414
191,188,37411,2,0,L|190:158,2,30.8000009399414
267,229,37764,2,0,L|266:259,2,30.8000009399414
372,133,38117,6,0,L|293:138,1,61.6000018798829
252,73,38470,2,0,L|173:78,1,61.6000018798829
115,118,38823,1,0,0:0:0:0:
115,118,38911,1,0,0:0:0:0:
115,118,38999,1,0,0:0:0:0:
37,79,39176,2,0,L|34:17,1,61.6000018798829
169,49,40941,6,0,P|229:33|287:52,1,123.200003759766
320,136,41470,1,0,0:0:0:0:
242,303,41823,2,0,P|225:243|244:184,1,123.200003759766
320,136,42352,2,0,L|390:134,1,61.6000018798829
409,49,42705,1,0,0:0:0:0:
409,49,42882,2,0,L|285:52,1,123.200003759766
206,100,43411,2,0,L|136:98,1,61.6000018798829
44,15,43764,6,0,P|64:71|44:131,1,123.200003759766
3,212,44294,1,0,0:0:0:0:
147,326,44646,2,0,L|208:327,1,61.6000018798829
282,243,44999,1,0,0:0:0:0:
282,243,45176,2,0,L|158:240,1,123.200003759766
86,182,45705,1,0,0:0:0:0:
270,165,46058,2,0,L|331:166,1,61.6000018798829
437,90,46411,1,0,0:0:0:0:
437,90,46588,6,0,P|376:69|319:93,1,123.200003759766
270,165,47117,1,0,0:0:0:0:
433,250,47470,2,0,L|309:247,1,123.200003759766
257,323,47999,2,0,L|196:322,1,61.6000018798829
116,273,48352,1,0,0:0:0:0:
116,273,48529,2,0,P|95:212|119:155,1,123.200003759766
203,132,49058,2,0,L|264:133,1,61.6000018798829
364,50,49411,6,0,L|240:47,1,123.200003759766
203,132,49941,1,0,0:0:0:0:
366,217,50294,2,0,L|367:156,2,61.6000018798829
284,261,50823,2,0,P|223:282|166:258,1,123.200003759766
173,169,51352,2,0,P|234:148|291:172,1,123.200003759766
366,217,51882,2,0,L|367:156,1,61.6000018798829
290,45,52235,6,0,L|287:169,1,123.200003759766
231,249,52764,1,0,0:0:0:0:
176,166,52941,2,0,L|115:165,1,61.6000018798829
56,245,53293,2,0,L|117:246,1,61.6000018798829
170,343,53646,2,0,P|225:360|290:339,1,123.200003759766
355,270,54176,1,0,0:0:0:0:
429,199,54352,2,0,L|430:138,1,61.6000018798829
334,112,54705,2,0,L|333:173,1,61.6000018798829
391,35,55058,6,0,P|333:15|276:34,1,123.200003759766
240,128,55588,2,0,L|179:127,1,61.6000018798829
79,127,55941,2,0,L|78:188,1,61.6000018798829
176,250,56293,1,0,0:0:0:0:
176,250,56470,2,0,L|178:126,1,123.200003759766
260,72,56999,2,0,L|259:133,1,61.6000018798829
342,186,57352,2,0,L|343:125,1,61.6000018798829
441,30,57705,1,0,0:0:0:0:
441,30,57793,1,0,0:0:0:0:
441,30,57882,6,0,P|462:86|441:143,1,123.200003759766
343,124,58411,1,0,0:0:0:0:
289,207,58588,2,0,L|289:270,1,61.6000018798829
385,287,58941,2,0,L|385:225,1,61.6000018798829
342,123,59293,2,0,P|286:101|230:123,1,123.200003759766
202,218,59823,1,0,0:0:0:0:
197,316,59999,2,0,L|258:317,1,61.6000018798829
263,219,60352,2,0,L|202:218,1,61.6000018798829
107,121,60705,6,0,L|230:123,1,123.200003759766
313,69,61235,2,0,L|314:8,1,61.6000018798829
401,53,61588,2,0,L|400:114,2,61.6000018798829
341,194,62117,2,0,P|396:214|458:193,1,123.200003759766
400,115,62646,2,0,P|345:95|283:116,1,123.200003759766
219,188,63176,2,0,L|215:262,1,61.6000018798829
334,317,63529,6,0,L|340:193,1,123.200003759766
285,114,64058,2,0,L|211:110,1,61.6000018798829
170,27,64411,2,0,L|231:30,2,61.6000018798829
285,114,64941,2,0,L|346:117,1,61.6000018798829
429,64,65293,2,0,L|490:67,1,61.6000018798829
350,56,65646,2,0,L|346:117,1,61.6000018798829
400,200,65998,2,0,L|396:261,1,61.6000018798829
