osu file format v14

[General]
AudioFilename: audio.mp3
AudioLeadIn: 0
PreviewTime: 41143
Countdown: 0
SampleSet: Normal
StackLeniency: 0.7
Mode: 1
LetterboxInBreaks: 0
WidescreenStoryboard: 0

[Editor]
Bookmarks: 17851,29729,35668,41607,53485,234072
DistanceSpacing: 0.4
BeatDivisor: 4
GridSize: 32
TimelineZoom: 1.2

[Metadata]
Title:Heat Waves
TitleUnicode:Heat Waves
Artist:Glass Animals
ArtistUnicode:Glass Animals
Creator:Ryxliee
Version:Toofu's Futsuu
Source:
Tags:dreamland english alternative pop indie rock heatwaves Dave Bayley Drew MacFarlane Edmund Irwin-Singer Joe Seaward Tachibana_ Toofu Revialink Froskya
BeatmapID:3850980
BeatmapSetID:1871615

[Difficulty]
HPDrainRate:7
CircleSize:2
OverallDifficulty:4
ApproachRate:9
SliderMultiplier:1.4
SliderTickRate:1

[Events]
//Background and Video events
0,0,"bg.jpg",0,100
//Break Periods
2,119187,123270
2,148882,160018
//Storyboard Layer 0 (Background)
//Storyboard Layer 1 (Fail)
//Storyboard Layer 2 (Pass)
//Storyboard Layer 3 (Foreground)
//Storyboard Layer 4 (Overlay)
//Storyboard Sound Samples

[TimingPoints]
17851,371.195248700817,4,1,0,60,1,0
41607,-100,4,1,0,80,0,1
65363,-100,4,1,0,50,0,0
77242,-100,4,1,0,60,0,0
89120,-100,4,1,0,80,0,1
100998,-100,4,1,0,50,0,0
124755,-100,4,1,0,80,0,1
148511,-100,4,1,0,50,0,0
175237,-100,4,1,0,80,0,1
198994,-100,4,1,0,70,0,0
210872,-100,4,1,0,60,0,0
222379,-100,4,1,0,40,0,0

[HitObjects]
259,178,17479,5,8,0:0:0:0:
259,178,17851,1,0,0:0:0:0:
259,178,18036,1,0,0:0:0:0:
259,178,18222,1,8,0:0:0:0:
259,178,18593,1,8,0:0:0:0:
259,178,18778,1,0,0:0:0:0:
259,178,19150,1,0,0:0:0:0:
259,178,19335,1,8,0:0:0:0:
259,178,19706,1,0,0:0:0:0:
259,178,20078,1,8,0:0:0:0:
259,178,20820,1,8,0:0:0:0:
259,178,21191,1,0,0:0:0:0:
259,178,21562,1,8,0:0:0:0:
259,178,21748,1,0,0:0:0:0:
259,178,22305,1,0,0:0:0:0:
259,178,22490,1,0,0:0:0:0:
256,189,22862,1,0,0:0:0:0:
256,189,23047,1,8,0:0:0:0:
256,189,23790,1,8,0:0:0:0:
259,179,24161,1,0,0:0:0:0:
259,179,24532,1,8,0:0:0:0:
259,179,24718,1,0,0:0:0:0:
252,184,25274,1,8,0:0:0:0:
261,197,25460,1,0,0:0:0:0:
253,184,25646,1,8,0:0:0:0:
253,184,26017,1,8,0:0:0:0:
261,196,26202,1,0,0:0:0:0:
269,194,26759,1,8,0:0:0:0:
272,204,26945,5,8,0:0:0:0:
272,204,27130,1,0,0:0:0:0:
272,204,27502,1,8,0:0:0:0:
272,204,27687,1,0,0:0:0:0:
270,213,28058,1,8,0:0:0:0:
272,214,28244,1,0,0:0:0:0:
272,214,28430,1,0,0:0:0:0:
272,214,28801,1,0,0:0:0:0:
270,213,28986,1,8,0:0:0:0:
271,203,29729,1,4,0:0:0:0:
271,203,30100,1,8,0:0:0:0:
271,203,30471,1,8,0:0:0:0:
271,203,30657,1,0,0:0:0:0:
271,203,31214,1,8,0:0:0:0:
271,203,31399,1,0,0:0:0:0:
271,203,31585,1,8,0:0:0:0:
271,203,31956,1,8,0:0:0:0:
287,201,32698,1,8,0:0:0:0:
287,201,33070,1,0,0:0:0:0:
295,206,33441,1,8,0:0:0:0:
295,206,33812,1,0,0:0:0:0:
295,206,34183,1,8,0:0:0:0:
295,206,34369,1,0,0:0:0:0:
295,206,34740,1,0,0:0:0:0:
295,206,34925,1,8,0:0:0:0:
271,203,35668,1,8,0:0:0:0:
271,203,36039,1,0,0:0:0:0:
271,203,36410,1,8,0:0:0:0:
271,203,36596,1,0,0:0:0:0:
271,203,37153,1,8,0:0:0:0:
271,203,37338,1,8,0:0:0:0:
271,203,37524,1,0,0:0:0:0:
271,203,37895,1,8,0:0:0:0:
287,201,38637,1,0,0:0:0:0:
287,201,39009,1,0,0:0:0:0:
295,206,39380,1,8,0:0:0:0:
295,206,39751,1,0,0:0:0:0:
295,206,40122,1,8,0:0:0:0:
295,206,40308,1,0,0:0:0:0:
295,206,40679,1,0,0:0:0:0:
295,206,40865,1,8,0:0:0:0:
228,76,41236,1,0,0:0:0:0:
236,188,41607,5,12,0:0:0:0:
236,188,41978,1,0,0:0:0:0:
236,188,42349,1,8,0:0:0:0:
236,188,42721,1,0,0:0:0:0:
236,188,42906,1,8,0:0:0:0:
236,188,43092,1,8,0:0:0:0:
236,188,43463,1,8,0:0:0:0:
226,175,43649,1,8,0:0:0:0:
226,175,43834,1,0,0:0:0:0:
226,175,44577,1,8,0:0:0:0:
217,169,44948,1,0,0:0:0:0:
226,175,45133,1,0,0:0:0:0:
217,169,45319,1,8,0:0:0:0:
217,169,45690,1,0,0:0:0:0:
231,157,45876,1,8,0:0:0:0:
217,169,46061,1,8,0:0:0:0:
217,169,46247,1,0,0:0:0:0:
228,160,46618,1,0,0:0:0:0:
228,160,46804,1,8,0:0:0:0:
218,154,47546,1,8,0:0:0:0:
227,148,47917,1,0,0:0:0:0:
218,154,48103,1,0,0:0:0:0:
227,148,48289,1,8,0:0:0:0:
231,130,48660,1,0,0:0:0:0:
231,130,49031,1,8,0:0:0:0:
231,130,49216,1,0,0:0:0:0:
231,130,49402,1,8,0:0:0:0:
231,130,49773,1,8,0:0:0:0:
231,130,50516,1,8,0:0:0:0:
219,151,50887,1,8,0:0:0:0:
224,160,51072,1,8,0:0:0:0:
222,147,51258,1,0,0:0:0:0:
219,151,51629,1,8,0:0:0:0:
231,127,51815,1,0,0:0:0:0:
222,147,52000,1,0,0:0:0:0:
219,151,52186,1,8,0:0:0:0:
222,147,52557,1,0,0:0:0:0:
223,152,52743,1,8,0:0:0:0:
236,188,53485,1,12,0:0:0:0:
236,188,53856,1,0,0:0:0:0:
236,188,54227,1,8,0:0:0:0:
236,188,54599,1,8,0:0:0:0:
236,188,54784,1,8,0:0:0:0:
236,188,54970,1,0,0:0:0:0:
236,188,55341,1,0,0:0:0:0:
226,175,55527,1,0,0:0:0:0:
226,175,55712,1,8,0:0:0:0:
226,175,56455,1,8,0:0:0:0:
217,169,56826,1,8,0:0:0:0:
224,160,57012,1,0,0:0:0:0:
217,169,57197,1,8,0:0:0:0:
217,169,57568,1,8,0:0:0:0:
230,158,57754,1,8,0:0:0:0:
217,169,57939,1,0,0:0:0:0:
217,169,58125,1,8,0:0:0:0:
228,160,58496,1,0,0:0:0:0:
228,160,58682,1,8,0:0:0:0:
218,154,59424,1,8,0:0:0:0:
227,148,59796,1,0,0:0:0:0:
224,160,59981,1,0,0:0:0:0:
227,148,60167,1,8,0:0:0:0:
231,130,60538,1,0,0:0:0:0:
231,130,60909,1,8,0:0:0:0:
231,130,61094,1,0,0:0:0:0:
231,130,61280,1,8,0:0:0:0:
231,130,61651,1,8,0:0:0:0:
231,130,62394,1,8,0:0:0:0:
219,151,62765,1,8,0:0:0:0:
224,160,62951,1,8,0:0:0:0:
222,147,63136,1,0,0:0:0:0:
219,151,63507,1,0,0:0:0:0:
231,127,63693,1,8,0:0:0:0:
222,147,63878,1,8,0:0:0:0:
219,151,64064,1,0,0:0:0:0:
222,147,64435,1,0,0:0:0:0:
223,152,64621,1,8,0:0:0:0:
235,148,64992,1,0,0:0:0:0:
235,148,65178,1,0,0:0:0:0:
236,148,65363,1,8,0:0:0:0:
235,148,66106,1,8,0:0:0:0:
235,148,66663,1,0,0:0:0:0:
235,148,66848,1,8,0:0:0:0:
235,137,67219,1,0,0:0:0:0:
235,137,67591,1,8,0:0:0:0:
235,137,68333,1,0,0:0:0:0:
241,140,69075,1,8,0:0:0:0:
256,152,69261,1,0,0:0:0:0:
253,148,69818,1,8,0:0:0:0:
254,149,70003,1,0,0:0:0:0:
260,137,70375,1,0,0:0:0:0:
260,137,70560,1,8,0:0:0:0:
271,148,71303,1,0,0:0:0:0:
279,146,71674,1,0,0:0:0:0:
279,146,71859,1,8,0:0:0:0:
279,146,72045,1,8,0:0:0:0:
279,146,72787,1,8,0:0:0:0:
279,146,73159,1,0,0:0:0:0:
292,136,73530,1,8,0:0:0:0:
292,136,74272,1,0,0:0:0:0:
292,136,74643,1,8,0:0:0:0:
292,136,75015,1,8,0:0:0:0:
288,128,75571,1,0,0:0:0:0:
292,136,75757,1,8,0:0:0:0:
292,136,75943,1,0,0:0:0:0:
303,132,76314,1,0,0:0:0:0:
303,132,76499,1,8,0:0:0:0:
305,160,77242,1,8,0:0:0:0:
298,151,77613,1,0,0:0:0:0:
298,151,77799,1,8,0:0:0:0:
298,151,77984,1,0,0:0:0:0:
299,164,78355,1,0,0:0:0:0:
304,165,78541,1,8,0:0:0:0:
303,165,78727,1,0,0:0:0:0:
302,183,79098,1,0,0:0:0:0:
304,165,79469,1,8,0:0:0:0:
304,165,80211,1,8,0:0:0:0:
310,174,80582,1,8,0:0:0:0:
310,174,80768,1,8,0:0:0:0:
310,174,80954,1,0,0:0:0:0:
310,174,81325,1,8,0:0:0:0:
310,174,81696,1,8,0:0:0:0:
310,174,81882,1,0,0:0:0:0:
312,187,82253,1,0,0:0:0:0:
312,187,82438,1,8,0:0:0:0:
301,183,83181,1,8,0:0:0:0:
310,162,83552,1,0,0:0:0:0:
310,162,83923,1,8,0:0:0:0:
310,162,84109,1,8,0:0:0:0:
310,162,84294,1,0,0:0:0:0:
310,162,84666,1,8,0:0:0:0:
310,162,85037,1,0,0:0:0:0:
310,162,85408,1,8,0:0:0:0:
310,162,86150,1,8,0:0:0:0:
310,162,86522,1,0,0:0:0:0:
310,162,86707,1,0,0:0:0:0:
310,162,86893,1,8,0:0:0:0:
312,154,87450,1,0,0:0:0:0:
314,154,87635,1,8,0:0:0:0:
314,154,87821,1,0,0:0:0:0:
312,154,88192,1,0,0:0:0:0:
331,160,88378,1,8,0:0:0:0:
236,188,89120,5,12,0:0:0:0:
236,188,89491,1,0,0:0:0:0:
236,188,89862,1,8,0:0:0:0:
236,188,90234,1,0,0:0:0:0:
236,188,90419,1,8,0:0:0:0:
236,188,90605,1,0,0:0:0:0:
236,188,90976,1,0,0:0:0:0:
226,175,91162,1,8,0:0:0:0:
226,175,91347,1,8,0:0:0:0:
226,175,92090,1,8,0:0:0:0:
217,169,92461,1,0,0:0:0:0:
224,192,92646,1,0,0:0:0:0:
217,169,92832,1,8,0:0:0:0:
217,169,93203,1,0,0:0:0:0:
231,157,93389,1,8,0:0:0:0:
217,169,93574,1,8,0:0:0:0:
217,169,93760,1,0,0:0:0:0:
228,160,94131,1,0,0:0:0:0:
228,160,94317,1,8,0:0:0:0:
218,154,95059,1,8,0:0:0:0:
227,148,95430,1,8,0:0:0:0:
224,192,95616,1,0,0:0:0:0:
227,148,95802,1,8,0:0:0:0:
231,130,96173,1,8,0:0:0:0:
231,130,96544,1,0,0:0:0:0:
231,130,96729,1,0,0:0:0:0:
231,130,96915,1,0,0:0:0:0:
231,130,97286,1,8,0:0:0:0:
231,130,98029,1,8,0:0:0:0:
219,151,98400,1,8,0:0:0:0:
224,128,98585,1,8,0:0:0:0:
222,147,98771,1,0,0:0:0:0:
219,151,99142,1,8,0:0:0:0:
231,127,99328,1,8,0:0:0:0:
222,147,99513,1,0,0:0:0:0:
219,151,99699,1,8,0:0:0:0:
222,147,100070,1,0,0:0:0:0:
223,152,100256,1,8,0:0:0:0:
240,150,100998,1,8,0:0:0:0:
240,150,101184,1,0,0:0:0:0:
240,150,101741,1,8,0:0:0:0:
240,150,102297,1,0,0:0:0:0:
240,150,102483,1,8,0:0:0:0:
240,150,102854,1,0,0:0:0:0:
240,150,103225,1,8,0:0:0:0:
240,150,103968,1,8,0:0:0:0:
240,150,104154,1,0,0:0:0:0:
240,150,104711,1,0,0:0:0:0:
240,150,105453,1,0,0:0:0:0:
247,142,105638,1,8,0:0:0:0:
240,150,106009,1,8,0:0:0:0:
240,150,106195,1,0,0:0:0:0:
240,150,106381,1,0,0:0:0:0:
241,150,106566,1,8,0:0:0:0:
240,150,106937,1,8,0:0:0:0:
241,140,107309,1,8,0:0:0:0:
241,140,107680,1,0,0:0:0:0:
241,140,108051,1,0,0:0:0:0:
241,140,108237,1,8,0:0:0:0:
241,140,108422,1,8,0:0:0:0:
246,151,108793,1,0,0:0:0:0:
246,151,109165,1,8,0:0:0:0:
246,151,109907,1,8,0:0:0:0:
246,151,110278,1,8,0:0:0:0:
246,151,110464,1,0,0:0:0:0:
246,151,110649,1,8,0:0:0:0:
246,151,111206,1,0,0:0:0:0:
246,151,111392,1,8,0:0:0:0:
246,151,111577,1,0,0:0:0:0:
246,151,111948,1,0,0:0:0:0:
255,163,112134,1,8,0:0:0:0:
257,151,112505,1,8,0:0:0:0:
258,159,112876,1,0,0:0:0:0:
258,159,113248,1,8,0:0:0:0:
258,159,113433,1,0,0:0:0:0:
258,159,113619,1,8,0:0:0:0:
258,159,113990,1,0,0:0:0:0:
258,159,114176,1,0,0:0:0:0:
258,159,114361,1,8,0:0:0:0:
258,159,114732,1,0,0:0:0:0:
258,159,115104,1,8,0:0:0:0:
258,159,115846,1,8,0:0:0:0:
258,159,116217,1,8,0:0:0:0:
258,159,116588,1,0,0:0:0:0:
258,159,116774,1,8,0:0:0:0:
258,159,116960,1,0,0:0:0:0:
258,159,117331,1,8,0:0:0:0:
276,154,117516,1,0,0:0:0:0:
276,154,117888,1,0,0:0:0:0:
276,154,118073,1,8,0:0:0:0:
281,148,118816,1,0,0:0:0:0:
236,188,124755,5,4,0:0:0:0:
236,188,125126,1,8,0:0:0:0:
236,188,125497,1,0,0:0:0:0:
236,188,125868,1,8,0:0:0:0:
236,188,126054,1,8,0:0:0:0:
236,188,126240,1,0,0:0:0:0:
236,188,126611,1,0,0:0:0:0:
226,175,126797,1,8,0:0:0:0:
226,175,126982,1,8,0:0:0:0:
226,175,127725,1,8,0:0:0:0:
217,169,128096,1,8,0:0:0:0:
224,192,128281,1,0,0:0:0:0:
217,169,128467,1,8,0:0:0:0:
217,169,128838,1,0,0:0:0:0:
231,157,129023,1,8,0:0:0:0:
217,169,129209,1,8,0:0:0:0:
217,169,129395,1,0,0:0:0:0:
228,160,129766,1,0,0:0:0:0:
228,160,129952,1,8,0:0:0:0:
218,154,130694,1,8,0:0:0:0:
227,148,131065,1,0,0:0:0:0:
224,160,131251,1,0,0:0:0:0:
227,148,131436,1,8,0:0:0:0:
231,130,131808,1,0,0:0:0:0:
231,130,132179,1,8,0:0:0:0:
231,130,132364,1,8,0:0:0:0:
231,130,132550,1,8,0:0:0:0:
231,130,132921,1,0,0:0:0:0:
231,130,133663,1,8,0:0:0:0:
219,151,134035,1,8,0:0:0:0:
224,160,134220,1,0,0:0:0:0:
222,147,134406,1,8,0:0:0:0:
219,151,134777,1,0,0:0:0:0:
231,127,134963,1,8,0:0:0:0:
222,147,135148,1,0,0:0:0:0:
219,151,135334,1,8,0:0:0:0:
222,147,135705,1,0,0:0:0:0:
223,152,135891,1,8,0:0:0:0:
236,188,136633,1,8,0:0:0:0:
236,188,137004,1,8,0:0:0:0:
236,188,137375,1,0,0:0:0:0:
236,188,137747,1,8,0:0:0:0:
236,188,137932,1,0,0:0:0:0:
236,188,138118,1,0,0:0:0:0:
236,188,138489,1,0,0:0:0:0:
226,175,138675,1,0,0:0:0:0:
226,175,138860,1,8,0:0:0:0:
226,175,139603,1,8,0:0:0:0:
217,169,139974,1,8,0:0:0:0:
256,192,140159,1,8,0:0:0:0:
217,169,140345,1,0,0:0:0:0:
217,169,140716,1,8,0:0:0:0:
230,158,140902,1,0,0:0:0:0:
217,169,141087,1,8,0:0:0:0:
217,169,141273,1,8,0:0:0:0:
228,160,141644,1,0,0:0:0:0:
228,160,141830,1,8,0:0:0:0:
218,154,142572,1,8,0:0:0:0:
227,148,142943,1,0,0:0:0:0:
224,160,143129,1,0,0:0:0:0:
227,148,143314,1,8,0:0:0:0:
231,130,143686,1,0,0:0:0:0:
231,130,144057,1,8,0:0:0:0:
231,130,144242,1,8,0:0:0:0:
231,130,144428,1,0,0:0:0:0:
231,130,144799,1,8,0:0:0:0:
231,130,145542,1,8,0:0:0:0:
219,151,145913,1,8,0:0:0:0:
224,160,146098,1,8,0:0:0:0:
222,147,146284,1,0,0:0:0:0:
219,151,146655,1,8,0:0:0:0:
231,127,146841,1,0,0:0:0:0:
222,147,147026,1,0,0:0:0:0:
219,151,147212,1,8,0:0:0:0:
222,147,147583,1,8,0:0:0:0:
223,152,147769,1,0,0:0:0:0:
235,148,148140,1,0,0:0:0:0:
235,148,148326,1,8,0:0:0:0:
236,148,148511,1,8,0:0:0:0:
315,124,160761,5,8,0:0:0:0:
315,124,161132,1,0,0:0:0:0:
315,124,161503,1,8,0:0:0:0:
315,124,161689,1,0,0:0:0:0:
315,124,161874,1,8,0:0:0:0:
315,124,162245,1,0,0:0:0:0:
315,124,162617,1,8,0:0:0:0:
315,124,163730,1,8,0:0:0:0:
315,124,164101,1,0,0:0:0:0:
315,124,164473,1,8,0:0:0:0:
315,124,164658,1,8,0:0:0:0:
315,124,164844,1,0,0:0:0:0:
315,124,165215,1,0,0:0:0:0:
315,124,165586,1,8,0:0:0:0:
319,128,166700,1,8,0:0:0:0:
319,128,167071,1,0,0:0:0:0:
319,128,167442,1,8,0:0:0:0:
319,128,167813,1,0,0:0:0:0:
319,128,167999,1,0,0:0:0:0:
319,128,168185,1,0,0:0:0:0:
319,128,168556,1,8,0:0:0:0:
324,132,169669,1,8,0:0:0:0:
324,132,170041,1,0,0:0:0:0:
324,132,170412,1,0,0:0:0:0:
324,132,170783,1,8,0:0:0:0:
324,132,170969,1,8,0:0:0:0:
324,132,171154,1,8,0:0:0:0:
314,157,171525,1,0,0:0:0:0:
314,157,172268,1,8,0:0:0:0:
225,57,174866,5,8,0:0:0:0:
236,188,175237,5,4,0:0:0:0:
236,188,175608,1,8,0:0:0:0:
236,188,175979,1,0,0:0:0:0:
236,188,176351,1,8,0:0:0:0:
236,188,176536,1,0,0:0:0:0:
236,188,176722,1,8,0:0:0:0:
236,188,177093,1,8,0:0:0:0:
226,175,177279,1,8,0:0:0:0:
226,175,177464,1,0,0:0:0:0:
226,175,178207,1,8,0:0:0:0:
217,169,178578,1,8,0:0:0:0:
224,192,178764,1,0,0:0:0:0:
217,169,178949,1,8,0:0:0:0:
217,169,179320,1,8,0:0:0:0:
231,157,179506,1,8,0:0:0:0:
217,169,179692,1,0,0:0:0:0:
217,169,179877,1,0,0:0:0:0:
228,160,180248,1,0,0:0:0:0:
228,160,180434,1,8,0:0:0:0:
218,154,181176,1,8,0:0:0:0:
227,148,181547,1,0,0:0:0:0:
218,154,181733,1,0,0:0:0:0:
227,148,181919,1,8,0:0:0:0:
231,130,182290,1,0,0:0:0:0:
231,130,182661,1,8,0:0:0:0:
231,130,182846,1,8,0:0:0:0:
231,130,183032,1,8,0:0:0:0:
231,130,183404,1,8,0:0:0:0:
231,130,184146,1,8,0:0:0:0:
219,151,184517,1,8,0:0:0:0:
224,160,184703,1,8,0:0:0:0:
222,147,184888,1,0,0:0:0:0:
219,151,185259,1,8,0:0:0:0:
231,127,185445,1,0,0:0:0:0:
222,147,185630,1,0,0:0:0:0:
219,151,185816,1,8,0:0:0:0:
222,147,186187,1,0,0:0:0:0:
223,152,186373,1,8,0:0:0:0:
236,188,187115,1,8,0:0:0:0:
236,188,187486,1,0,0:0:0:0:
236,188,187858,1,8,0:0:0:0:
236,188,188229,1,8,0:0:0:0:
236,188,188414,1,0,0:0:0:0:
236,188,188600,1,8,0:0:0:0:
236,188,188972,1,8,0:0:0:0:
226,175,189157,1,0,0:0:0:0:
226,175,189343,1,0,0:0:0:0:
226,175,190085,1,8,0:0:0:0:
217,169,190456,1,0,0:0:0:0:
224,160,190642,1,0,0:0:0:0:
217,169,190827,1,8,0:0:0:0:
217,169,191198,1,0,0:0:0:0:
230,158,191384,1,8,0:0:0:0:
217,169,191569,1,8,0:0:0:0:
217,169,191755,1,0,0:0:0:0:
228,160,192126,1,0,0:0:0:0:
228,160,192312,1,8,0:0:0:0:
218,154,193054,1,8,0:0:0:0:
227,148,193425,1,0,0:0:0:0:
224,160,193611,1,8,0:0:0:0:
227,148,193797,1,0,0:0:0:0:
231,130,194168,1,8,0:0:0:0:
231,130,194539,1,8,0:0:0:0:
231,130,194724,1,0,0:0:0:0:
231,130,194910,1,8,0:0:0:0:
231,130,195282,1,8,0:0:0:0:
231,130,196024,1,8,0:0:0:0:
219,151,196395,1,8,0:0:0:0:
224,128,196581,1,0,0:0:0:0:
222,147,196766,1,8,0:0:0:0:
219,151,197137,1,0,0:0:0:0:
231,127,197323,1,0,0:0:0:0:
222,147,197509,1,8,0:0:0:0:
219,151,197694,1,8,0:0:0:0:
222,147,198066,1,8,0:0:0:0:
223,152,198251,1,0,0:0:0:0:
235,148,198622,1,0,0:0:0:0:
235,148,198808,1,0,0:0:0:0:
271,203,198994,1,12,0:0:0:0:
271,203,199365,1,0,0:0:0:0:
271,203,199736,1,8,0:0:0:0:
271,203,199922,1,0,0:0:0:0:
271,203,200479,1,8,0:0:0:0:
271,203,200664,1,8,0:0:0:0:
271,203,200850,1,0,0:0:0:0:
271,203,201221,1,8,0:0:0:0:
287,201,201963,1,8,0:0:0:0:
287,201,202335,1,0,0:0:0:0:
295,206,202706,1,8,0:0:0:0:
295,206,203077,1,0,0:0:0:0:
295,206,203448,1,8,0:0:0:0:
295,206,203634,1,0,0:0:0:0:
295,206,204005,1,0,0:0:0:0:
295,206,204190,1,8,0:0:0:0:
271,203,204933,1,8,0:0:0:0:
271,203,205304,1,0,0:0:0:0:
271,203,205675,1,8,0:0:0:0:
271,203,205861,1,0,0:0:0:0:
271,203,206418,1,8,0:0:0:0:
271,203,206603,1,0,0:0:0:0:
271,203,206789,1,8,0:0:0:0:
271,203,207160,1,8,0:0:0:0:
287,201,207902,1,0,0:0:0:0:
287,201,208274,1,0,0:0:0:0:
295,206,208645,1,8,0:0:0:0:
295,206,209016,1,0,0:0:0:0:
295,206,209387,1,8,0:0:0:0:
295,206,209573,1,0,0:0:0:0:
295,206,209944,1,0,0:0:0:0:
295,206,210129,1,8,0:0:0:0:
228,76,210501,1,8,0:0:0:0:
259,178,210872,1,0,0:0:0:0:
259,178,211057,1,0,0:0:0:0:
259,178,211243,1,8,0:0:0:0:
259,178,211614,1,8,0:0:0:0:
259,178,211799,1,0,0:0:0:0:
259,178,212171,1,0,0:0:0:0:
259,178,212356,1,8,0:0:0:0:
259,178,212727,1,0,0:0:0:0:
259,178,213099,1,8,0:0:0:0:
259,178,213842,1,8,0:0:0:0:
259,178,214212,1,0,0:0:0:0:
259,178,214583,1,8,0:0:0:0:
259,178,214769,1,0,0:0:0:0:
259,178,215326,1,0,0:0:0:0:
259,178,215511,1,0,0:0:0:0:
256,189,215883,1,0,0:0:0:0:
256,189,216068,1,8,0:0:0:0:
256,189,216811,1,8,0:0:0:0:
259,179,217182,1,0,0:0:0:0:
259,179,217553,1,8,0:0:0:0:
259,179,217739,1,0,0:0:0:0:
252,184,218296,1,8,0:0:0:0:
261,197,218481,1,0,0:0:0:0:
253,184,218667,1,8,0:0:0:0:
261,196,219038,1,8,0:0:0:0:
253,184,219223,1,0,0:0:0:0:
269,194,219781,1,8,0:0:0:0:
272,204,219966,5,0,0:0:0:0:
272,204,220151,1,0,0:0:0:0:
272,204,220523,1,8,0:0:0:0:
272,204,220708,1,0,0:0:0:0:
270,213,221079,1,0,0:0:0:0:
272,214,221265,1,8,0:0:0:0:
272,214,221451,1,8,0:0:0:0:
272,214,221822,1,0,0:0:0:0:
270,213,222007,1,8,0:0:0:0:
271,203,222750,1,0,0:0:0:0:
256,170,223493,1,8,0:0:0:0:
265,173,224235,1,0,0:0:0:0:
265,173,224606,1,0,0:0:0:0:
265,173,224977,1,8,0:0:0:0:
265,173,225720,1,0,0:0:0:0:
265,173,226462,1,8,0:0:0:0:
265,173,227205,1,0,0:0:0:0:
265,173,227390,5,0,0:0:0:0:
265,173,227761,1,0,0:0:0:0:
273,176,227947,1,8,0:0:0:0:
272,175,228689,1,0,0:0:0:0:
272,175,229432,1,8,0:0:0:0:
272,175,230174,1,0,0:0:0:0:
272,175,230545,1,0,0:0:0:0:
272,175,230917,1,8,0:0:0:0:
272,175,231659,1,0,0:0:0:0:
272,175,232401,1,8,0:0:0:0:
272,175,233144,1,0,0:0:0:0:
272,175,233329,1,0,0:0:0:0:
272,175,233701,1,0,0:0:0:0:
283,186,233886,1,8,0:0:0:0:
283,185,234072,1,0,0:0:0:0:
