osu file format v14

[General]
AudioFilename: audio.mp3
AudioLeadIn: 0
PreviewTime: 41143
Countdown: 0
SampleSet: Normal
StackLeniency: 0.7
Mode: 1
LetterboxInBreaks: 0
WidescreenStoryboard: 0

[Editor]
Bookmarks: 17851,29729,41607,53485,77242,112876,210872,234072
DistanceSpacing: 0.4
BeatDivisor: 4
GridSize: 32
TimelineZoom: 1

[Metadata]
Title:Heat Waves
TitleUnicode:Heat Waves
Artist:Glass Animals
ArtistUnicode:Glass Animals
Creator:Ryxliee
Version:On My Mind
Source:
Tags:dreamland english alternative pop indie rock heatwaves Dave Bayley Drew MacFarlane Edmund Irwin-Singer Joe Seaward Tachibana_ Toofu Revialink Froskya
BeatmapID:3878019
BeatmapSetID:1871615

[Difficulty]
HPDrainRate:5
CircleSize:2
OverallDifficulty:5.5
ApproachRate:9
SliderMultiplier:1.4
SliderTickRate:1

[Events]
//Background and Video events
0,0,"bg.jpg",0,100
//Break Periods
2,119187,123270
2,148882,159789
//Storyboard Layer 0 (Background)
//Storyboard Layer 1 (Fail)
//Storyboard Layer 2 (Pass)
//Storyboard Layer 3 (Foreground)
//Storyboard Layer 4 (Overlay)
//Storyboard Sound Samples

[TimingPoints]
17851,371.195248700817,4,1,0,60,1,0
17851,-111.111111111111,4,1,0,60,0,0
41607,-95.2380952380952,4,1,0,80,0,1
64807,-101.283101283101,4,1,0,80,0,1
64992,-108.108108108108,4,1,0,80,0,1
65178,-115.964679221693,4,1,0,80,0,1
65363,-125,4,1,0,50,0,0
77242,-105.263157894737,4,1,0,60,0,0
89120,-95.2380952380952,4,1,0,80,0,1
100441,-98.7555733013908,4,1,0,80,0,1
100534,-100.623813398427,4,1,0,80,0,1
100627,-102.564102564103,4,1,0,80,0,1
100813,-106.678168355977,4,1,0,80,0,1
100998,-111.111111111111,4,1,0,50,0,0
118444,-125,4,1,0,50,0,0
118816,-142.857142857143,4,1,0,50,0,0
124755,-95.2380952380952,4,1,0,80,0,1
147954,-101.248550180801,4,1,0,80,0,1
148047,-104.56595264938,4,1,0,80,0,1
148140,-108.108108108108,4,1,0,80,0,1
148326,-115.964679221693,4,1,0,80,0,1
148511,-125,4,1,0,50,0,0
175237,-95.2380952380952,4,1,0,80,0,1
198808,-97.5609756097561,4,1,0,80,0,1
198994,-100,4,1,0,70,0,0
210872,-111.111111111111,4,1,0,60,0,0
222379,-125,4,1,0,40,0,0
222750,-142.857142857143,4,1,0,40,0,0

[HitObjects]
256,192,17479,5,8,0:0:0:0:
256,192,17851,1,0,0:0:0:0:
256,192,18036,1,0,0:0:0:0:
256,192,18222,1,8,0:0:0:0:
256,192,18593,1,8,0:0:0:0:
256,192,18778,1,0,0:0:0:0:
256,192,19150,1,0,0:0:0:0:
256,192,19335,1,8,0:0:0:0:
256,192,19521,1,8,0:0:0:0:
256,192,19706,1,0,0:0:0:0:
256,192,20078,1,0,0:0:0:0:
256,192,20263,1,8,0:0:0:0:
256,192,20634,1,0,0:0:0:0:
256,192,20820,1,8,0:0:0:0:
256,192,21006,1,0,0:0:0:0:
256,192,21191,1,8,0:0:0:0:
256,192,21562,1,8,0:0:0:0:
256,192,21748,1,0,0:0:0:0:
256,192,22119,1,8,0:0:0:0:
256,192,22305,1,0,0:0:0:0:
256,192,22490,1,0,0:0:0:0:
256,192,22676,1,8,0:0:0:0:
256,192,22862,1,0,0:0:0:0:
256,192,23047,1,8,0:0:0:0:
256,192,23233,1,0,0:0:0:0:
256,192,23604,1,0,0:0:0:0:
256,192,23790,1,8,0:0:0:0:
256,192,23975,1,0,0:0:0:0:
256,192,24161,1,8,0:0:0:0:
256,192,24532,1,8,0:0:0:0:
256,192,24718,1,0,0:0:0:0:
256,192,25089,1,8,0:0:0:0:
256,192,25274,1,0,0:0:0:0:
256,192,25460,1,0,0:0:0:0:
256,192,25646,1,8,0:0:0:0:
256,192,26017,1,0,0:0:0:0:
256,192,26202,1,8,0:0:0:0:
256,192,26574,1,0,0:0:0:0:
256,192,26759,1,8,0:0:0:0:
256,192,26945,1,8,0:0:0:0:
256,192,27130,1,0,0:0:0:0:
256,192,27502,1,8,0:0:0:0:
256,192,27687,1,0,0:0:0:0:
256,192,28058,1,0,0:0:0:0:
256,192,28244,1,8,0:0:0:0:
256,192,28430,1,8,0:0:0:0:
256,192,28615,1,0,0:0:0:0:
256,192,28801,1,0,0:0:0:0:
256,192,28986,1,8,0:0:0:0:
256,192,29172,1,0,0:0:0:0:
256,192,29543,1,0,0:0:0:0:
256,192,29729,1,12,0:0:0:0:
256,192,30100,1,0,0:0:0:0:
256,192,30286,1,0,0:0:0:0:
256,192,30471,1,8,0:0:0:0:
256,192,30657,1,0,0:0:0:0:
256,192,30750,1,8,0:0:0:0:
256,192,30842,1,0,0:0:0:0:
256,192,31214,1,0,0:0:0:0:
256,192,31399,1,0,0:0:0:0:
256,192,31585,1,8,0:0:0:0:
256,192,31770,1,0,0:0:0:0:
256,192,31956,1,8,0:0:0:0:
256,192,32142,1,8,0:0:0:0:
256,192,32327,1,0,0:0:0:0:
256,192,32698,1,8,0:0:0:0:
256,192,32884,1,0,0:0:0:0:
256,192,33070,1,8,0:0:0:0:
256,192,33255,1,0,0:0:0:0:
256,192,33348,1,0,0:0:0:0:
256,192,33441,1,8,0:0:0:0:
256,192,33812,1,8,0:0:0:0:
256,192,33997,1,8,0:0:0:0:
256,192,34183,1,0,0:0:0:0:
256,192,34369,1,0,0:0:0:0:
256,192,34554,1,8,0:0:0:0:
256,192,34740,1,0,0:0:0:0:
256,192,34925,1,8,0:0:0:0:
256,192,35111,1,8,0:0:0:0:
256,192,35204,1,0,0:0:0:0:
256,192,35297,1,8,0:0:0:0:
256,192,35668,1,0,0:0:0:0:
256,192,36039,1,8,0:0:0:0:
256,192,36225,1,0,0:0:0:0:
256,192,36410,1,8,0:0:0:0:
256,192,36596,1,8,0:0:0:0:
256,192,36689,1,8,0:0:0:0:
256,192,36781,1,0,0:0:0:0:
256,192,37153,1,8,0:0:0:0:
256,192,37338,1,0,0:0:0:0:
256,192,37524,1,8,0:0:0:0:
256,192,37709,1,0,0:0:0:0:
256,192,37895,1,8,0:0:0:0:
256,192,38081,1,8,0:0:0:0:
256,192,38266,1,0,0:0:0:0:
256,192,38637,1,8,0:0:0:0:
256,192,38823,1,0,0:0:0:0:
256,192,39009,1,8,0:0:0:0:
256,192,39194,1,0,0:0:0:0:
256,192,39287,1,0,0:0:0:0:
256,192,39380,1,8,0:0:0:0:
256,192,39751,1,0,0:0:0:0:
256,192,39937,1,8,0:0:0:0:
256,192,40122,1,0,0:0:0:0:
256,192,40308,1,0,0:0:0:0:
256,192,40493,1,8,0:0:0:0:
256,192,40679,1,0,0:0:0:0:
256,192,40865,1,8,0:0:0:0:
256,192,41236,1,0,0:0:0:0:
256,192,41607,1,12,0:0:0:0:
256,192,41978,1,0,0:0:0:0:
256,192,42164,1,0,0:0:0:0:
256,192,42349,1,8,0:0:0:0:
256,192,42535,1,8,0:0:0:0:
256,192,42628,1,8,0:0:0:0:
256,192,42721,1,0,0:0:0:0:
256,192,42906,1,0,0:0:0:0:
256,192,43092,1,8,0:0:0:0:
256,192,43277,1,0,0:0:0:0:
256,192,43370,1,0,0:0:0:0:
256,192,43463,1,8,0:0:0:0:
256,192,43649,1,0,0:0:0:0:
256,192,43834,1,8,0:0:0:0:
256,192,44205,1,8,0:0:0:0:
256,192,44298,1,0,0:0:0:0:
256,192,44391,1,8,0:0:0:0:
256,192,44577,1,0,0:0:0:0:
256,192,44948,1,8,0:0:0:0:
256,192,45133,1,0,0:0:0:0:
256,192,45319,1,8,0:0:0:0:
256,192,45505,1,0,0:0:0:0:
256,192,45597,1,8,0:0:0:0:
256,192,45690,1,0,0:0:0:0:
256,192,45876,1,8,0:0:0:0:
256,192,46061,1,0,0:0:0:0:
256,192,46247,1,0,0:0:0:0:
256,192,46433,1,8,0:0:0:0:
256,192,46525,1,8,0:0:0:0:
256,192,46618,1,0,0:0:0:0:
256,192,46804,1,8,0:0:0:0:
256,192,46989,1,0,0:0:0:0:
256,192,47082,1,0,0:0:0:0:
256,192,47175,1,8,0:0:0:0:
256,192,47361,1,0,0:0:0:0:
256,192,47546,1,8,0:0:0:0:
256,192,47917,1,0,0:0:0:0:
256,192,48010,1,8,0:0:0:0:
256,192,48103,1,0,0:0:0:0:
256,192,48289,1,8,0:0:0:0:
256,192,48474,1,8,0:0:0:0:
256,192,48567,1,0,0:0:0:0:
256,192,48660,1,8,0:0:0:0:
256,192,49031,1,8,0:0:0:0:
256,192,49216,1,0,0:0:0:0:
256,192,49309,1,0,0:0:0:0:
256,192,49402,1,8,0:0:0:0:
256,192,49588,1,0,0:0:0:0:
256,192,49773,1,8,0:0:0:0:
256,192,49959,1,8,0:0:0:0:
256,192,50052,1,8,0:0:0:0:
256,192,50144,1,0,0:0:0:0:
256,192,50330,1,8,0:0:0:0:
256,192,50516,1,0,0:0:0:0:
256,192,50887,1,8,0:0:0:0:
256,192,51072,1,0,0:0:0:0:
256,192,51258,1,8,0:0:0:0:
256,192,51444,1,8,0:0:0:0:
256,192,51536,1,8,0:0:0:0:
256,192,51629,1,0,0:0:0:0:
256,192,52000,1,0,0:0:0:0:
256,192,52186,1,0,0:0:0:0:
256,192,52372,1,8,0:0:0:0:
256,192,52464,1,8,0:0:0:0:
256,192,52557,1,0,0:0:0:0:
256,192,52743,1,8,0:0:0:0:
256,192,52928,1,0,0:0:0:0:
256,192,53021,1,0,0:0:0:0:
256,192,53114,1,8,0:0:0:0:
256,192,53300,1,8,0:0:0:0:
256,192,53485,1,4,0:0:0:0:
256,192,53856,1,8,0:0:0:0:
256,192,54042,1,0,0:0:0:0:
256,192,54228,1,8,0:0:0:0:
256,192,54413,1,0,0:0:0:0:
256,192,54506,1,8,0:0:0:0:
256,192,54599,1,0,0:0:0:0:
256,192,54784,1,0,0:0:0:0:
256,192,54970,1,8,0:0:0:0:
256,192,55156,1,8,0:0:0:0:
256,192,55248,1,0,0:0:0:0:
256,192,55341,1,8,0:0:0:0:
256,192,55527,1,0,0:0:0:0:
256,192,55712,1,8,0:0:0:0:
256,192,56084,1,8,0:0:0:0:
256,192,56176,1,8,0:0:0:0:
256,192,56269,1,0,0:0:0:0:
256,192,56455,1,0,0:0:0:0:
256,192,56826,1,8,0:0:0:0:
256,192,57012,1,0,0:0:0:0:
256,192,57197,1,8,0:0:0:0:
256,192,57383,1,8,0:0:0:0:
256,192,57476,1,8,0:0:0:0:
256,192,57568,1,0,0:0:0:0:
256,192,57754,1,8,0:0:0:0:
256,192,57940,1,0,0:0:0:0:
256,192,58125,1,0,0:0:0:0:
256,192,58311,1,0,0:0:0:0:
256,192,58404,1,8,0:0:0:0:
256,192,58496,1,0,0:0:0:0:
256,192,58682,1,8,0:0:0:0:
256,192,58868,1,8,0:0:0:0:
256,192,58960,1,0,0:0:0:0:
256,192,59053,1,8,0:0:0:0:
256,192,59239,1,8,0:0:0:0:
256,192,59424,1,0,0:0:0:0:
256,192,59796,1,8,0:0:0:0:
256,192,59888,1,8,0:0:0:0:
256,192,59981,1,0,0:0:0:0:
256,192,60167,1,8,0:0:0:0:
256,192,60352,1,0,0:0:0:0:
256,192,60445,1,0,0:0:0:0:
256,192,60538,1,8,0:0:0:0:
256,192,60909,1,0,0:0:0:0:
256,192,61095,1,0,0:0:0:0:
256,192,61188,1,8,0:0:0:0:
256,192,61280,1,0,0:0:0:0:
256,192,61466,1,0,0:0:0:0:
256,192,61652,1,8,0:0:0:0:
256,192,61837,1,0,0:0:0:0:
256,192,61930,1,8,0:0:0:0:
256,192,62023,1,8,0:0:0:0:
256,192,62208,1,8,0:0:0:0:
256,192,62394,1,0,0:0:0:0:
256,192,62765,1,8,0:0:0:0:
256,192,62951,1,0,0:0:0:0:
256,192,63136,1,8,0:0:0:0:
256,192,63322,1,0,0:0:0:0:
256,192,63415,1,0,0:0:0:0:
256,192,63508,1,8,0:0:0:0:
256,192,63879,1,0,0:0:0:0:
256,192,64064,1,0,0:0:0:0:
256,192,64250,1,8,0:0:0:0:
256,192,64343,1,8,0:0:0:0:
256,192,64436,1,0,0:0:0:0:
256,192,64621,1,8,0:0:0:0:
256,192,64807,1,0,0:0:0:0:
256,192,64992,1,0,0:0:0:0:
256,192,65178,1,0,0:0:0:0:
256,192,65363,1,8,0:0:0:0:
256,192,65735,1,0,0:0:0:0:
256,192,65920,1,0,0:0:0:0:
256,192,66106,1,8,0:0:0:0:
256,192,66291,1,0,0:0:0:0:
256,192,66663,1,0,0:0:0:0:
256,192,66848,1,8,0:0:0:0:
256,192,67219,1,8,0:0:0:0:
256,192,67405,1,0,0:0:0:0:
256,192,67591,1,8,0:0:0:0:
256,192,67869,1,0,0:0:0:0:
256,192,67962,1,0,0:0:0:0:
256,192,68147,1,0,0:0:0:0:
256,192,68333,1,8,0:0:0:0:
256,192,68704,1,0,0:0:0:0:
256,192,68890,1,0,0:0:0:0:
256,192,69075,1,8,0:0:0:0:
256,192,69261,1,0,0:0:0:0:
256,192,69632,1,8,0:0:0:0:
256,192,69818,1,0,0:0:0:0:
256,192,70003,1,0,0:0:0:0:
256,192,70189,1,8,0:0:0:0:
256,192,70375,1,0,0:0:0:0:
256,192,70560,1,8,0:0:0:0:
256,192,70746,1,0,0:0:0:0:
256,192,71117,1,8,0:0:0:0:
256,192,71303,1,0,0:0:0:0:
256,192,71674,1,0,0:0:0:0:
256,192,71859,1,0,0:0:0:0:
256,192,72045,1,8,0:0:0:0:
256,192,72231,1,0,0:0:0:0:
256,192,72602,1,0,0:0:0:0:
256,192,72787,1,8,0:0:0:0:
256,192,73159,1,8,0:0:0:0:
256,192,73344,1,0,0:0:0:0:
256,192,73530,1,8,0:0:0:0:
256,192,73808,1,0,0:0:0:0:
256,192,73901,1,0,0:0:0:0:
256,192,74087,1,0,0:0:0:0:
256,192,74272,1,8,0:0:0:0:
256,192,74643,1,0,0:0:0:0:
256,192,74829,1,0,0:0:0:0:
256,192,75015,1,8,0:0:0:0:
256,192,75200,1,0,0:0:0:0:
256,192,75571,1,8,0:0:0:0:
256,192,75757,1,0,0:0:0:0:
256,192,75943,1,0,0:0:0:0:
256,192,76128,1,8,0:0:0:0:
256,192,76314,1,0,0:0:0:0:
256,192,76499,1,8,0:0:0:0:
256,192,77242,1,4,0:0:0:0:
256,192,77613,1,0,0:0:0:0:
256,192,77799,1,0,0:0:0:0:
256,192,77984,1,8,0:0:0:0:
256,192,78170,1,8,0:0:0:0:
256,192,78355,1,0,0:0:0:0:
256,192,78541,1,8,0:0:0:0:
256,192,78634,1,8,0:0:0:0:
256,192,78727,1,0,0:0:0:0:
256,192,79098,1,0,0:0:0:0:
256,192,79283,1,0,0:0:0:0:
256,192,79376,1,0,0:0:0:0:
256,192,79469,1,8,0:0:0:0:
256,192,79655,1,0,0:0:0:0:
256,192,79840,1,0,0:0:0:0:
256,192,80211,1,8,0:0:0:0:
256,192,80582,1,0,0:0:0:0:
256,192,80768,1,0,0:0:0:0:
256,192,80954,1,8,0:0:0:0:
256,192,81139,1,0,0:0:0:0:
256,192,81325,1,8,0:0:0:0:
256,192,81696,1,0,0:0:0:0:
256,192,81882,1,8,0:0:0:0:
256,192,82067,1,8,0:0:0:0:
256,192,82160,1,8,0:0:0:0:
256,192,82253,1,0,0:0:0:0:
256,192,82438,1,8,0:0:0:0:
256,192,82810,1,0,0:0:0:0:
256,192,82995,1,8,0:0:0:0:
256,192,83088,1,0,0:0:0:0:
256,192,83181,1,8,0:0:0:0:
256,192,83552,1,0,0:0:0:0:
256,192,83923,1,8,0:0:0:0:
256,192,84109,1,0,0:0:0:0:
256,192,84294,1,8,0:0:0:0:
256,192,84480,1,8,0:0:0:0:
256,192,84666,1,0,0:0:0:0:
256,192,85037,1,0,0:0:0:0:
256,192,85222,1,8,0:0:0:0:
256,192,85315,1,0,0:0:0:0:
256,192,85408,1,8,0:0:0:0:
256,192,85594,1,0,0:0:0:0:
256,192,85779,1,0,0:0:0:0:
256,192,86150,1,8,0:0:0:0:
256,192,86522,1,0,0:0:0:0:
256,192,86707,1,0,0:0:0:0:
256,192,86893,1,8,0:0:0:0:
256,192,87264,1,8,0:0:0:0:
256,192,87450,1,0,0:0:0:0:
256,192,87542,1,8,0:0:0:0:
256,192,87635,1,0,0:0:0:0:
256,192,87821,1,0,0:0:0:0:
256,192,88006,1,8,0:0:0:0:
256,192,88099,1,8,0:0:0:0:
256,192,88192,1,0,0:0:0:0:
256,192,88378,1,8,0:0:0:0:
256,192,88749,1,0,0:0:0:0:
256,192,89120,1,12,0:0:0:0:
256,192,89491,1,0,0:0:0:0:
256,192,89677,1,0,0:0:0:0:
256,192,89862,1,8,0:0:0:0:
256,192,90048,1,8,0:0:0:0:
256,192,90141,1,8,0:0:0:0:
256,192,90234,1,0,0:0:0:0:
256,192,90419,1,0,0:0:0:0:
256,192,90605,1,8,0:0:0:0:
256,192,90790,1,0,0:0:0:0:
256,192,90883,1,0,0:0:0:0:
256,192,90976,1,8,0:0:0:0:
256,192,91162,1,0,0:0:0:0:
256,192,91347,1,8,0:0:0:0:
256,192,91533,1,0,0:0:0:0:
256,192,91626,1,0,0:0:0:0:
256,192,91718,1,8,0:0:0:0:
256,192,91811,1,8,0:0:0:0:
256,192,91904,1,0,0:0:0:0:
256,192,92090,1,8,0:0:0:0:
256,192,92461,1,0,0:0:0:0:
256,192,92646,1,0,0:0:0:0:
256,192,92832,1,8,0:0:0:0:
256,192,93018,1,0,0:0:0:0:
256,192,93110,1,8,0:0:0:0:
256,192,93203,1,0,0:0:0:0:
256,192,93389,1,8,0:0:0:0:
256,192,93574,1,0,0:0:0:0:
256,192,93760,1,0,0:0:0:0:
256,192,93946,1,8,0:0:0:0:
256,192,94038,1,8,0:0:0:0:
256,192,94131,1,0,0:0:0:0:
256,192,94317,1,8,0:0:0:0:
256,192,94502,1,0,0:0:0:0:
256,192,94595,1,0,0:0:0:0:
256,192,94688,1,8,0:0:0:0:
256,192,94874,1,0,0:0:0:0:
256,192,95059,1,8,0:0:0:0:
256,192,95430,1,0,0:0:0:0:
256,192,95523,1,8,0:0:0:0:
256,192,95616,1,0,0:0:0:0:
256,192,95802,1,8,0:0:0:0:
256,192,95987,1,8,0:0:0:0:
256,192,96080,1,0,0:0:0:0:
256,192,96173,1,8,0:0:0:0:
256,192,96358,1,0,0:0:0:0:
256,192,96544,1,8,0:0:0:0:
256,192,96729,1,0,0:0:0:0:
256,192,96822,1,0,0:0:0:0:
256,192,96915,1,8,0:0:0:0:
256,192,97101,1,0,0:0:0:0:
256,192,97286,1,8,0:0:0:0:
256,192,97472,1,0,0:0:0:0:
256,192,97565,1,0,0:0:0:0:
256,192,97657,1,8,0:0:0:0:
256,192,97750,1,0,0:0:0:0:
256,192,97843,1,8,0:0:0:0:
256,192,98029,1,0,0:0:0:0:
256,192,98400,1,8,0:0:0:0:
256,192,98585,1,0,0:0:0:0:
256,192,98771,1,8,0:0:0:0:
256,192,98957,1,8,0:0:0:0:
256,192,99049,1,8,0:0:0:0:
256,192,99142,1,0,0:0:0:0:
256,192,99513,1,0,0:0:0:0:
256,192,99699,1,0,0:0:0:0:
256,192,99885,1,8,0:0:0:0:
256,192,99977,1,8,0:0:0:0:
256,192,100070,1,0,0:0:0:0:
256,192,100256,1,8,0:0:0:0:
256,192,100441,1,0,0:0:0:0:
256,192,100534,1,0,0:0:0:0:
256,192,100627,1,8,0:0:0:0:
256,192,100813,1,8,0:0:0:0:
256,192,100998,1,0,0:0:0:0:
256,192,101184,1,8,0:0:0:0:
256,192,101369,1,0,0:0:0:0:
256,192,101741,1,8,0:0:0:0:
256,192,102112,1,0,0:0:0:0:
256,192,102483,1,0,0:0:0:0:
256,192,102669,1,8,0:0:0:0:
256,192,102854,1,0,0:0:0:0:
256,192,103225,1,8,0:0:0:0:
256,192,103597,1,0,0:0:0:0:
256,192,103968,1,8,0:0:0:0:
256,192,104153,1,8,0:0:0:0:
256,192,104339,1,0,0:0:0:0:
256,192,104617,1,0,0:0:0:0:
256,192,104710,1,8,0:0:0:0:
256,192,105081,1,0,0:0:0:0:
256,192,105267,1,8,0:0:0:0:
256,192,105453,1,0,0:0:0:0:
256,192,105638,1,0,0:0:0:0:
256,192,106009,1,0,0:0:0:0:
256,192,106195,1,8,0:0:0:0:
256,192,106381,1,0,0:0:0:0:
256,192,106566,1,0,0:0:0:0:
256,192,106752,1,0,0:0:0:0:
256,192,106937,1,8,0:0:0:0:
256,192,107309,1,0,0:0:0:0:
256,192,107494,1,0,0:0:0:0:
256,192,107680,1,8,0:0:0:0:
256,192,107865,1,0,0:0:0:0:
256,192,108051,1,8,0:0:0:0:
256,192,108237,1,8,0:0:0:0:
256,192,108422,1,0,0:0:0:0:
256,192,108793,1,0,0:0:0:0:
256,192,108979,1,0,0:0:0:0:
256,192,109165,1,8,0:0:0:0:
256,192,109350,1,0,0:0:0:0:
256,192,109536,1,0,0:0:0:0:
256,192,109907,1,8,0:0:0:0:
256,192,110278,1,0,0:0:0:0:
256,192,110464,1,0,0:0:0:0:
256,192,110649,1,8,0:0:0:0:
256,192,110835,1,8,0:0:0:0:
256,192,111021,1,0,0:0:0:0:
256,192,111392,1,0,0:0:0:0:
256,192,111577,1,0,0:0:0:0:
256,192,111763,1,8,0:0:0:0:
256,192,111948,1,0,0:0:0:0:
256,192,112134,1,8,0:0:0:0:
256,192,112505,1,8,0:0:0:0:
256,192,112876,1,0,0:0:0:0:
256,192,113248,1,0,0:0:0:0:
256,192,113433,1,0,0:0:0:0:
256,192,113619,1,8,0:0:0:0:
256,192,113804,1,8,0:0:0:0:
256,192,113990,1,0,0:0:0:0:
256,192,114176,1,8,0:0:0:0:
256,192,114361,1,0,0:0:0:0:
256,192,114732,1,0,0:0:0:0:
256,192,114918,1,0,0:0:0:0:
256,192,115104,1,8,0:0:0:0:
256,192,115289,1,8,0:0:0:0:
256,192,115475,1,0,0:0:0:0:
256,192,115846,1,8,0:0:0:0:
256,192,116217,1,0,0:0:0:0:
256,192,116588,1,8,0:0:0:0:
256,192,116774,1,8,0:0:0:0:
256,192,116960,1,0,0:0:0:0:
256,192,117331,1,0,0:0:0:0:
256,192,117516,1,0,0:0:0:0:
256,192,117702,1,8,0:0:0:0:
256,192,117888,1,0,0:0:0:0:
256,192,118073,1,8,0:0:0:0:
256,192,118444,1,8,0:0:0:0:
256,192,118816,1,0,0:0:0:0:
256,192,124755,5,4,0:0:0:0:
256,192,125126,1,8,0:0:0:0:
256,192,125312,1,0,0:0:0:0:
256,192,125497,1,8,0:0:0:0:
256,192,125683,1,0,0:0:0:0:
256,192,125776,1,8,0:0:0:0:
256,192,125868,1,0,0:0:0:0:
256,192,126054,1,0,0:0:0:0:
256,192,126240,1,8,0:0:0:0:
256,192,126425,1,8,0:0:0:0:
256,192,126518,1,0,0:0:0:0:
256,192,126611,1,8,0:0:0:0:
256,192,126796,1,0,0:0:0:0:
256,192,126982,1,8,0:0:0:0:
256,192,127168,1,0,0:0:0:0:
256,192,127260,1,8,0:0:0:0:
256,192,127353,1,8,0:0:0:0:
256,192,127446,1,8,0:0:0:0:
256,192,127539,1,0,0:0:0:0:
256,192,127724,1,0,0:0:0:0:
256,192,128095,1,8,0:0:0:0:
256,192,128281,1,0,0:0:0:0:
256,192,128467,1,8,0:0:0:0:
256,192,128652,1,8,0:0:0:0:
256,192,128745,1,8,0:0:0:0:
256,192,128838,1,0,0:0:0:0:
256,192,129023,1,8,0:0:0:0:
256,192,129209,1,0,0:0:0:0:
256,192,129395,1,0,0:0:0:0:
256,192,129580,1,0,0:0:0:0:
256,192,129673,1,8,0:0:0:0:
256,192,129766,1,0,0:0:0:0:
256,192,129951,1,8,0:0:0:0:
256,192,130137,1,8,0:0:0:0:
256,192,130230,1,0,0:0:0:0:
256,192,130323,1,8,0:0:0:0:
256,192,130508,1,8,0:0:0:0:
256,192,130694,1,0,0:0:0:0:
256,192,131065,1,8,0:0:0:0:
256,192,131158,1,8,0:0:0:0:
256,192,131251,1,0,0:0:0:0:
256,192,131436,1,8,0:0:0:0:
256,192,131622,1,0,0:0:0:0:
256,192,131715,1,0,0:0:0:0:
256,192,131807,1,8,0:0:0:0:
256,192,131993,1,8,0:0:0:0:
256,192,132179,1,0,0:0:0:0:
256,192,132364,1,0,0:0:0:0:
256,192,132457,1,8,0:0:0:0:
256,192,132550,1,0,0:0:0:0:
256,192,132735,1,0,0:0:0:0:
256,192,132921,1,8,0:0:0:0:
256,192,133107,1,0,0:0:0:0:
256,192,133199,1,8,0:0:0:0:
256,192,133292,1,8,0:0:0:0:
256,192,133385,1,0,0:0:0:0:
256,192,133478,1,8,0:0:0:0:
256,192,133663,1,0,0:0:0:0:
256,192,134035,1,8,0:0:0:0:
256,192,134220,1,0,0:0:0:0:
256,192,134406,1,8,0:0:0:0:
256,192,134591,1,0,0:0:0:0:
256,192,134684,1,0,0:0:0:0:
256,192,134777,1,8,0:0:0:0:
256,192,135148,1,0,0:0:0:0:
256,192,135334,1,0,0:0:0:0:
256,192,135519,1,8,0:0:0:0:
256,192,135612,1,8,0:0:0:0:
256,192,135705,1,0,0:0:0:0:
256,192,135891,1,8,0:0:0:0:
256,192,136076,1,8,0:0:0:0:
256,192,136262,1,0,0:0:0:0:
256,192,136447,1,0,0:0:0:0:
256,192,136633,1,12,0:0:0:0:
256,192,137004,1,8,0:0:0:0:
256,192,137190,1,0,0:0:0:0:
256,192,137375,1,8,0:0:0:0:
256,192,137561,1,8,0:0:0:0:
256,192,137654,1,8,0:0:0:0:
256,192,137747,1,0,0:0:0:0:
256,192,137932,1,0,0:0:0:0:
256,192,138118,1,8,0:0:0:0:
256,192,138303,1,0,0:0:0:0:
256,192,138396,1,0,0:0:0:0:
256,192,138489,1,8,0:0:0:0:
256,192,138675,1,0,0:0:0:0:
256,192,138860,1,8,0:0:0:0:
256,192,139046,1,0,0:0:0:0:
256,192,139139,1,0,0:0:0:0:
256,192,139231,1,8,0:0:0:0:
256,192,139324,1,8,0:0:0:0:
256,192,139417,1,0,0:0:0:0:
256,192,139603,1,8,0:0:0:0:
256,192,139974,1,0,0:0:0:0:
256,192,140159,1,0,0:0:0:0:
256,192,140345,1,8,0:0:0:0:
256,192,140531,1,0,0:0:0:0:
256,192,140623,1,8,0:0:0:0:
256,192,140716,1,0,0:0:0:0:
256,192,140902,1,8,0:0:0:0:
256,192,141087,1,0,0:0:0:0:
256,192,141273,1,0,0:0:0:0:
256,192,141459,1,8,0:0:0:0:
256,192,141551,1,8,0:0:0:0:
256,192,141644,1,0,0:0:0:0:
256,192,141830,1,8,0:0:0:0:
256,192,142015,1,0,0:0:0:0:
256,192,142108,1,0,0:0:0:0:
256,192,142201,1,8,0:0:0:0:
256,192,142387,1,0,0:0:0:0:
256,192,142572,1,8,0:0:0:0:
256,192,142943,1,0,0:0:0:0:
256,192,143036,1,8,0:0:0:0:
256,192,143129,1,0,0:0:0:0:
256,192,143314,1,8,0:0:0:0:
256,192,143500,1,8,0:0:0:0:
256,192,143593,1,0,0:0:0:0:
256,192,143686,1,8,0:0:0:0:
256,192,143871,1,0,0:0:0:0:
256,192,144057,1,8,0:0:0:0:
256,192,144242,1,0,0:0:0:0:
256,192,144335,1,0,0:0:0:0:
256,192,144428,1,8,0:0:0:0:
256,192,144614,1,0,0:0:0:0:
256,192,144799,1,8,0:0:0:0:
256,192,144985,1,0,0:0:0:0:
256,192,145078,1,0,0:0:0:0:
256,192,145170,1,8,0:0:0:0:
256,192,145263,1,0,0:0:0:0:
256,192,145356,1,8,0:0:0:0:
256,192,145542,1,0,0:0:0:0:
256,192,145913,1,8,0:0:0:0:
256,192,146098,1,0,0:0:0:0:
256,192,146284,1,8,0:0:0:0:
256,192,146470,1,8,0:0:0:0:
256,192,146562,1,8,0:0:0:0:
256,192,146655,1,0,0:0:0:0:
256,192,147026,1,0,0:0:0:0:
256,192,147212,1,0,0:0:0:0:
256,192,147398,1,8,0:0:0:0:
256,192,147490,1,8,0:0:0:0:
256,192,147583,1,0,0:0:0:0:
256,192,147769,1,8,0:0:0:0:
256,192,147954,1,0,0:0:0:0:
256,192,148047,1,0,0:0:0:0:
256,192,148140,1,8,0:0:0:0:
256,192,148326,1,8,0:0:0:0:
256,192,148511,1,0,0:0:0:0:
256,192,160389,12,0,171897,0:0:0:0:
256,192,172268,5,0,0:0:0:0:
256,192,174866,5,0,0:0:0:0:
256,192,175237,1,12,0:0:0:0:
256,192,175608,1,8,0:0:0:0:
256,192,175794,1,0,0:0:0:0:
256,192,175980,1,8,0:0:0:0:
256,192,176165,1,8,0:0:0:0:
256,192,176258,1,8,0:0:0:0:
256,192,176351,1,0,0:0:0:0:
256,192,176536,1,0,0:0:0:0:
256,192,176722,1,8,0:0:0:0:
256,192,176908,1,0,0:0:0:0:
256,192,177000,1,0,0:0:0:0:
256,192,177093,1,8,0:0:0:0:
256,192,177279,1,0,0:0:0:0:
256,192,177464,1,8,0:0:0:0:
256,192,177650,1,0,0:0:0:0:
256,192,177743,1,0,0:0:0:0:
256,192,177836,1,8,0:0:0:0:
256,192,177928,1,8,0:0:0:0:
256,192,178021,1,0,0:0:0:0:
256,192,178207,1,8,0:0:0:0:
256,192,178578,1,0,0:0:0:0:
256,192,178764,1,0,0:0:0:0:
256,192,178949,1,8,0:0:0:0:
256,192,179135,1,0,0:0:0:0:
256,192,179228,1,8,0:0:0:0:
256,192,179320,1,0,0:0:0:0:
256,192,179506,1,8,0:0:0:0:
256,192,179692,1,0,0:0:0:0:
256,192,179877,1,0,0:0:0:0:
256,192,180063,1,8,0:0:0:0:
256,192,180156,1,8,0:0:0:0:
256,192,180248,1,0,0:0:0:0:
256,192,180434,1,8,0:0:0:0:
256,192,180620,1,0,0:0:0:0:
256,192,180712,1,0,0:0:0:0:
256,192,180805,1,8,0:0:0:0:
256,192,180991,1,0,0:0:0:0:
256,192,181176,1,8,0:0:0:0:
256,192,181548,1,0,0:0:0:0:
256,192,181640,1,8,0:0:0:0:
256,192,181733,1,0,0:0:0:0:
256,192,181919,1,8,0:0:0:0:
256,192,182104,1,8,0:0:0:0:
256,192,182197,1,0,0:0:0:0:
256,192,182290,1,8,0:0:0:0:
256,192,182476,1,0,0:0:0:0:
256,192,182661,1,8,0:0:0:0:
256,192,182847,1,0,0:0:0:0:
256,192,182940,1,0,0:0:0:0:
256,192,183032,1,8,0:0:0:0:
256,192,183218,1,0,0:0:0:0:
256,192,183404,1,8,0:0:0:0:
256,192,183589,1,0,0:0:0:0:
256,192,183682,1,0,0:0:0:0:
256,192,183775,1,8,0:0:0:0:
256,192,183868,1,0,0:0:0:0:
256,192,183960,1,8,0:0:0:0:
256,192,184146,1,0,0:0:0:0:
256,192,184517,1,8,0:0:0:0:
256,192,184703,1,0,0:0:0:0:
256,192,184888,1,8,0:0:0:0:
256,192,185074,1,8,0:0:0:0:
256,192,185167,1,8,0:0:0:0:
256,192,185260,1,0,0:0:0:0:
256,192,185631,1,0,0:0:0:0:
256,192,185816,1,0,0:0:0:0:
256,192,186002,1,8,0:0:0:0:
256,192,186095,1,8,0:0:0:0:
256,192,186188,1,0,0:0:0:0:
256,192,186373,1,8,0:0:0:0:
256,192,186559,1,0,0:0:0:0:
256,192,186652,1,0,0:0:0:0:
256,192,186744,1,8,0:0:0:0:
256,192,186930,1,8,0:0:0:0:
256,192,187116,1,4,0:0:0:0:
256,192,187487,1,8,0:0:0:0:
256,192,187672,1,0,0:0:0:0:
256,192,187858,1,8,0:0:0:0:
256,192,188044,1,0,0:0:0:0:
256,192,188136,1,8,0:0:0:0:
256,192,188229,1,0,0:0:0:0:
256,192,188415,1,0,0:0:0:0:
256,192,188600,1,8,0:0:0:0:
256,192,188786,1,8,0:0:0:0:
256,192,188879,1,0,0:0:0:0:
256,192,188972,1,8,0:0:0:0:
256,192,189157,1,0,0:0:0:0:
256,192,189343,1,8,0:0:0:0:
256,192,189528,1,0,0:0:0:0:
256,192,189621,1,8,0:0:0:0:
256,192,189714,1,8,0:0:0:0:
256,192,189807,1,8,0:0:0:0:
256,192,189899,1,0,0:0:0:0:
256,192,190085,1,0,0:0:0:0:
256,192,190456,1,8,0:0:0:0:
256,192,190642,1,0,0:0:0:0:
256,192,190827,1,8,0:0:0:0:
256,192,191013,1,8,0:0:0:0:
256,192,191106,1,8,0:0:0:0:
256,192,191199,1,0,0:0:0:0:
256,192,191384,1,8,0:0:0:0:
256,192,191570,1,0,0:0:0:0:
256,192,191755,1,0,0:0:0:0:
256,192,191941,1,0,0:0:0:0:
256,192,192034,1,8,0:0:0:0:
256,192,192127,1,0,0:0:0:0:
256,192,192312,1,8,0:0:0:0:
256,192,192498,1,8,0:0:0:0:
256,192,192591,1,0,0:0:0:0:
256,192,192683,1,8,0:0:0:0:
256,192,192869,1,8,0:0:0:0:
256,192,193055,1,0,0:0:0:0:
256,192,193426,1,8,0:0:0:0:
256,192,193519,1,8,0:0:0:0:
256,192,193611,1,0,0:0:0:0:
256,192,193797,1,8,0:0:0:0:
256,192,193983,1,0,0:0:0:0:
256,192,194075,1,0,0:0:0:0:
256,192,194168,1,8,0:0:0:0:
256,192,194354,1,8,0:0:0:0:
256,192,194539,1,0,0:0:0:0:
256,192,194725,1,0,0:0:0:0:
256,192,194818,1,8,0:0:0:0:
256,192,194911,1,0,0:0:0:0:
256,192,195096,1,0,0:0:0:0:
256,192,195282,1,8,0:0:0:0:
256,192,195467,1,0,0:0:0:0:
256,192,195560,1,8,0:0:0:0:
256,192,195653,1,8,0:0:0:0:
256,192,195746,1,0,0:0:0:0:
256,192,195839,1,8,0:0:0:0:
256,192,196024,1,0,0:0:0:0:
256,192,196395,1,8,0:0:0:0:
256,192,196581,1,0,0:0:0:0:
256,192,196767,1,8,0:0:0:0:
256,192,196952,1,0,0:0:0:0:
256,192,197045,1,0,0:0:0:0:
256,192,197138,1,8,0:0:0:0:
256,192,197509,1,0,0:0:0:0:
256,192,197695,1,0,0:0:0:0:
256,192,197880,1,8,0:0:0:0:
256,192,197973,1,8,0:0:0:0:
256,192,198066,1,0,0:0:0:0:
256,192,198251,1,8,0:0:0:0:
256,192,198437,1,8,0:0:0:0:
256,192,198623,1,0,0:0:0:0:
256,192,198808,1,0,0:0:0:0:
256,192,198994,1,12,0:0:0:0:
256,192,199365,1,0,0:0:0:0:
256,192,199551,1,0,0:0:0:0:
256,192,199736,1,8,0:0:0:0:
256,192,199922,1,0,0:0:0:0:
256,192,200015,1,8,0:0:0:0:
256,192,200107,1,0,0:0:0:0:
256,192,200479,1,0,0:0:0:0:
256,192,200664,1,0,0:0:0:0:
256,192,200850,1,8,0:0:0:0:
256,192,201035,1,0,0:0:0:0:
256,192,201221,1,8,0:0:0:0:
256,192,201407,1,8,0:0:0:0:
256,192,201592,1,0,0:0:0:0:
256,192,201963,1,8,0:0:0:0:
256,192,202149,1,8,0:0:0:0:
256,192,202335,1,0,0:0:0:0:
256,192,202520,1,0,0:0:0:0:
256,192,202613,1,0,0:0:0:0:
256,192,202706,1,8,0:0:0:0:
256,192,203077,1,8,0:0:0:0:
256,192,203263,1,8,0:0:0:0:
256,192,203448,1,0,0:0:0:0:
256,192,203634,1,0,0:0:0:0:
256,192,203819,1,8,0:0:0:0:
256,192,204005,1,0,0:0:0:0:
256,192,204191,1,8,0:0:0:0:
256,192,204376,1,8,0:0:0:0:
256,192,204469,1,0,0:0:0:0:
256,192,204562,1,8,0:0:0:0:
256,192,204933,1,0,0:0:0:0:
256,192,205304,1,8,0:0:0:0:
256,192,205490,1,0,0:0:0:0:
256,192,205675,1,8,0:0:0:0:
256,192,205861,1,8,0:0:0:0:
256,192,205954,1,8,0:0:0:0:
256,192,206046,1,0,0:0:0:0:
256,192,206418,1,8,0:0:0:0:
256,192,206603,1,0,0:0:0:0:
256,192,206789,1,8,0:0:0:0:
256,192,206974,1,0,0:0:0:0:
256,192,207160,1,8,0:0:0:0:
256,192,207346,1,8,0:0:0:0:
256,192,207531,1,0,0:0:0:0:
256,192,207902,1,8,0:0:0:0:
256,192,208088,1,0,0:0:0:0:
256,192,208274,1,8,0:0:0:0:
256,192,208459,1,0,0:0:0:0:
256,192,208552,1,0,0:0:0:0:
256,192,208645,1,8,0:0:0:0:
256,192,209016,1,0,0:0:0:0:
256,192,209202,1,8,0:0:0:0:
256,192,209387,1,0,0:0:0:0:
256,192,209573,1,0,0:0:0:0:
256,192,209758,1,8,0:0:0:0:
256,192,209944,1,0,0:0:0:0:
256,192,210130,1,8,0:0:0:0:
256,192,210315,1,0,0:0:0:0:
256,192,210408,1,0,0:0:0:0:
256,192,210501,1,8,0:0:0:0:
256,192,210872,1,0,0:0:0:0:
256,192,211058,1,0,0:0:0:0:
256,192,211243,1,8,0:0:0:0:
256,192,211614,1,8,0:0:0:0:
256,192,211800,1,0,0:0:0:0:
256,192,212171,1,0,0:0:0:0:
256,192,212357,1,8,0:0:0:0:
256,192,212542,1,8,0:0:0:0:
256,192,212728,1,0,0:0:0:0:
256,192,213099,1,0,0:0:0:0:
256,192,213285,1,8,0:0:0:0:
256,192,213656,1,0,0:0:0:0:
256,192,213842,1,8,0:0:0:0:
256,192,214027,1,0,0:0:0:0:
256,192,214213,1,8,0:0:0:0:
256,192,214584,1,8,0:0:0:0:
256,192,214770,1,0,0:0:0:0:
256,192,215141,1,8,0:0:0:0:
256,192,215326,1,0,0:0:0:0:
256,192,215512,1,0,0:0:0:0:
256,192,215698,1,8,0:0:0:0:
256,192,215883,1,0,0:0:0:0:
256,192,216069,1,8,0:0:0:0:
256,192,216254,1,0,0:0:0:0:
256,192,216626,1,0,0:0:0:0:
256,192,216811,1,8,0:0:0:0:
256,192,216997,1,0,0:0:0:0:
256,192,217182,1,8,0:0:0:0:
256,192,217554,1,8,0:0:0:0:
256,192,217739,1,0,0:0:0:0:
256,192,218110,1,8,0:0:0:0:
256,192,218296,1,0,0:0:0:0:
256,192,218482,1,0,0:0:0:0:
256,192,218667,1,8,0:0:0:0:
256,192,219038,1,0,0:0:0:0:
256,192,219224,1,8,0:0:0:0:
256,192,219595,1,0,0:0:0:0:
256,192,219781,1,8,0:0:0:0:
256,192,219966,1,8,0:0:0:0:
256,192,220152,1,0,0:0:0:0:
256,192,220523,1,8,0:0:0:0:
256,192,220709,1,0,0:0:0:0:
256,192,221080,1,0,0:0:0:0:
256,192,221265,1,8,0:0:0:0:
256,192,221451,1,8,0:0:0:0:
256,192,221637,1,0,0:0:0:0:
256,192,221822,1,0,0:0:0:0:
256,192,222008,1,8,0:0:0:0:
256,192,222379,1,0,0:0:0:0:
256,192,222750,1,0,0:0:0:0:
256,192,223493,1,8,0:0:0:0:
256,192,223678,1,0,0:0:0:0:
256,192,224235,1,0,0:0:0:0:
256,192,224606,1,0,0:0:0:0:
256,192,224977,1,8,0:0:0:0:
256,192,225163,1,0,0:0:0:0:
256,192,225720,1,0,0:0:0:0:
256,192,226462,1,8,0:0:0:0:
256,192,226648,1,0,0:0:0:0:
256,192,227205,1,0,0:0:0:0:
256,192,227390,1,0,0:0:0:0:
256,192,227761,1,0,0:0:0:0:
256,192,227947,1,8,0:0:0:0:
256,192,228133,1,8,0:0:0:0:
256,192,228318,1,0,0:0:0:0:
256,192,228689,1,0,0:0:0:0:
256,192,229432,1,8,0:0:0:0:
256,192,229617,1,0,0:0:0:0:
256,192,230174,1,0,0:0:0:0:
256,192,230545,1,0,0:0:0:0:
256,192,230917,1,8,0:0:0:0:
256,192,231102,1,0,0:0:0:0:
256,192,231659,1,0,0:0:0:0:
256,192,232401,1,8,0:0:0:0:
256,192,232587,1,0,0:0:0:0:
256,192,233144,1,0,0:0:0:0:
256,192,233329,1,0,0:0:0:0:
256,192,233701,1,0,0:0:0:0:
256,192,233886,1,8,0:0:0:0:
256,192,234072,1,0,0:0:0:0:
