osu file format v14

[General]
AudioFilename: audio.mp3
AudioLeadIn: 0
PreviewTime: 89023
Countdown: 0
SampleSet: Soft
StackLeniency: 0.7
Mode: 0
LetterboxInBreaks: 0
WidescreenStoryboard: 1

[Editor]
Bookmarks: 29724,41602,148506,160756,172263,175232,198994,210867
DistanceSpacing: 1.1
BeatDivisor: 4
GridSize: 32
TimelineZoom: 1

[Metadata]
Title:Heat Waves
TitleUnicode:Heat Waves
Artist:Glass Animals
ArtistUnicode:Glass Animals
Creator:AirinCat
Version:Normal
Source:
Tags:dreamland english alternative pop indie rock heatwaves Dave Bayley Drew MacFarlane Edmund Irwin-Singer Joe Seaward
BeatmapID:3566231
BeatmapSetID:1739361

[Difficulty]
HPDrainRate:3
CircleSize:3.6
OverallDifficulty:4
ApproachRate:5
SliderMultiplier:1
SliderTickRate:1

[Events]
//Background and Video events
Video,-108,"glass.mp4"
0,0,"99328399_p0.jpg",0,0
//Break Periods
2,119015,123555
2,148525,159561
2,172468,173666
//Storyboard Layer 0 (Background)
//Storyboard Layer 1 (Fail)
//Storyboard Layer 2 (Pass)
//Storyboard Layer 3 (Foreground)
//Storyboard Layer 4 (Overlay)
//Storyboard Sound Samples

[TimingPoints]
17851,371.195248700817,4,2,1,70,1,0
17851,-111.111111111111,4,2,1,50,0,0
29729,-111.111111111111,4,2,2,60,0,0
41236,-111.111111111111,4,2,1,60,0,0
41607,-105.263157894737,4,2,1,70,0,0
65735,-111.111111111111,4,2,1,50,0,0
89120,-100,4,2,1,70,0,1
100998,-111.111111111111,4,2,1,50,0,0
124755,-100,4,2,1,70,0,1
148326,-100,4,2,1,60,0,0
160761,-142.857142857143,4,2,1,30,0,0
172268,-142.857142857143,4,2,1,5,0,0
174866,-142.857142857143,4,2,1,60,0,0
175237,-100,4,2,1,70,0,1
198994,-100,4,2,2,70,0,0
210501,-100,4,2,1,70,0,0

[Colours]
Combo1 : 176,172,234
Combo2 : 157,184,227
Combo3 : 216,197,175

[HitObjects]
16,342,17479,5,8,0:3:0:0:
94,281,17851,2,0,L|195:299,1,89.9999972534181,0|2,1:2|0:2,0:2:0:0:
266,358,18593,1,8,0:2:0:0:
266,358,18778,2,0,P|314:349|366:338,1,89.9999972534181,2|0,0:2|1:2,0:2:0:0:
399,361,19335,1,2,1:2:0:0:
485,313,19706,1,2,1:2:0:0:
502,218,20078,1,8,0:2:0:0:
502,218,20263,2,0,P|491:170|487:124,1,89.9999972534181,2|0,0:2|0:2,0:2:0:0:
452,93,20820,6,0,B|410:76|410:76|372:103,1,89.9999972534181,2|2,1:2|0:2,0:2:0:0:
316,183,21562,1,8,0:2:0:0:
316,183,21748,2,0,P|270:178|227:174,1,89.9999972534181,2|0,0:2|0:2,0:2:0:0:
189,149,22305,1,2,1:2:0:0:
189,149,22490,2,0,P|144:156|100:162,1,89.9999972534181,0|0,1:2|1:2,0:0:0:0:
61,192,23047,1,8,0:2:0:0:
61,192,23233,1,2,0:2:0:0:
19,108,23604,5,0,0:2:0:0:
19,108,23790,2,0,P|10:56|0:15,1,89.9999972534181,2|2,1:2|0:2,0:2:0:0:
103,37,24532,1,8,0:2:0:0:
103,37,24718,2,0,P|146:29|206:19,1,89.9999972534181,2|0,0:2|0:2,0:2:0:0:
232,49,25274,1,2,1:2:0:0:
319,1,25646,1,2,1:2:0:0:
414,41,26017,1,8,0:2:0:0:
414,41,26202,2,0,P|422:84|432:135,1,89.9999972534181,2|0,0:2|0:2,0:2:0:0:
461,168,26759,6,0,P|416:177|364:189,1,89.9999972534181,2|2,1:2|0:2,0:2:0:0:
294,135,27502,1,8,0:2:0:0:
294,135,27687,2,0,P|252:121|212:144,1,89.9999972534181,2|0,0:2|1:2,0:2:0:0:
171,167,28244,2,0,P|164:191|156:217,1,44.999998626709,2|0,1:2|1:2,0:0:0:0:
192,246,28615,2,0,P|195:269|202:296,1,44.999998626709,2|0,0:2|1:2,0:0:0:0:
177,335,28986,1,8,0:2:0:0:
177,335,29172,2,0,P|133:339|78:349,1,89.9999972534181,2|0,0:2|0:2,0:2:0:0:
40,330,29729,5,4,1:3:0:0:
6,236,30100,1,2,0:2:0:0:
50,149,30471,1,10,0:2:0:0:
50,149,30657,2,0,P|101:140|144:133,1,89.9999972534181,2|0,0:2|0:2,0:2:0:0:
171,96,31214,2,0,P|197:102|224:110,1,44.999998626709,0|2,1:2|1:2,0:0:0:0:
260,126,31585,2,0,P|287:115|317:110,1,44.999998626709,2|2,1:2|0:2,0:0:0:0:
340,79,31956,1,10,0:2:0:0:
340,79,32142,2,0,B|377:56|377:56|425:79,1,89.9999972534181,2|0,0:2|0:2,0:2:0:0:
459,104,32698,5,2,1:2:0:0:
415,193,33070,1,2,0:2:0:0:
494,251,33441,2,0,P|487:291|478:353,1,89.9999972534181,10|0,0:2|0:2,0:2:0:0:
388,376,34183,2,0,P|372:370|326:363,1,44.999998626709,2|2,1:2|1:2,0:0:0:0:
306,332,34554,2,0,P|287:334|258:342,1,44.999998626709,2|2,0:2|1:2,0:0:0:0:
221,323,34925,1,10,0:2:0:0:
221,323,35111,2,0,B|147:327|171:359|91:369,1,134.999995880127,2|0,0:2|1:2,0:2:0:0:
27,297,36039,5,2,0:2:0:0:
77,213,36410,1,10,0:2:0:0:
77,213,36596,2,0,P|69:168|59:118,1,89.9999972534181,2|0,0:2|0:2,0:2:0:0:
91,85,37153,2,0,P|117:81|145:77,1,44.999998626709,2|2,1:2|0:2,0:2:0:0:
159,35,37524,2,0,P|185:38|217:45,1,44.999998626709,2|2,1:2|0:2,0:0:0:0:
245,77,37895,1,10,0:2:0:0:
245,77,38081,2,0,P|286:66|339:55,1,89.9999972534181,2|0,0:2|0:2,0:2:0:0:
358,14,38637,5,2,1:2:0:0:
454,38,39009,1,2,0:2:0:0:
499,125,39380,2,0,P|503:169|511:213,1,89.9999972534181,10|0,0:2|0:2,0:2:0:0:
488,259,39937,1,2,1:2:0:0:
488,259,40122,2,0,L|439:267,1,44.999998626709,2|2,1:2|1:2,0:0:0:0:
396,250,40493,2,0,P|373:244|347:239,1,44.999998626709,2|2,0:2|1:2,0:0:0:0:
303,250,40865,2,0,B|271:279|271:279|282:336,1,89.9999972534181,8|8,0:2|0:3,0:0:0:0:
363,377,41607,5,4,1:3:0:0:
465,358,41978,1,2,0:2:0:0:
470,253,42349,2,0,P|479:207|491:157,1,94.9999974632264,10|0,0:2|0:2,0:2:0:0:
464,120,42906,1,2,1:2:0:0:
464,120,43092,2,0,P|439:116|404:109,1,47.4999987316132,2|2,1:2|0:2,0:0:0:0:
376,78,43463,2,0,P|352:80|321:89,1,47.4999987316132,2|2,1:2|0:2,0:0:0:0:
284,114,43834,2,0,B|177:102|220:47|115:33,1,189.999994926453,10|0,0:2|1:2,0:2:0:0:
20,71,44948,5,2,0:2:0:0:
67,164,45319,2,0,P|60:207|51:265,1,94.9999974632264,10|0,0:2|0:2,0:2:0:0:
19,299,45876,1,2,0:2:0:0:
19,299,46061,2,0,P|27:322|35:359,1,47.4999987316132,2|2,1:2|1:2,0:0:0:0:
79,368,46433,2,0,P|104:359|131:353,1,47.4999987316132,2|0,0:2|1:2,0:2:0:0:
165,322,46804,2,0,P|251:326|361:356,1,189.999994926453,10|0,0:2|1:2,0:2:0:0:
455,341,47917,5,2,0:2:0:0:
427,239,48289,1,10,0:2:0:0:
505,170,48660,1,2,0:2:0:0:
467,83,49031,1,2,1:2:0:0:
467,83,49216,1,2,0:2:0:0:
467,83,49402,1,2,1:2:0:0:
378,28,49773,2,0,B|283:33|323:80|200:102,1,189.999994926453,10|0,0:2|1:2,0:2:0:0:
164,196,50887,5,2,0:2:0:0:
257,241,51258,1,10,0:2:0:0:
238,343,51629,1,2,0:2:0:0:
141,361,52000,1,2,1:2:0:0:
141,361,52186,1,2,1:2:0:0:
141,361,52372,2,0,L|85:352,1,47.4999987316132,2|0,0:2|1:2,0:2:0:0:
44,335,52743,2,0,P|13:277|45:206,1,142.49999619484,10|0,0:2|0:2,0:2:0:0:
18,162,53485,5,0,1:2:0:0:
98,95,53856,1,2,0:2:0:0:
167,173,54228,2,0,P|214:181|267:187,1,94.9999974632264,10|0,0:2|0:2,0:2:0:0:
301,227,54784,1,2,1:2:0:0:
301,227,54970,2,0,P|328:219|363:214,1,47.4999987316132,2|2,1:2|0:2,0:0:0:0:
375,171,55341,2,0,P|404:175|431:181,1,47.4999987316132,2|2,1:2|0:2,0:0:0:0:
460,214,55712,2,0,P|504:137|477:38,1,189.999994926453,10|0,0:2|1:2,0:2:0:0:
383,5,56826,5,2,0:2:0:0:
292,57,57197,2,0,P|245:62|186:70,1,94.9999974632264,10|0,0:2|0:2,0:2:0:0:
160,41,57754,1,2,0:2:0:0:
160,41,57940,2,0,P|140:36|105:26,1,47.4999987316132,2|2,1:2|1:2,0:0:0:0:
77,66,58311,2,0,P|53:70|13:86,1,47.4999987316132,2|0,0:2|1:2,0:2:0:0:
10,126,58682,2,0,B|15:228|67:196|64:304,1,189.999994926453,10|0,0:2|1:2,0:2:0:0:
144,371,59796,5,2,0:2:0:0:
231,313,60167,1,10,0:2:0:0:
324,359,60538,1,2,0:2:0:0:
430,332,60909,1,2,1:2:0:0:
430,332,61095,1,2,0:2:0:0:
430,332,61280,1,2,1:2:0:0:
395,232,61652,2,0,B|388:139|446:147|448:53,1,189.999994926453,10|0,0:2|1:2,0:2:0:0:
354,8,62765,5,2,0:2:0:0:
249,17,63136,1,10,0:2:0:0:
241,121,63508,1,2,0:2:0:0:
340,178,63879,1,2,1:2:0:0:
340,178,64064,1,2,1:2:0:0:
340,178,64250,2,0,P|334:194|331:228,1,47.4999987316132,2|0,0:2|1:2,0:2:0:0:
287,253,64621,2,0,P|293:277|297:307,1,47.4999987316132,8|8,0:2|0:3,0:0:0:0:
332,337,64992,2,0,P|326:360|322:390,2,47.4999987316132,12|4|4,0:3|0:3|1:3,0:0:0:0:
235,358,65735,6,0,P|212:353|191:348,1,44.999998626709,2|2,0:2|0:2,0:2:0:0:
158,318,66106,1,10,0:2:0:0:
158,318,66291,2,0,P|113:323|70:337,1,89.9999972534181,2|2,0:2|1:2,0:2:0:0:
28,311,66848,1,0,1:2:0:0:
10,213,67219,1,0,1:2:0:0:
95,162,67591,2,0,P|130:169|168:179,2,67.4999979400635,10|2|2,0:2|0:2|0:2,0:2:0:0:
64,122,68333,5,0,1:2:0:0:
122,41,68704,2,0,P|147:46|172:54,1,44.999998626709,2|0,0:2|0:2,0:2:0:0:
213,64,69075,2,0,P|223:28|228:-5,2,67.4999979400635,10|2|2,0:2|0:2|0:2,0:2:0:0:
242,104,69818,1,0,1:2:0:0:
339,90,70189,2,0,P|361:94|383:101,1,44.999998626709,2|0,0:0|1:2,0:0:0:0:
412,140,70560,2,0,P|446:148|481:153,2,67.4999979400635,10|2|2,0:2|0:2|0:2,0:2:0:0:
382,180,71303,5,0,1:2:0:0:
298,233,71674,2,0,P|291:254|288:280,1,44.999998626709,2|2,0:2|0:2,0:0:0:0:
262,320,72045,1,10,0:2:0:0:
262,320,72231,2,0,P|213:309|171:305,1,89.9999972534181,2|2,0:2|0:2,0:2:0:0:
137,338,72787,1,0,1:2:0:0:
46,296,73159,1,0,1:2:0:0:
69,200,73530,2,0,P|58:156|53:126,2,67.4999979400635,10|2|2,0:2|0:2|0:2,0:2:0:0:
116,215,74272,6,0,P|166:207|208:191,1,89.9999972534181,0|0,1:2|0:2,0:2:0:0:
283,135,75015,1,10,0:2:0:0:
283,135,75200,2,0,P|332:143|377:157,1,89.9999972534181,2|2,0:2|1:2,0:2:0:0:
412,181,75757,2,0,P|438:175|463:168,1,44.999998626709,0|0,1:2|1:2,0:0:0:0:
489,206,76128,2,0,P|497:229|503:262,1,44.999998626709,2|0,0:2|1:2,0:2:0:0:
485,296,76499,1,10,0:2:0:0:
298,361,77242,5,0,1:2:0:0:
245,277,77613,2,0,P|251:249|258:220,1,44.999998626709,2|2,0:2|0:2,0:0:0:0:
292,200,77984,2,0,P|286:175|280:145,1,44.999998626709,10|0,0:2|0:2,0:2:0:0:
264,109,78355,2,0,P|269:82|276:53,2,44.999998626709,2|0|2,0:2|1:2|1:2,0:2:0:0:
182,164,79098,1,0,1:2:0:0:
104,102,79469,2,0,L|17:121,1,89.9999972534181,8|0,0:2|0:2,0:0:0:0:
3,219,80211,5,0,1:2:0:0:
79,281,80582,2,0,L|132:268,1,44.999998626709,2|0,0:2|0:2,0:2:0:0:
170,283,80954,2,0,P|177:308|183:336,2,44.999998626709,10|0|2,0:2|0:2|0:2,0:2:0:0:
231,205,81696,2,0,P|221:177|216:152,2,44.999998626709,2|0|2,1:2|1:2|0:2,0:0:0:0:
279,230,82253,1,0,1:2:0:0:
279,230,82438,2,0,P|323:221|365:206,1,89.9999972534181,10|0,0:2|0:2,0:2:0:0:
458,240,83181,5,0,1:2:0:0:
503,152,83552,1,2,0:2:0:0:
455,65,83923,2,0,P|433:59|403:50,1,44.999998626709,10|2,0:2|0:2,0:0:0:0:
365,72,84294,2,0,P|347:75|306:81,1,44.999998626709,2|2,0:2|0:2,0:0:0:0:
278,52,84666,2,0,B|233:43|233:43|196:78,1,89.9999972534181,2|2,1:2|1:2,0:2:0:0:
157,162,85408,2,0,P|167:204|175:261,1,89.9999972534181,10|0,0:2|0:2,0:2:0:0:
103,319,86150,5,0,1:2:0:0:
14,273,86522,1,2,0:2:0:0:
45,179,86893,2,0,P|38:128|27:84,1,89.9999972534181,10|0,0:2|0:2,0:2:0:0:
60,53,87450,1,2,1:2:0:0:
60,53,87635,2,0,P|87:47|115:38,1,44.999998626709,2|2,1:2|1:2,0:0:0:0:
192,97,88192,1,2,1:2:0:0:
192,97,88378,1,8,0:2:0:0:
395,13,89120,6,0,P|428:48|428:97,1,100,4|2,1:2|0:2,0:2:0:0:
362,185,89862,2,0,P|314:192|252:204,1,100,10|0,0:2|0:2,0:2:0:0:
232,248,90419,1,2,1:2:0:0:
232,248,90605,2,0,P|234:270|242:299,1,50,2|2,1:2|0:2,0:0:0:0:
282,333,90976,2,0,P|316:327|341:325,1,50,2|2,1:2|0:2,0:0:0:0:
382,346,91347,2,0,P|453:324|470:254,1,150,10|0,0:2|0:2,0:2:0:0:
452,206,92090,5,2,1:2:0:0:
510,113,92461,1,2,0:2:0:0:
425,42,92832,2,0,P|377:55|316:67,1,100,10|0,0:2|0:2,0:2:0:0:
286,101,93389,1,2,0:2:0:0:
286,101,93574,2,0,P|264:94|233:92,1,50,2|2,1:2|1:2,0:0:0:0:
196,54,93946,2,0,P|168:57|137:68,1,50,2|0,0:2|1:2,0:2:0:0:
92,62,94317,2,0,P|44:117|53:189,1,150,10|0,0:2|0:2,0:2:0:0:
29,238,95059,5,2,1:2:0:0:
113,308,95430,1,2,0:2:0:0:
196,235,95802,1,10,0:2:0:0:
278,307,96173,1,2,0:2:0:0:
367,243,96544,1,2,1:2:0:0:
367,243,96729,1,2,0:2:0:0:
367,243,96915,1,2,1:2:0:0:
445,319,97286,2,0,P|501:240|477:147,1,200,10|2,0:2|1:2,0:2:0:0:
433,46,98400,5,2,0:2:0:0:
337,100,98771,1,10,0:2:0:0:
240,47,99142,1,2,0:2:0:0:
146,98,99513,1,2,1:2:0:0:
146,98,99699,1,2,1:2:0:0:
146,98,99885,2,0,P|122:94|88:89,1,50,2|0,0:2|1:2,0:2:0:0:
45,111,100256,2,0,P|5:171|27:240,1,150,10|0,0:2|0:2,0:2:0:0:
74,257,100998,6,0,P|67:288|60:332,1,67.4999979400635,2|2,1:2|0:2,0:2:0:0:
177,367,101741,2,0,L|193:277,1,89.9999972534181,10|2,0:2|0:2,0:2:0:0:
231,247,102297,1,0,1:2:0:0:
231,247,102483,2,0,P|270:254|309:265,2,67.4999979400635,2|2|0,1:2|0:2|0:0,0:0:0:0:
212,201,103225,2,0,P|222:145|239:99,1,89.9999972534181,10|0,0:2|0:2,0:2:0:0:
183,27,103968,6,0,P|150:19|107:6,2,67.4999979400635,2|2|2,1:2|0:2|0:2,0:2:0:0:
230,14,104710,1,8,0:2:0:0:
328,5,105081,1,0,0:2:0:0:
372,99,105453,1,2,1:2:0:0:
372,99,105638,2,0,P|414:109|468:120,1,89.9999972534181,2|0,1:2|1:2,0:0:0:0:
501,144,106195,2,0,P|491:186|482:236,1,89.9999972534181,10|12,0:2|0:3,0:0:0:0:
456,274,106752,2,0,P|459:294|462:328,1,44.999998626709,4|0,0:3|1:2,0:2:0:0:
365,342,107309,6,0,P|358:318|354:288,1,44.999998626709,2|2,0:2|0:2,0:0:0:0:
321,261,107680,2,0,P|296:264|270:270,1,44.999998626709,10|0,0:2|0:2,0:2:0:0:
243,305,108051,2,0,P|219:298|189:292,1,44.999998626709,2|0,0:2|0:2,0:2:0:0:
162,260,108422,1,2,1:2:0:0:
83,320,108793,1,0,1:2:0:0:
3,260,109165,2,0,P|10:214|17:163,1,89.9999972534181,8|0,0:2|0:2,0:0:0:0:
86,101,109907,5,0,1:2:0:0:
156,170,110278,2,0,P|185:174|207:178,1,44.999998626709,2|0,0:2|0:2,0:2:0:0:
234,213,110649,2,0,P|229:235|223:273,2,44.999998626709,10|2|2,0:2|0:2|0:2,0:0:0:0:
316,158,111392,2,0,P|311:133|305:105,1,44.999998626709,2|0,1:2|1:2,0:0:0:0:
330,70,111763,2,0,P|351:63|384:61,1,44.999998626709,2|0,0:2|1:2,0:2:0:0:
423,65,112134,2,0,P|434:100|444:155,1,89.9999972534181,10|0,0:2|0:2,0:2:0:0:
504,230,112876,5,2,1:2:0:0:
429,295,113248,2,0,P|406:292|378:288,1,44.999998626709,2|2,0:2|0:2,0:0:0:0:
348,255,113619,2,0,P|326:258|297:266,1,44.999998626709,10|2,0:2|0:2,0:0:0:0:
271,301,113990,2,0,P|249:299|224:295,1,44.999998626709,2|2,0:2|1:2,0:0:0:0:
193,257,114361,1,2,1:2:0:0:
241,170,114732,1,0,1:2:0:0:
152,124,115104,2,0,P|108:136|60:144,1,89.9999972534181,8|0,0:2|0:2,0:0:0:0:
20,231,115846,5,0,1:2:0:0:
78,310,116217,1,2,0:2:0:0:
163,260,116588,2,0,P|159:233|150:205,2,44.999998626709,10|0|2,0:2|0:2|0:2,0:2:0:0:
247,312,117331,2,0,P|255:337|260:364,2,44.999998626709,2|0|0,1:2|1:2|0:2,0:0:0:0:
282,277,117888,1,0,1:2:0:0:
282,277,118073,2,0,P|326:263|374:255,2,89.9999972534181,10|0|2,0:2|0:2|0:3,0:2:0:0:
26,343,124755,6,0,P|16:294|2:245,1,100,6|2,1:2|0:2,0:2:0:0:
45,144,125497,2,0,P|95:133|148:119,1,100,10|0,0:2|0:2,0:2:0:0:
179,80,126054,1,2,1:2:0:0:
179,80,126240,2,0,P|206:85|234:89,1,50,2|2,1:2|0:2,0:0:0:0:
267,127,126611,2,0,P|290:119|321:114,1,50,2|2,1:2|0:2,0:0:0:0:
350,72,126982,2,0,B|431:75|412:115|487:124,1,150,10|0,0:2|0:2,0:2:0:0:
504,176,127724,5,4,1:3:0:0:
448,270,128095,1,2,0:2:0:0:
352,214,128467,2,0,B|301:202|301:202|251:240,1,100,10|0,0:2|0:2,0:2:0:0:
219,262,129023,1,2,0:2:0:0:
219,262,129209,2,0,P|222:283|228:321,1,50,2|2,1:2|1:2,0:0:0:0:
187,350,129580,2,0,P|159:354|128:362,1,50,2|0,0:2|1:2,0:2:0:0:
84,371,129951,2,0,P|29:323|36:250,1,150,10|0,0:2|0:2,0:2:0:0:
15,199,130694,5,4,1:3:0:0:
94,122,131065,1,2,0:2:0:0:
196,162,131436,1,10,0:2:0:0:
185,271,131807,1,2,0:2:0:0:
278,347,132179,1,2,1:2:0:0:
278,347,132364,1,2,0:2:0:0:
278,347,132550,1,2,1:2:0:0:
387,338,132921,2,0,P|438:286|429:214,1,150,10|0,0:2|0:2,0:2:0:0:
389,176,133663,5,4,1:3:0:0:
431,74,134035,1,2,0:2:0:0:
344,6,134406,1,10,0:2:0:0:
240,42,134777,1,2,0:2:0:0:
247,159,135148,1,2,1:2:0:0:
247,159,135334,1,2,1:2:0:0:
247,159,135519,2,0,P|251:183|256:223,1,50,2|0,0:2|1:2,0:2:0:0:
229,257,135891,2,0,B|180:260|189:279|125:293,1,100,10|12,0:2|0:3,0:2:0:0:
31,253,136633,5,4,1:3:0:0:
104,170,137004,1,2,0:2:0:0:
13,107,137375,2,0,B|-12:66|-12:66|14:22,1,100,10|0,0:2|0:2,0:2:0:0:
70,10,137932,1,2,1:2:0:0:
70,10,138118,2,0,L|119:16,1,50,2|2,1:2|0:2,0:0:0:0:
159,54,138489,2,0,L|216:43,1,50,2|2,1:2|0:2,0:0:0:0:
251,10,138860,2,0,B|332:15|314:50|391:56,1,150,10|0,0:2|0:2,0:2:0:0:
443,39,139603,5,4,1:3:0:0:
464,146,139974,1,2,0:2:0:0:
362,189,140345,2,0,P|332:223|343:279,1,100,10|0,0:2|0:2,0:2:0:0:
356,331,140902,1,2,0:2:0:0:
356,331,141087,2,0,L|408:340,1,50,2|2,1:2|1:2,0:0:0:0:
460,333,141459,2,0,P|463:304|469:275,1,50,2|0,0:2|1:2,0:2:0:0:
503,242,141830,2,0,P|521:171|485:107,1,150,10|0,0:2|0:2,0:2:0:0:
465,56,142572,5,4,1:3:0:0:
368,108,142943,1,2,0:2:0:0:
274,50,143314,1,10,0:2:0:0:
184,114,143686,1,2,0:2:0:0:
95,68,144057,1,2,1:2:0:0:
95,68,144242,1,2,0:2:0:0:
95,68,144428,1,2,1:2:0:0:
14,142,144799,2,0,P|26:210|41:303,1,150,10|0,0:2|0:2,0:2:0:0:
84,322,145542,5,4,1:3:0:0:
169,253,145913,1,2,0:2:0:0:
263,308,146284,1,10,0:2:0:0:
346,236,146655,1,2,0:2:0:0:
300,147,147026,1,2,1:2:0:0:
300,147,147212,1,2,1:2:0:0:
300,147,147398,2,0,L|308:92,1,50,2|0,0:2|1:2,0:2:0:0:
342,55,147769,2,0,P|370:55|393:63,1,50,8|8,0:2|0:3,0:0:0:0:
442,42,148140,2,0,P|467:49|488:64,1,50,12|4,0:3|0:3,0:0:0:0:
92,355,160761,6,0,P|59:359|23:371,2,69.9999978637696,2|2|2,0:2|0:2|0:2,0:2:0:0:
145,299,161874,1,2,0:2:0:0:
210,339,162245,1,2,0:2:0:0:
269,290,162617,2,0,P|332:298|421:315,1,139.999995727539,2|0,0:2|0:2,0:2:0:0:
466,263,163730,5,2,0:2:0:0:
427,196,164101,2,0,P|434:161|441:121,1,69.9999978637696,2|2,0:2|0:2,0:0:0:0:
413,54,164844,2,0,P|380:48|334:41,1,69.9999978637696,2|2,0:2|0:2,0:2:0:0:
268,55,165586,2,0,B|199:68|208:93|128:111,1,139.999995727539,2|0,0:2|0:2,0:2:0:0:
62,106,166700,5,2,0:2:0:0:
18,169,167071,1,2,0:2:0:0:
52,238,167442,1,2,0:2:0:0:
33,312,167813,2,0,L|-1:322,2,34.9999989318848,2|2|2,0:2|0:2|0:2,0:0:0:0:
108,325,168556,2,0,B|174:326|159:354|245:367,1,139.999995727539,2|0,0:2|0:0,0:2:0:0:
256,192,169669,12,0,172268,0:2:0:0:
113,86,174866,5,8,0:3:0:0:
34,163,175237,2,0,P|42:210|50:268,1,100,4|2,1:2|0:2,0:2:0:0:
144,317,175980,2,0,B|184:287|184:287|233:307,1,100,10|0,0:2|0:2,0:2:0:0:
277,343,176536,1,2,1:2:0:0:
277,343,176722,2,0,P|306:338|338:333,1,50,2|2,1:2|0:2,0:0:0:0:
367,298,177093,2,0,P|393:304|424:311,1,50,2|2,1:2|0:2,0:0:0:0:
465,332,177464,2,0,P|473:259|492:181,1,150,10|0,0:2|0:2,0:2:0:0:
465,135,178207,5,4,1:3:0:0:
367,185,178578,1,2,0:2:0:0:
303,95,178949,2,0,B|264:66|264:66|206:88,1,100,10|0,0:2|0:2,0:2:0:0:
173,118,179506,1,2,0:2:0:0:
173,118,179692,2,0,L|180:167,1,50,2|2,1:2|1:2,0:0:0:0:
226,197,180063,2,0,L|216:251,1,50,2|0,0:2|1:2,0:2:0:0:
194,296,180434,2,0,B|119:293|135:328|48:326,1,150,10|0,0:2|0:2,0:2:0:0:
8,288,181176,5,4,1:3:0:0:
70,197,181548,1,2,0:2:0:0:
7,106,181919,1,10,0:2:0:0:
83,27,182290,1,2,0:2:0:0:
194,70,182661,1,2,1:2:0:0:
194,70,182847,1,2,0:2:0:0:
194,70,183032,1,2,1:2:0:0:
283,6,183404,2,0,B|353:11|338:53|421:59,1,150,10|0,0:2|0:2,0:2:0:0:
473,45,184146,5,4,1:3:0:0:
508,148,184517,1,2,0:2:0:0:
420,214,184888,1,10,0:2:0:0:
324,158,185260,1,2,0:2:0:0:
245,233,185631,1,2,1:2:0:0:
245,233,185816,1,2,1:2:0:0:
245,233,186002,2,0,P|220:239|186:245,1,50,2|0,0:2|1:2,0:2:0:0:
151,276,186373,2,0,P|103:263|52:258,1,100,10|0,0:2|1:2,0:2:0:0:
7,158,187116,6,0,B|-8:112|-8:112|22:70,1,100,4|2,1:2|0:2,0:2:0:0:
113,8,187858,2,0,P|164:18|212:28,1,100,10|0,0:2|0:2,0:2:0:0:
254,69,188415,1,2,1:2:0:0:
254,69,188600,2,0,P|281:61|308:58,1,50,2|2,1:2|0:2,0:0:0:0:
347,25,188972,2,0,P|374:32|408:36,1,50,2|2,1:2|0:2,0:0:0:0:
429,78,189343,2,0,P|472:135|452:205,1,150,10|0,0:2|0:2,0:2:0:0:
406,235,190085,5,4,1:3:0:0:
321,164,190456,1,2,0:2:0:0:
222,212,190827,2,0,P|214:257|211:325,1,100,10|0,0:2|0:2,0:2:0:0:
250,357,191384,1,2,0:2:0:0:
250,357,191570,2,0,P|277:358|306:364,1,50,2|2,1:2|1:2,0:0:0:0:
346,332,191941,2,0,P|376:327|401:321,1,50,2|0,0:2|1:2,0:2:0:0:
446,343,192312,2,0,P|482:279|459:210,1,150,10|0,0:2|0:2,0:2:0:0:
413,179,193055,5,4,1:3:0:0:
323,115,193426,1,2,0:2:0:0:
227,169,193797,1,10,0:2:0:0:
128,119,194168,1,2,0:2:0:0:
159,19,194539,1,2,1:2:0:0:
159,19,194725,1,2,0:2:0:0:
159,19,194911,1,2,1:2:0:0:
267,35,195282,2,0,P|339:25|432:12,1,150,10|0,0:2|0:2,0:2:0:0:
468,30,196024,5,4,1:3:0:0:
504,133,196395,1,2,0:2:0:0:
415,198,196767,1,10,0:2:0:0:
318,145,197138,1,2,0:2:0:0:
244,226,197509,1,2,1:2:0:0:
244,226,197695,1,2,1:2:0:0:
244,226,197880,2,0,P|241:247|241:279,1,50,2|0,0:2|1:2,0:2:0:0:
198,310,198251,2,0,P|156:334|110:318,1,100,10|0,0:2|1:2,0:2:0:0:
53,224,198994,5,4,1:3:0:0:
98,124,199365,1,2,0:2:0:0:
211,137,199736,1,10,0:2:0:0:
211,137,199922,2,0,P|256:132|313:128,1,100,2|0,0:2|1:2,0:2:0:0:
345,171,200479,2,0,P|349:194|351:221,1,50,2|2,1:2|0:2,0:0:0:0:
310,257,200850,2,0,P|305:278|302:310,1,50,2|2,1:2|0:2,0:0:0:0:
343,350,201221,1,10,0:2:0:0:
343,350,201407,2,0,P|391:356|449:370,1,100,2|0,0:2|0:2,0:2:0:0:
495,358,201963,5,2,1:2:0:0:
445,259,202335,1,2,0:2:0:0:
477,154,202706,2,0,B|480:107|508:102|513:51,1,100,10|0,0:2|0:2,0:2:0:0:
417,4,203448,2,0,P|392:8|361:17,1,50,2|2,1:2|1:2,0:0:0:0:
325,49,203819,2,0,P|302:44|269:36,1,50,2|2,0:2|1:2,0:0:0:0:
229,19,204191,1,10,0:2:0:0:
229,19,204376,2,0,B|172:61|172:61|198:135,1,150,2|4,0:2|1:3,0:2:0:0:
276,213,205304,5,2,0:2:0:0:
216,306,205675,1,10,0:2:0:0:
216,306,205861,2,0,P|168:314|105:333,1,100,2|0,0:2|0:2,0:2:0:0:
71,300,206418,2,0,P|63:270|55:245,1,50,2|2,1:2|0:2,0:2:0:0:
10,223,206789,2,0,P|16:195|22:164,1,50,2|2,1:2|0:2,0:0:0:0:
35,124,207160,1,10,0:2:0:0:
35,124,207346,2,0,B|75:94|75:94|121:118,1,100,2|0,0:2|0:2,0:2:0:0:
165,148,207902,5,2,1:2:0:0:
244,72,208274,1,2,0:2:0:0:
340,124,208645,2,0,B|389:127|386:143|445:149,1,100,10|0,0:2|0:2,0:2:0:0:
485,183,209202,1,2,1:2:0:0:
485,183,209387,2,0,P|481:207|479:239,1,50,2|2,1:2|1:2,0:0:0:0:
437,268,209758,2,0,P|441:291|445:320,1,50,2|2,0:2|1:2,0:0:0:0:
407,358,210130,1,10,0:2:0:0:
301,325,210501,2,0,P|254:335|194:351,1,100,8|4,0:3|1:3,0:2:0:0:
