osu file format v14

[General]
AudioFilename: audio.mp3
AudioLeadIn: 0
PreviewTime: 89023
Countdown: 0
SampleSet: Soft
StackLeniency: 0.7
Mode: 0
LetterboxInBreaks: 0
WidescreenStoryboard: 1

[Editor]
Bookmarks: 29724,41602,148506,160756,172263,175232,198994,210867
DistanceSpacing: 0.5
BeatDivisor: 4
GridSize: 32
TimelineZoom: 1

[Metadata]
Title:Heat Waves
TitleUnicode:Heat Waves
Artist:Glass Animals
ArtistUnicode:Glass Animals
Creator:AirinCat
Version:Hard
Source:
Tags:dreamland english alternative pop indie rock heatwaves Dave Bayley Drew MacFarlane Edmund Irwin-Singer Joe Seaward
BeatmapID:3557430
BeatmapSetID:1739361

[Difficulty]
HPDrainRate:4
CircleSize:3.8
OverallDifficulty:6
ApproachRate:7.6
SliderMultiplier:1.5
SliderTickRate:1

[Events]
//Background and Video events
Video,-108,"glass.mp4"
0,0,"99328399_p0.jpg",0,0
//Break Periods
2,119015,120975
2,148526,159951
2,172468,174056
//Storyboard Layer 0 (Background)
//Storyboard Layer 1 (Fail)
//Storyboard Layer 2 (Pass)
//Storyboard Layer 3 (Foreground)
//Storyboard Layer 4 (Overlay)
//Storyboard Sound Samples

[TimingPoints]
17851,371.195248700817,4,2,1,70,1,0
17851,-111.111111111111,4,2,1,50,0,0
29729,-100,4,2,2,60,0,0
41236,-100,4,2,1,60,0,0
41607,-100,4,2,1,70,0,0
65735,-111.111111111111,4,2,1,50,0,0
89120,-100,4,2,1,70,0,1
100998,-111.111111111111,4,2,1,50,0,0
124384,-111.111111111111,4,2,1,30,0,0
124755,-100,4,2,1,70,0,1
148326,-100,4,2,1,60,0,0
160761,-142.857142857143,4,2,1,30,0,0
172268,-142.857142857143,4,2,1,5,0,0
174866,-142.857142857143,4,2,1,60,0,0
175237,-100,4,2,1,70,0,1
198994,-100,4,2,2,70,0,0
210501,-100,4,2,1,70,0,0

[Colours]
Combo1 : 176,172,234
Combo2 : 157,184,227
Combo3 : 216,197,175

[HitObjects]
26,362,17479,5,8,0:3:0:0:
26,362,17851,2,0,L|11:289,1,67.4999979400635,0|0,1:2|0:2,0:2:0:0:
52,222,18222,2,0,P|121:202|170:246,1,134.999995880127,2|8,0:2|0:2,0:2:0:0:
230,293,18778,2,0,B|311:289|297:322|371:322,1,134.999995880127,2|0,0:2|1:2,0:2:0:0:
448,295,19335,6,0,P|454:258|461:224,1,67.4999979400635,2|0,1:2|0:2,0:0:0:0:
401,170,19706,2,0,P|393:131|385:96,1,67.4999979400635,2|0,1:2|0:2,0:2:0:0:
437,36,20078,1,8,0:2:0:0:
367,1,20263,2,0,P|289:17|212:30,1,134.999995880127,2|0,0:2|0:2,0:2:0:0:
167,78,20820,6,0,P|130:71|93:62,1,67.4999979400635,2|0,1:2|0:2,0:2:0:0:
30,108,21191,2,0,P|1:177|33:232,1,134.999995880127,2|8,0:2|0:2,0:2:0:0:
61,302,21748,2,0,P|127:281|209:263,1,134.999995880127,2|0,0:2|0:2,0:2:0:0:
255,205,22305,5,2,1:2:0:0:
255,205,22490,1,0,1:2:0:0:
329,240,22676,2,0,P|340:275|347:311,1,67.4999979400635,2|0,0:2|1:2,0:0:0:0:
416,349,23047,1,8,0:2:0:0:
479,294,23233,2,0,B|476:220|436:239|433:159,1,134.999995880127,2|0,0:2|0:2,0:2:0:0:
452,84,23790,5,2,1:2:0:0:
452,84,24161,2,0,P|384:101|313:117,1,134.999995880127,2|8,0:2|0:2,0:0:0:0:
262,182,24718,2,0,P|279:254|292:323,1,134.999995880127,2|0,0:2|0:2,0:2:0:0:
221,371,25274,6,0,P|186:374|146:384,1,67.4999979400635,2|0,1:2|0:2,0:2:0:0:
75,354,25646,2,0,P|67:317|58:284,1,67.4999979400635,0|0,1:0|0:0,0:0:0:0:
103,221,26017,1,8,0:2:0:0:
45,163,26202,2,0,B|53:89|87:106|101:31,1,134.999995880127,2|0,0:2|0:2,0:2:0:0:
180,11,26759,6,0,P|219:23|261:31,1,67.4999979400635,2|0,1:2|0:2,0:2:0:0:
313,74,27130,2,0,P|371:30|434:48,1,134.999995880127,2|8,0:2|0:2,0:2:0:0:
489,97,27687,2,0,L|473:177,1,67.4999979400635,2|0,0:2|0:2,0:2:0:0:
411,207,28058,1,0,1:2:0:0:
475,272,28244,5,2,1:2:0:0:
475,272,28430,1,0,1:2:0:0:
410,321,28615,2,0,P|377:313|339:304,1,67.4999979400635,2|0,0:2|1:2,0:0:0:0:
281,256,28986,1,8,0:2:0:0:
211,306,29172,2,0,P|133:290|111:243,1,134.999995880127,2|0,0:2|0:2,0:2:0:0:
96,155,29729,5,4,1:3:0:0:
96,155,30100,2,0,P|135:165|176:176,1,75,2|0,0:2|0:2,0:2:0:0:
243,138,30471,1,10,0:2:0:0:
310,191,30657,2,0,P|380:181|404:114,1,150,2|0,0:2|0:2,0:2:0:0:
368,32,31214,5,0,1:2:0:0:
368,32,31399,1,2,1:2:0:0:
279,38,31585,2,0,P|241:33|195:21,1,75,2|2,1:2|0:2,0:0:0:0:
132,70,31956,1,10,0:2:0:0:
50,45,32142,2,0,P|-1:97|14:168,1,150,2|0,0:2|0:2,0:2:0:0:
69,231,32698,6,0,P|110:220|149:214,1,75,2|0,1:2|0:2,0:2:0:0:
201,147,33070,2,0,P|242:158|281:164,1,75,2|0,0:2|0:2,0:2:0:0:
343,225,33441,2,0,B|425:216|401:180|481:174,1,150,10|0,0:2|0:2,0:2:0:0:
489,257,33997,1,2,0:2:0:0:
481,174,34183,6,0,P|468:135|463:93,1,75,2|2,1:2|1:2,0:0:0:0:
393,52,34554,1,2,0:2:0:0:
393,52,34740,1,2,1:2:0:0:
333,118,34925,1,10,0:2:0:0:
260,79,35111,2,0,B|184:86|208:119|127:144,1,150,2|0,0:2|0:2,0:2:0:0:
29,131,35668,5,0,1:2:0:0:
29,131,36039,2,0,P|37:167|45:204,1,75,2|0,0:2|0:2,0:2:0:0:
0,275,36410,1,10,0:2:0:0:
52,336,36596,2,0,P|125:349|177:298,1,150,2|0,0:2|0:2,0:2:0:0:
227,223,37153,6,0,P|217:183|210:150,1,75,2|2,1:2|0:2,0:2:0:0:
237,71,37524,2,0,P|275:60|318:53,1,75,2|2,1:2|0:2,0:0:0:0:
392,95,37895,1,10,0:2:0:0:
469,53,38081,2,0,P|519:105|509:177,1,150,2|0,0:2|0:2,0:2:0:0:
435,250,38637,6,0,P|398:241|361:234,1,75,2|0,1:2|0:2,0:2:0:0:
293,161,39009,2,0,P|256:169|219:176,1,75,2|0,0:2|0:2,0:2:0:0:
140,239,39380,2,0,B|61:225|81:185|5:179,1,150,10|0,0:2|0:2,0:2:0:0:
8,261,39937,1,2,1:2:0:0:
5,179,40122,6,0,L|23:107,1,75,2|2,1:2|1:2,0:0:0:0:
92,50,40493,1,2,0:2:0:0:
92,50,40679,1,2,1:2:0:0:
161,108,40865,1,8,0:2:0:0:
347,4,41236,5,8,0:3:0:0:
347,4,41607,6,0,P|328:82|317:159,1,150,4|2,1:3|0:2,0:2:0:0:
366,226,42164,1,0,0:2:0:0:
290,274,42349,2,0,P|209:254|137:244,1,150,10|0,0:2|0:2,0:2:0:0:
70,299,42906,1,2,1:2:0:0:
10,233,43092,6,0,P|16:196|26:160,1,75,2|2,1:2|0:2,0:0:0:0:
99,101,43463,1,2,1:2:0:0:
99,101,43649,1,2,0:2:0:0:
183,150,43834,2,0,P|264:141|294:74,2,150,10|0|0,0:2|0:2|1:2,0:2:0:0:
47,332,44948,6,0,P|39:295|30:258,1,75,2|0,0:2|0:2,0:2:0:0:
130,290,45319,2,0,B|203:290|189:324|269:339,1,150,10|0,0:2|0:2,0:2:0:0:
350,362,45876,1,2,0:2:0:0:
405,284,46061,5,2,1:2:0:0:
405,284,46247,1,2,1:2:0:0:
333,224,46433,2,0,P|326:187|315:137,1,75,2|0,0:2|1:2,0:2:0:0:
383,72,46804,2,0,P|470:79|488:153,1,150,10|0,0:2|0:2,0:2:0:0:
256,56,47546,5,0,1:2:0:0:
256,56,47917,2,0,P|223:65|169:73,1,75,2|0,0:2|0:2,0:2:0:0:
120,128,48289,2,0,P|83:117|47:111,1,75,10|0,0:2|0:2,0:2:0:0:
19,206,48660,2,0,P|55:216|91:224,1,75,2|0,0:2|0:2,0:2:0:0:
194,186,49031,5,2,1:2:0:0:
194,186,49216,1,2,0:2:0:0:
233,268,49402,2,0,P|226:302|215:355,1,75,2|0,1:2|0:2,0:2:0:0:
323,329,49773,2,0,P|395:324|443:379,2,150,10|0|0,0:2|0:2|1:2,0:2:0:0:
107,381,50887,6,0,P|72:371|15:363,1,75,2|0,0:2|0:2,0:2:0:0:
0,279,51258,2,0,P|11:243|22:207,1,75,10|0,0:2|0:2,0:2:0:0:
102,153,51629,2,0,P|94:117|86:72,1,75,2|0,0:2|1:2,0:2:0:0:
152,17,52000,5,2,1:2:0:0:
152,17,52186,1,2,1:2:0:0:
238,49,52372,2,0,P|278:43|319:33,1,75,2|0,0:2|1:2,0:2:0:0:
377,98,52743,2,0,B|454:108|431:151|509:163,1,150,10|0,0:2|0:2,0:2:0:0:
390,346,53485,5,0,1:2:0:0:
390,346,53856,2,0,P|380:309|373:272,1,75,2|0,0:2|0:2,0:2:0:0:
296,222,54228,2,0,P|224:221|184:282,1,150,10|0,0:2|0:2,0:2:0:0:
196,367,54784,1,2,1:2:0:0:
112,351,54970,6,0,P|75:358|35:371,1,75,2|2,1:2|0:2,0:0:0:0:
58,271,55341,1,2,1:2:0:0:
58,271,55527,1,2,0:2:0:0:
0,207,55712,2,0,B|-5:128|40:132|34:63,2,150,10|0|0,0:2|0:2|1:2,0:2:0:0:
159,372,56826,6,0,P|197:361|239:350,1,75,2|0,0:2|0:2,0:2:0:0:
292,280,57197,2,0,P|364:298|434:325,1,150,10|0,0:2|0:2,0:2:0:0:
512,298,57754,1,2,0:2:0:0:
472,226,57940,5,2,1:2:0:0:
472,226,58125,1,2,1:2:0:0:
499,145,58311,2,0,P|504:109|511:71,1,75,2|0,0:2|1:2,0:2:0:0:
419,94,58682,2,0,P|349:76|295:124,1,150,10|0,0:2|0:2,0:2:0:0:
245,343,59424,5,0,1:2:0:0:
245,343,59796,2,0,P|273:337|324:327,1,75,2|0,0:2|0:2,0:2:0:0:
301,236,60167,2,0,P|268:241|227:249,1,75,10|0,0:2|0:2,0:2:0:0:
146,212,60538,2,0,P|139:175|132:138,1,75,2|0,0:2|0:2,0:2:0:0:
187,61,60909,5,2,1:2:0:0:
187,61,61095,1,2,0:2:0:0:
108,26,61280,2,0,P|75:34|31:45,1,75,2|0,1:2|0:2,0:2:0:0:
0,122,61652,2,0,B|0:202|37:184|38:264,2,150,10|0|0,0:2|0:2|1:2,0:2:0:0:
208,176,62765,6,0,P|245:166|287:156,1,75,2|0,0:2|0:2,0:2:0:0:
321,80,63136,2,0,P|357:86|394:95,1,75,10|0,0:2|0:2,0:2:0:0:
464,150,63508,2,0,P|457:184|449:231,1,75,2|0,0:2|1:2,0:2:0:0:
371,276,63879,5,2,1:2:0:0:
371,276,64064,1,2,1:2:0:0:
407,359,64250,2,0,P|440:366|487:377,1,75,2|0,0:2|1:2,0:2:0:0:
310,348,64621,2,0,P|274:359|237:368,1,75,8|8,0:2|0:3,0:0:0:0:
162,330,64992,1,12,0:3:0:0:
91,378,65178,1,4,0:3:0:0:
17,302,65363,5,4,1:3:0:0:
17,302,65735,2,0,L|33:236,1,67.4999979400635,2|2,0:2|0:2,0:2:0:0:
99,180,66106,1,10,0:2:0:0:
99,180,66291,2,0,P|165:196|244:212,1,134.999995880127,2|2,0:2|1:2,0:2:0:0:
318,163,66848,2,0,P|359:111|341:49,1,134.999995880127,0|0,1:2|1:2,0:2:0:0:
310,256,67591,6,0,P|323:305|333:366,2,101.249996910095,10|2|2,0:2|0:2|0:2,0:2:0:0:
375,198,68333,2,0,P|439:187|483:235,1,134.999995880127,0|2,1:2|0:2,0:0:0:0:
510,313,68890,1,0,0:2:0:0:
431,336,69075,2,0,P|380:343|331:355,1,101.249996910095,10|2,0:2|0:2,0:2:0:0:
227,291,69632,5,2,0:2:0:0:
227,291,69725,1,2,0:2:0:0:
227,291,69818,2,0,L|213:213,1,67.4999979400635,2|0,1:2|1:2,0:2:0:0:
280,168,70189,2,0,L|294:91,1,67.4999979400635,2|2,0:2|1:2,0:0:0:0:
233,41,70560,2,0,P|183:32|135:15,2,101.249996910095,10|2|2,0:2|0:2|0:2,0:2:0:0:
292,101,71303,6,0,P|356:112|408:65,1,134.999995880127,0|2,1:2|0:2,0:2:0:0:
189,159,72045,1,10,0:2:0:0:
189,159,72231,2,0,P|177:225|165:293,1,134.999995880127,2|2,0:2|0:2,0:0:0:0:
206,362,72787,2,0,B|284:358|261:321|330:316,1,134.999995880127,0|0,1:2|1:2,0:2:0:0:
410,338,73344,1,2,0:2:0:0:
479,288,73530,2,0,P|498:238|478:193,2,101.249996910095,10|2|2,0:2|0:2|0:2,0:2:0:0:
396,240,74272,6,0,B|325:234|338:210|268:200,1,134.999995880127,0|0,1:2|0:2,0:2:0:0:
72,183,75015,1,10,0:2:0:0:
72,183,75200,2,0,P|82:116|104:52,1,134.999995880127,2|2,0:2|1:2,0:2:0:0:
187,15,75757,5,0,1:2:0:0:
187,15,75943,1,0,1:2:0:0:
251,67,76128,2,0,P|290:77|334:85,1,67.4999979400635,2|0,0:2|1:2,0:2:0:0:
386,39,76499,1,10,0:2:0:0:
244,187,77242,6,0,P|170:200|95:219,1,134.999995880127,0|2,1:2|0:2,0:2:0:0:
40,180,77799,1,2,0:2:0:0:
10,257,77984,2,0,P|16:286|26:323,1,67.4999979400635,10|0,0:2|0:2,0:2:0:0:
102,354,78355,2,0,P|137:341|177:334,1,67.4999979400635,2|0,0:2|1:2,0:2:0:0:
229,282,78727,2,0,B|297:284|288:315|356:323,2,134.999995880127,2|0|8,1:2|1:2|0:2,0:2:0:0:
127,123,79840,2,0,P|136:86|145:52,1,67.4999979400635,0|0,0:2|0:2,0:2:0:0:
227,24,80211,5,0,1:2:0:0:
227,24,80582,2,0,P|262:34|307:45,1,67.4999979400635,2|0,0:2|0:2,0:2:0:0:
359,90,80954,2,0,P|392:81|430:72,1,67.4999979400635,10|0,0:2|0:2,0:2:0:0:
499,109,81325,2,0,P|505:139|512:183,1,67.4999979400635,2|2,0:2|0:2,0:0:0:0:
464,255,81696,5,2,1:2:0:0:
464,255,81882,1,0,1:2:0:0:
386,225,82067,2,0,P|357:228|308:244,1,67.4999979400635,2|0,0:2|1:2,0:2:0:0:
262,304,82438,2,0,P|197:317|145:278,2,134.999995880127,10|0|0,0:2|0:2|1:2,0:2:0:0:
137,117,83552,6,0,P|114:121|63:134,1,67.4999979400635,2|0,0:2|0:2,0:2:0:0:
26,202,83923,2,0,P|34:236|41:272,1,67.4999979400635,10|2,0:2|0:2,0:0:0:0:
5,351,84294,1,2,0:2:0:0:
5,351,84480,1,2,0:2:0:0:
85,370,84666,6,0,P|118:359|149:351,1,67.4999979400635,2|0,1:2|0:2,0:2:0:0:
202,285,85037,2,0,P|238:294|281:304,1,67.4999979400635,2|0,1:2|0:2,0:2:0:0:
348,345,85408,2,0,B|426:338|401:300|470:294,2,134.999995880127,10|0|0,0:2|0:2|1:2,0:2:0:0:
184,195,86522,6,0,P|191:159|199:119,1,67.4999979400635,2|0,0:2|0:2,0:2:0:0:
271,81,86893,2,0,P|336:80|377:131,1,134.999995880127,10|0,0:2|0:2,0:2:0:0:
392,211,87450,1,2,1:2:0:0:
473,193,87635,1,2,1:2:0:0:
473,193,87821,2,0,P|487:123|505:43,1,134.999995880127,2|2,1:2|1:2,0:2:0:0:
438,0,88378,2,0,B|372:0|394:33|310:37,1,134.999995880127,8|2,0:2|0:2,0:2:0:0:
310,37,89120,6,0,P|315:77|321:114,1,75,4|0,1:2|0:0,0:2:0:0:
269,185,89491,2,0,P|226:190|194:198,1,75,2|0,0:2|0:2,0:2:0:0:
109,245,89862,2,0,P|48:205|49:133,1,150,10|0,0:2|0:2,0:2:0:0:
42,48,90419,1,2,1:2:0:0:
123,20,90605,6,0,P|163:28|201:39,1,75,2|2,1:2|0:2,0:0:0:0:
260,110,90976,1,2,1:2:0:0:
260,110,91162,1,2,0:2:0:0:
333,61,91347,2,0,P|404:49|456:99,2,150,10|0|2,0:2|0:2|1:2,0:2:0:0:
187,197,92461,6,0,P|192:234|197:271,1,75,2|0,0:2|0:2,0:2:0:0:
271,320,92832,2,0,B|356:309|325:276|409:267,1,150,10|0,0:2|0:2,0:2:0:0:
483,308,93389,1,2,0:2:0:0:
512,231,93574,5,2,1:2:0:0:
512,231,93760,1,2,1:2:0:0:
452,165,93946,2,0,P|442:128|436:91,1,75,2|0,0:2|1:2,0:2:0:0:
357,40,94317,2,0,B|277:53|296:86|220:96,1,150,10|0,0:2|0:2,0:2:0:0:
10,16,95059,5,2,1:2:0:0:
10,16,95430,2,0,P|17:50|28:95,1,75,2|0,0:2|0:2,0:2:0:0:
103,133,95802,2,0,P|98:168|90:213,1,75,10|0,0:2|0:2,0:2:0:0:
23,264,96173,2,0,L|39:337,1,75,2|0,0:2|0:2,0:2:0:0:
122,371,96544,5,2,1:2:0:0:
122,371,96729,1,2,0:2:0:0:
184,318,96915,2,0,P|227:304|267:302,1,75,2|0,1:2|0:2,0:2:0:0:
341,342,97286,2,0,P|412:345|453:286,2,150,10|0|2,0:2|0:2|1:2,0:2:0:0:
158,203,98400,6,0,P|165:163|170:129,1,75,2|0,0:2|0:2,0:2:0:0:
241,78,98771,2,0,P|278:83|318:89,1,75,10|0,0:2|0:2,0:2:0:0:
378,150,99142,2,0,P|372:187|367:224,1,75,2|0,0:2|1:2,0:2:0:0:
288,278,99513,5,2,1:2:0:0:
288,278,99699,1,2,1:2:0:0:
343,343,99885,2,0,P|379:348|418:359,1,75,2|0,0:2|1:2,0:2:0:0:
487,318,100256,2,0,B|496:244|445:257|457:174,1,150,10|0,0:2|0:2,0:2:0:0:
307,18,100998,6,0,P|257:29|208:40,1,101.249996910095,2|2,1:2|0:2,0:2:0:0:
208,40,101741,2,0,B|205:108|240:89|245:167,1,134.999995880127,10|2,0:2|0:2,0:2:0:0:
286,243,102297,1,0,1:2:0:0:
218,295,102483,2,0,P|169:281|119:272,1,101.249996910095,2|2,1:2|0:2,0:0:0:0:
119,272,102854,2,0,P|85:277|53:287,1,67.4999979400635,0|0,1:2|0:0,0:0:0:0:
13,206,103225,2,0,P|32:143|0:87,1,134.999995880127,10|0,0:2|0:2,0:2:0:0:
0,87,103968,6,0,P|4:25|34:0,2,101.249996910095,2|2|2,1:2|0:2|0:2,0:2:0:0:
95,69,104710,2,0,B|170:76|143:107|213:127,1,134.999995880127,8|0,0:2|0:2,0:2:0:0:
288,177,105267,1,8,0:3:0:0:
332,108,105453,1,2,1:2:0:0:
331,108,105638,2,0,P|373:58|437:65,1,134.999995880127,2|0,1:2|1:2,0:0:0:0:
502,129,106195,2,0,P|493:158|486:204,1,67.4999979400635,10|8,0:2|0:3,0:0:0:0:
415,233,106566,1,12,0:3:0:0:
447,312,106752,2,0,P|479:320|511:332,1,67.4999979400635,4|0,0:3|1:2,0:2:0:0:
343,142,107309,6,0,P|310:153|277:160,1,67.4999979400635,2|2,0:2|0:2,0:0:0:0:
229,234,107680,2,0,P|235:267|243:300,1,67.4999979400635,10|0,0:2|0:2,0:2:0:0:
176,358,108051,2,0,P|142:361|109:370,1,67.4999979400635,2|0,0:2|0:2,0:2:0:0:
38,322,108422,2,0,B|21:252|61:257|38:189,2,134.999995880127,2|0|8,1:2|1:2|0:2,0:2:0:0:
129,279,109350,2,0,P|192:260|244:302,1,134.999995880127,2|0,0:2|0:2,0:2:0:0:
311,368,109907,5,0,1:2:0:0:
311,368,110278,2,0,P|349:359|390:354,1,67.4999979400635,2|0,0:2|0:2,0:2:0:0:
437,294,110649,2,0,B|428:261|417:229,1,67.4999979400635,10|2,0:2|0:2,0:0:0:0:
476,167,111021,2,0,P|479:136|485:101,1,67.4999979400635,2|0,0:2|1:2,0:2:0:0:
429,35,111392,5,2,1:2:0:0:
429,35,111577,1,0,1:2:0:0:
349,59,111763,2,0,P|315:53|283:44,1,67.4999979400635,2|0,0:2|1:2,0:2:0:0:
199,63,112134,2,0,P|157:113|172:177,2,134.999995880127,10|0|2,0:2|0:2|1:2,0:2:0:0:
357,165,113248,6,0,P|393:174|427:178,1,67.4999979400635,2|2,0:2|0:2,0:0:0:0:
489,247,113619,1,10,0:2:0:0:
489,247,113804,1,2,0:2:0:0:
419,300,113990,2,0,P|386:291|352:286,1,67.4999979400635,2|2,0:2|1:2,0:0:0:0:
283,238,114361,2,0,B|212:248|233:273|159:289,2,134.999995880127,2|0|8,1:2|1:2|0:2,0:2:0:0:
326,165,115289,2,0,P|332:100|282:57,1,134.999995880127,2|0,0:2|0:2,0:2:0:0:
195,21,115846,5,0,1:2:0:0:
195,21,116217,2,0,P|166:27|52:49,1,134.999995880127,2|10,0:2|0:2,0:2:0:0:
15,114,116774,1,0,0:2:0:0:
86,155,116960,2,0,P|95:187|100:220,1,67.4999979400635,2|8,0:2|0:3,0:2:0:0:
44,286,117331,5,2,1:2:0:0:
94,353,117516,2,0,P|155:376|218:343,1,134.999995880127,0|0,1:2|1:2,0:0:0:0:
303,353,118073,2,0,P|287:287|273:221,2,134.999995880127,10|0|2,0:2|0:2|0:3,0:2:0:0:
256,192,121785,12,0,124384,0:0:0:0:
195,96,124755,6,0,P|140:81|88:60,1,112.5,6|0,1:2|0:2,0:2:0:0:
88,60,125126,2,0,P|78:94|65:133,1,75,2|0,0:2|0:2,0:2:0:0:
0,192,125497,2,0,P|47:245|118:232,1,150,10|0,0:2|0:2,0:2:0:0:
195,182,126054,1,2,1:2:0:0:
264,234,126240,6,0,P|272:270|276:307,1,75,2|2,1:2|0:2,0:0:0:0:
354,356,126611,1,2,1:2:0:0:
354,356,126796,1,2,0:2:0:0:
428,306,126982,2,0,B|435:229|476:244|475:166,2,150,10|0|4,0:2|0:2|1:3,0:2:0:0:
178,315,128095,6,0,P|140:320|104:330,1,75,2|0,0:2|0:2,0:2:0:0:
121,228,128467,2,0,P|84:165|108:97,1,150,10|0,0:2|0:2,0:2:0:0:
164,24,129023,1,2,0:2:0:0:
238,73,129209,5,2,1:2:0:0:
238,73,129395,1,2,1:2:0:0:
304,17,129580,2,0,P|342:25|384:36,1,75,2|0,0:2|1:2,0:2:0:0:
458,2,129951,2,0,P|508:52|492:122,1,150,10|0,0:2|0:2,0:2:0:0:
512,325,130694,5,4,1:3:0:0:
512,325,131065,2,0,P|475:315|434:307,1,75,2|0,0:2|0:2,0:2:0:0:
379,246,131436,2,0,P|341:253|305:259,1,75,10|0,0:2|0:2,0:2:0:0:
240,317,131807,2,0,P|212:311|164:299,1,75,2|0,0:2|0:2,0:2:0:0:
121,228,132179,5,2,1:2:0:0:
121,228,132364,1,2,0:2:0:0:
42,265,132550,2,0,P|28:300|20:336,1,75,2|0,1:2|0:2,0:2:0:0:
37,170,132921,2,0,P|47:98|-5:45,2,150,10|0|4,0:2|0:2|1:3,0:2:0:0:
190,24,134035,6,0,P|230:33|275:40,1,75,2|0,0:2|1:2,0:2:0:0:
313,109,134406,2,0,P|352:104|394:94,1,75,10|0,0:2|0:2,0:2:0:0:
481,124,134777,2,0,P|491:160|496:200,1,75,2|0,0:2|1:2,0:2:0:0:
444,281,135148,5,2,1:2:0:0:
444,281,135334,1,2,1:2:0:0:
364,243,135519,2,0,P|327:249|290:259,1,75,2|0,0:2|1:2,0:2:0:0:
205,246,135891,2,0,B|159:283|159:283|176:337,1,112.5,10|0,0:2|0:2,0:2:0:0:
174,334,136262,1,12,0:3:0:0:
261,143,136633,6,0,P|247:88|233:33,1,112.5,4|0,1:3|0:2,0:2:0:0:
233,33,137004,2,0,P|267:22|311:17,1,75,2|0,0:2|0:2,0:2:0:0:
370,77,137375,2,0,B|443:85|412:122|500:144,1,150,10|0,0:2|0:2,0:2:0:0:
509,60,137932,1,2,1:2:0:0:
500,144,138118,6,0,P|489:172|474:231,1,75,2|2,1:2|0:2,0:0:0:0:
397,249,138489,1,2,1:2:0:0:
397,249,138675,1,2,0:2:0:0:
437,321,138860,2,0,P|381:367|312:346,2,150,10|0|4,0:2|0:2|1:3,0:2:0:0:
315,168,139974,6,0,P|282:174|238:182,1,75,2|0,0:2|0:2,0:2:0:0:
191,254,140345,2,0,B|108:274|138:309|67:334,1,150,10|0,0:2|0:2,0:2:0:0:
1,288,140902,1,2,0:2:0:0:
44,213,141087,5,2,1:2:0:0:
44,213,141273,1,2,1:2:0:0:
0,139,141459,2,0,P|4:103|16:61,1,75,2|0,0:2|1:2,0:2:0:0:
84,15,141830,2,0,P|158:29|237:52,1,150,10|0,0:2|0:2,0:2:0:0:
447,0,142572,5,4,1:3:0:0:
447,0,142943,2,0,P|437:33|430:81,1,75,2|0,0:2|0:2,0:2:0:0:
359,117,143314,2,0,P|368:153|376:189,1,75,10|0,0:2|0:2,0:2:0:0:
452,234,143686,2,0,P|444:270|437:313,1,75,2|0,0:2|0:2,0:2:0:0:
353,348,144057,5,2,1:2:0:0:
353,348,144242,1,2,0:2:0:0:
279,293,144428,2,0,P|240:280|195:272,1,75,2|0,1:2|0:2,0:2:0:0:
266,183,144799,2,0,P|303:121|276:54,2,150,10|0|4,0:2|0:2|1:3,0:2:0:0:
17,253,145913,6,0,P|0:220|6:185,1,75,2|0,0:2|1:2,0:0:0:0:
62,121,146284,2,0,P|101:128|140:139,1,75,10|0,0:2|0:2,0:2:0:0:
192,198,146655,2,0,P|232:188|276:181,1,75,2|0,0:2|1:2,0:2:0:0:
330,107,147026,5,2,1:2:0:0:
330,107,147212,1,2,1:2:0:0:
411,145,147398,2,0,P|419:174|429:227,1,75,2|0,0:2|1:2,0:2:0:0:
385,312,147769,2,0,P|348:318|312:330,1,75,8|8,0:2|0:3,0:0:0:0:
230,297,148140,1,12,0:3:0:0:
179,360,148326,1,4,0:3:0:0:
350,297,160761,6,0,P|355:251|370:180,2,104.999996795654,2|2|2,0:2|0:2|0:2,0:2:0:0:
284,350,161689,1,2,0:2:0:0:
284,350,161874,2,0,L|230:340,1,52.4999983978272,2|0,0:2|0:2,0:2:0:0:
168,285,162245,2,0,L|114:297,1,52.4999983978272,2|0,0:2|0:2,0:2:0:0:
44,332,162617,2,0,P|17:288|31:239,2,104.999996795654,2|0|0,0:2|0:2|0:2,0:2:0:0:
250,236,163730,6,0,P|301:245|352:257,1,104.999996795654,2|2,0:2|0:2,0:2:0:0:
494,215,164473,2,0,P|499:189|506:163,1,52.4999983978272,2|2,0:2|0:2,0:0:0:0:
466,93,164844,2,0,P|441:88|404:80,1,52.4999983978272,2|0,0:2|0:2,0:2:0:0:
333,117,165215,2,0,P|310:120|273:128,1,52.4999983978272,2|0,0:2|0:2,0:2:0:0:
206,170,165586,2,0,P|179:126|190:76,2,104.999996795654,2|0|0,0:2|0:2|0:2,0:2:0:0:
384,261,166700,6,0,P|406:307|394:357,2,104.999996795654,2|2|2,0:2|0:2|0:2,0:2:0:0:
384,261,167813,1,2,0:2:0:0:
312,234,167999,1,2,0:2:0:0:
257,295,168185,2,0,P|236:299|205:309,1,52.4999983978272,2|0,0:2|0:2,0:2:0:0:
140,359,168556,2,0,P|88:359|54:321,1,104.999996795654,2|0,0:2|0:2,0:2:0:0:
256,192,169298,12,0,172268,0:2:0:0:
119,87,174866,5,8,0:3:0:0:
119,87,175237,6,0,P|174:95|229:105,1,112.5,4|0,1:2|0:2,0:2:0:0:
229,105,175608,2,0,P|265:96|314:87,1,75,2|0,0:2|0:2,0:2:0:0:
359,26,175980,2,0,P|430:32|462:96,1,150,10|0,0:2|0:2,0:2:0:0:
512,168,176536,1,2,1:2:0:0:
444,215,176722,6,0,P|432:250|425:287,1,75,2|2,1:2|0:2,0:0:0:0:
465,367,177093,1,2,1:2:0:0:
465,367,177279,1,2,0:2:0:0:
378,365,177464,2,0,B|295:360|315:327|234:322,2,150,10|0|4,0:2|0:2|1:3,0:2:0:0:
347,131,178578,6,0,P|311:141|275:154,1,75,2|0,0:2|0:2,0:2:0:0:
220,225,178949,2,0,P|161:183|163:111,1,150,10|0,0:2|0:2,0:2:0:0:
220,48,179506,1,2,0:2:0:0:
146,9,179692,5,2,1:2:0:0:
146,9,179877,1,2,1:2:0:0:
77,71,180063,2,0,P|41:82|4:88,1,75,2|0,0:2|1:2,0:2:0:0:
64,170,180434,2,0,P|97:237|65:311,1,150,10|0,0:2|0:2,0:2:0:0:
298,348,181176,5,4,1:3:0:0:
298,348,181548,2,0,P|266:356|223:367,1,75,2|0,0:2|0:2,0:2:0:0:
197,274,181919,2,0,P|239:266|275:257,1,75,10|0,0:2|0:2,0:2:0:0:
325,184,182290,2,0,P|363:192|407:202,1,75,2|0,0:2|0:2,0:2:0:0:
492,230,182661,5,2,1:2:0:0:
492,230,182847,1,2,0:2:0:0:
421,286,183032,2,0,P|412:322|408:359,1,75,2|0,1:2|0:2,0:2:0:0:
398,200,183404,2,0,B|411:127|459:141|465:69,2,150,10|0|4,0:2|0:2|1:3,0:2:0:0:
260,329,184517,6,0,P|222:323|186:314,1,75,2|0,0:2|1:2,0:0:0:0:
114,267,184888,2,0,P|75:278|39:293,1,75,10|0,0:2|0:2,0:2:0:0:
50,191,185260,2,0,P|42:157|24:115,1,75,2|0,0:2|1:2,0:2:0:0:
88,41,185631,5,2,1:2:0:0:
88,41,185816,1,2,1:2:0:0:
176,54,186002,2,0,P|187:86|207:127,1,75,2|0,0:2|1:2,0:2:0:0:
288,173,186373,2,0,P|342:176|380:137,1,112.5,10|0,0:2|0:2,0:2:0:0:
380,136,186744,1,0,1:2:0:0:
180,235,187116,6,0,P|125:237|89:278,1,112.5,4|0,1:2|0:2,0:2:0:0:
89,278,187487,2,0,P|103:310|115:359,1,75,2|0,0:2|0:2,0:2:0:0:
202,381,187858,2,0,B|282:369|254:336|335:318,1,150,10|0,0:2|0:2,0:2:0:0:
415,357,188415,1,2,1:2:0:0:
485,310,188600,6,0,P|487:272|496:236,1,75,2|2,1:2|0:2,0:0:0:0:
453,157,188972,1,2,1:2:0:0:
453,157,189157,1,2,0:2:0:0:
376,205,189343,2,0,P|304:217|253:166,1,150,10|0,0:2|0:2,0:2:0:0:
442,0,190085,5,4,1:3:0:0:
442,0,190456,2,0,P|432:39|428:78,1,75,2|0,0:2|0:2,0:2:0:0:
341,95,190827,2,0,B|265:92|284:56|199:50,1,150,10|0,0:2|0:2,0:2:0:0:
121,12,191384,1,2,0:2:0:0:
71,83,191570,5,2,1:2:0:0:
130,146,191755,1,2,1:2:0:0:
75,210,191941,2,0,P|39:222|2:226,1,75,2|0,0:2|1:2,0:2:0:0:
72,310,192312,2,0,P|144:316|182:377,1,150,10|0,0:2|0:2,0:2:0:0:
211,211,193055,5,4,1:3:0:0:
211,211,193426,2,0,P|221:171|228:134,1,75,2|0,0:2|0:2,0:2:0:0:
294,77,193797,2,0,P|329:88|366:94,1,75,10|0,0:2|0:2,0:2:0:0:
439,151,194168,2,0,P|476:145|511:134,1,75,2|0,0:2|0:2,0:2:0:0:
501,245,194539,5,2,1:2:0:0:
501,245,194725,1,2,0:2:0:0:
436,303,194911,2,0,P|441:340|450:376,1,75,2|0,1:2|0:2,0:2:0:0:
349,268,195282,2,0,P|277:250|215:297,2,150,10|0|4,0:2|0:2|1:3,0:2:0:0:
172,382,196395,6,0,P|135:371|98:365,1,75,2|0,0:2|1:2,0:0:0:0:
49,299,196767,2,0,P|58:262|66:226,1,75,10|0,0:2|0:2,0:2:0:0:
133,172,197138,2,0,P|126:135|119:98,1,75,2|0,0:2|1:2,0:2:0:0:
176,27,197509,5,2,1:2:0:0:
252,66,197695,1,2,1:2:0:0:
316,15,197880,2,0,P|352:8|396:-3,1,75,2|0,0:2|1:2,0:2:0:0:
466,41,198251,2,0,B|467:110|419:93|411:177,1,150,10|0,0:2|1:2,0:2:0:0:
509,345,198994,5,4,1:3:0:0:
509,345,199365,2,0,P|472:338|435:331,1,75,2|0,0:2|0:2,0:2:0:0:
378,265,199736,1,10,0:2:0:0:
319,325,199922,2,0,P|254:358|187:330,1,150,2|0,0:2|1:2,0:2:0:0:
103,327,200479,6,0,P|95:290|84:254,1,75,2|2,1:2|0:2,0:0:0:0:
153,198,200850,2,0,P|159:157|170:123,1,75,2|2,1:2|0:2,0:0:0:0:
256,108,201221,1,10,0:2:0:0:
225,30,201407,2,0,P|165:-10|97:13,1,150,2|0,0:2|0:2,0:2:0:0:
20,52,201963,6,0,P|31:87|36:125,1,75,2|0,1:2|0:2,0:2:0:0:
106,176,202335,2,0,P|96:212|92:249,1,75,2|0,0:2|0:2,0:2:0:0:
25,320,202706,2,0,B|99:321|84:358|166:363,1,150,10|0,0:2|0:2,0:2:0:0:
230,311,203263,1,2,0:2:0:0:
308,361,203448,5,2,1:2:0:0:
308,361,203634,1,2,1:2:0:0:
378,320,203819,2,0,P|384:284|395:239,1,75,2|2,0:2|1:2,0:0:0:0:
325,188,204191,1,10,0:2:0:0:
358,105,204376,2,0,P|422:72|488:102,1,150,2|0,0:2|0:2,0:2:0:0:
512,202,204933,5,4,1:3:0:0:
512,202,205304,2,0,P|501:238|495:280,1,75,2|0,0:2|0:2,0:2:0:0:
436,339,205675,1,10,0:2:0:0:
371,277,205861,2,0,P|297:268|249:325,1,150,2|0,0:2|0:2,0:2:0:0:
178,368,206418,6,0,P|141:357|105:348,1,75,2|2,1:2|0:2,0:2:0:0:
69,277,206789,1,2,1:2:0:0:
69,277,206974,1,2,0:2:0:0:
129,219,207160,1,10,0:2:0:0:
52,179,207346,2,0,B|44:113|5:132|0:41,1,150,2|0,0:2|0:2,0:2:0:0:
82,0,207902,6,0,P|123:7|165:13,1,75,2|0,1:2|0:2,0:2:0:0:
208,77,208274,2,0,P|248:69|298:65,1,75,2|0,0:2|0:2,0:2:0:0:
341,4,208645,2,0,B|423:11|401:44|478:58,1,150,10|0,0:2|0:2,0:2:0:0:
512,134,209202,1,2,1:2:0:0:
439,180,209387,5,2,1:2:0:0:
488,247,209573,1,2,1:2:0:0:
414,293,209758,2,0,P|381:284|334:274,1,75,2|2,0:2|1:2,0:0:0:0:
282,204,210130,2,0,P|286:166|296:130,1,75,10|2,0:2|0:2,0:0:0:0:
199,239,210501,2,0,P|128:254|102:321,1,150,8|4,0:3|1:3,0:2:0:0:
