osu file format v14

[General]
AudioFilename: audio.mp3
AudioLeadIn: 0
PreviewTime: 413
Countdown: 0
SampleSet: Soft
StackLeniency: 0.4
Mode: 0
LetterboxInBreaks: 0
WidescreenStoryboard: 1

[Editor]
DistanceSpacing: 1.1
BeatDivisor: 8
GridSize: 32
TimelineZoom: 1.64

[Metadata]
Title:chilblain
TitleUnicode:chilblain
Artist:Glaring Radiokids
ArtistUnicode:Glaring Radiokids
Creator:posydomojka
Version:Insane
Source:pop'n music 16 PARTY♪
Tags:shounen radio giragira kagayaku ぎらぎら輝く 少年ラジオ ギラギラメガネ団 OST soundtrack ポップンリズミン pop'n rhythmin cami SHOEGAZER シューゲイザー Jun Wakita 脇田潤 wac shoegaze rock english
BeatmapID:2992677
BeatmapSetID:1453966

[Difficulty]
HPDrainRate:5
CircleSize:4
OverallDifficulty:8
ApproachRate:8.6
SliderMultiplier:1.7
SliderTickRate:1

[Events]
//Background and Video events
0,0,"86157714_p4.jpg",0,0
//Break Periods
2,7896,9639
2,66672,75754
2,105847,115012
//Storyboard Layer 0 (Background)
//Storyboard Layer 1 (Fail)
//Storyboard Layer 2 (Pass)
//Storyboard Layer 3 (Foreground)
//Storyboard Layer 4 (Overlay)
//Storyboard Sound Samples

[TimingPoints]
503,306.122448979592,4,2,1,35,1,0
2951,-133.333333333333,4,2,1,32,0,0
10298,-181.818181818181,4,2,1,32,0,0
17645,-222.222222222221,4,2,1,32,0,0
18870,-285.714285714284,4,2,1,32,0,0
20094,-133.333333333333,4,2,1,35,0,0
21931,-133.333333333333,4,2,1,40,0,0
22543,-133.333333333333,4,2,1,32,0,0
24686,-133.333333333333,4,2,1,40,0,0
24992,-133.333333333333,4,2,1,32,0,0
26829,-133.333333333333,4,2,1,40,0,0
28666,-133.333333333333,4,2,1,50,0,0
29584,-133.333333333333,4,2,1,60,0,0
29890,-133.333333333333,4,2,1,50,0,0
30043,-100,4,2,1,50,0,0
37237,-90.9090909090909,4,2,1,50,0,0
39686,-90.9090909090909,4,2,1,60,0,0
50094,-100,4,2,1,60,0,0
51625,-90.9090909090909,4,2,1,60,0,0
53003,-100,4,2,1,60,0,0
54380,-90.9090909090909,4,2,1,60,0,0
59278,-133.333333333333,4,2,1,55,0,0
62798,-100,4,2,1,55,0,0
64176,-100,4,2,1,60,0,0
66166,-76.9230769230769,4,2,1,60,0,0
66625,-76.9230769230769,4,2,1,50,0,0
74278,283.018867924529,4,2,1,50,1,0
74561,322.58064516129,4,2,1,50,1,0
74722,291.26213592233,4,2,1,50,1,0
75304,279.06976744186,4,2,1,50,1,0
75583,333.333333333333,4,2,1,50,1,0
75916,384.615384615385,4,2,1,50,1,0
76108,333.333333333333,4,2,1,50,1,0
76276,273.972602739726,4,2,1,50,1,0
76412,306.122448979592,4,2,1,70,1,0
76412,-76.9230769230769,4,2,1,70,0,0
77330,-83.3333333333333,4,2,1,70,0,0
80391,-90.9090909090909,4,2,1,70,0,0
86207,-76.9230769230769,4,2,1,70,0,0
96004,-76.9230769230769,4,2,1,80,0,0
100902,-76.9230769230769,4,2,1,85,0,0
103351,-76.9230769230769,4,2,1,90,0,0
105494,-76.9230769230769,4,2,1,80,0,0
105820,-76.9230769230769,4,2,1,60,0,0
105876,306.122448979592,4,2,1,50,1,0
115671,-100,4,2,1,35,0,0

[Colours]
Combo1 : 0,187,187
Combo2 : 255,255,28

[HitObjects]
32,35,2951,6,0,P|68:90|145:70,1,127.500004863739,0|0,3:0|3:0,0:0:0:0:
0,169,5094,2,0,P|7:201|11:233,2,63.7500024318696,0|0|0,3:0|3:0|3:0,0:0:0:0:
142,216,5707,1,0,3:0:0:0:
80,360,7543,2,0,P|82:329|89:288,1,63.7500024318696,0|0,3:0|3:0,0:0:0:0:
506,41,10298,6,0,P|454:49|422:170,1,187.000005706787,2|2,0:0|0:0,0:0:0:0:
482,267,11217,1,0,0:0:0:0:
407,271,11370,2,0,P|400:300|391:376,1,93.5000028533937
312,318,11829,2,0,P|309:267|286:131,1,187.000005706787
365,87,12747,6,0,P|350:31|226:40,1,187.000005706787,2|2,0:0|0:0,0:0:0:0:
159,106,13666,1,0,0:0:0:0:
164,92,13819,2,0,B|82:95|125:151|35:160,1,140.25000428009
10,21,14584,2,0,P|54:30|110:30,1,93.5000028533937,2|0,0:0|0:0,0:0:0:0:
176,119,15196,6,0,P|204:115|241:110,1,46.7500014266968,2|0,0:0|0:0,0:0:0:0:
276,62,15503,2,0,P|316:70|380:75,1,93.5000028533937,0|2,0:0|0:0,0:0:0:0:
476,148,16115,6,0,P|413:146|350:254,1,187.000005706787
438,361,17033,1,2,0:0:0:0:
457,291,17339,1,0,0:0:0:0:
475,217,17645,6,0,B|500:93|388:143|391:14,1,229.499992996216,2|0,0:0|0:0,0:0:0:0:
500,34,18870,2,0,P|489:77|479:156,1,118.999996368408,2|2,0:0|0:0,0:0:0:0:
277,111,19788,5,2,0:0:0:0:
277,111,19941,1,2,0:0:0:0:
209,145,20094,2,0,P|179:127|181:92,1,63.7500024318696,2|0,0:0|0:0,0:0:0:0:
112,54,20400,2,0,P|116:19|149:6,1,63.7500024318696
178,90,20707,2,0,P|170:131|162:230,1,127.500004863739,2|2,0:0|0:0,0:0:0:0:
82,232,21166,2,0,P|97:294|107:372,1,127.500004863739,2|0,0:0|0:0,0:0:0:0:
177,368,21625,1,2,0:0:0:0:
311,234,21931,2,0,P|296:237|265:240,1,31.8750012159348,0|0,3:0|0:0,0:0:0:0:
323,239,22084,2,0,B|401:234|371:294|463:296,1,127.500004863739,0|0,3:0|3:0,0:0:0:0:
372,358,22543,6,0,P|337:364|292:382,1,63.7500024318696,2|0,0:0|0:0,0:0:0:0:
442,284,22849,2,0,P|471:291|514:295,1,63.7500024318696,2|0,0:0|0:0,0:0:0:0:
402,184,23156,2,0,P|396:113|393:28,1,127.500004863739,2|2,0:0|0:0,0:0:0:0:
313,132,23615,2,0,P|219:143|186:46,1,191.250007295609,2|2,0:0|0:0,0:0:0:0:
278,11,24227,6,0,B|326:55|326:55|390:29,1,127.500004863739,2|0,0:0|0:0,0:0:0:0:
406,115,24686,2,0,P|401:143|399:182,1,63.7500024318696,0|0,3:0|3:0,0:0:0:0:
303,247,24992,6,0,B|408:232|350:332|478:324,1,191.250007295609,2|0,0:0|0:0,0:0:0:0:
472,317,25605,1,0,0:0:0:0:
345,357,25911,1,0,0:0:0:0:
203,131,26217,6,0,P|206:206|219:350,1,191.250007295609,2|0,0:0|0:0,0:0:0:0:
118,383,26829,1,0,3:0:0:0:
126,317,26982,2,0,P|125:247|114:162,1,127.500004863739,0|0,3:0|3:0,0:0:0:0:
60,110,27441,6,0,L|148:98,1,63.7500024318696,2|0,0:0|0:0,0:0:0:0:
300,23,27747,2,0,P|256:33|161:40,2,127.500004863739,0|0|0,3:0|3:0|3:0,0:0:0:0:
338,95,28666,5,2,3:2:0:0:
404,160,28819,1,0,1:0:0:0:
488,116,28972,1,0,1:0:0:0:
298,184,29125,5,0,1:0:0:0:
460,237,29278,1,0,1:0:0:0:
397,364,29431,1,0,1:0:0:0:
404,370,29584,6,0,P|408:346|416:319,3,31.8750012159348,0|0|0|0,1:0|1:0|1:0|1:0,0:0:0:0:
331,317,29890,6,0,P|329:293|314:265,1,31.8750012159348,6|0,3:2|0:0,0:0:0:0:
379,232,30043,2,0,P|367:169|449:109,1,170,0|0,3:0|3:0,0:0:0:0:
512,183,30503,1,0,3:0:0:0:
498,180,30579,1,0,1:0:0:0:
482,175,30656,2,0,L|436:161,2,42.5,0|0|0,1:0|1:0|3:0,0:0:0:0:
240,49,30962,6,0,P|298:46|418:9,1,170,4|0,3:2|3:2,0:0:0:0:
480,49,31421,1,2,3:2:0:0:
480,49,31727,1,2,3:2:0:0:
480,49,32033,1,2,3:2:0:0:
312,134,32339,6,0,P|291:133|268:129,1,42.5,6|0,3:2|0:0,0:0:0:0:
201,167,32492,2,0,P|164:122|216:56,1,127.5,0|0,3:2|0:0,0:0:0:0:
208,68,32798,2,0,L|214:19,2,42.5,2|2|2,1:2|1:2|3:2,0:0:0:0:
25,88,33258,1,0,3:0:0:0:
28,104,33334,1,0,1:0:0:0:
31,125,33411,2,0,L|41:187,1,42.5,6|0,3:2|0:0,0:0:0:0:
116,158,33564,2,0,L|105:250,1,85,0|2,0:0|3:2,0:0:0:0:
34,368,33870,1,2,3:2:0:0:
119,365,34176,6,0,P|142:362|170:362,3,42.5,0|0|0|0,1:2|1:2|1:2|1:2,0:0:0:0:
222,310,34482,2,0,P|245:313|273:313,3,42.5,0|0|0|0,1:2|1:2|1:2|1:2,0:0:0:0:
333,368,34788,6,0,P|353:364|401:358,1,42.5,6|0,3:2|0:0,0:0:0:0:
507,300,34941,2,0,P|446:290|372:262,1,127.5,0|0,3:0|0:0,0:0:0:0:
387,259,35247,1,0,3:0:0:0:
397,253,35324,1,0,1:0:0:0:
410,256,35400,1,2,3:2:0:0:
259,153,35707,1,0,1:0:0:0:
260,141,35783,1,0,1:0:0:0:
260,128,35860,2,0,P|262:105|262:68,1,42.5,6|0,3:2|0:0,0:0:0:0:
341,54,36013,6,0,P|385:65|445:71,1,85,0|0,0:0|3:2,0:0:0:0:
228,7,36319,2,0,P|140:34|60:41,2,170,2|2|2,3:2|3:2|3:2,0:0:0:0:
187,114,37084,1,0,1:0:0:0:
180,127,37161,1,0,1:0:0:0:
175,140,37237,2,0,P|156:135|107:133,1,46.7500014266968,6|0,3:2|0:0,0:0:0:0:
13,120,37390,6,0,P|65:163|56:264,1,140.25000428009,0|0,3:2|0:0,0:0:0:0:
61,238,37696,1,2,1:2:0:0:
12,351,37849,2,0,P|82:327|180:318,1,140.25000428009,2|0,3:2|0:0,0:0:0:0:
158,315,38156,2,0,L|172:260,2,46.7500014266968,0|0|6,1:0|1:0|3:2,0:0:0:0:
13,130,38462,5,0,0:0:0:0:
57,22,38615,1,2,3:2:0:0:
206,116,38768,1,2,3:2:0:0:
195,43,38921,1,0,1:0:0:0:
338,87,39074,1,0,1:2:0:0:
340,72,39227,1,0,1:2:0:0:
428,57,39380,2,0,P|421:83|417:115,3,46.7500014266968,0|0|0|0,1:2|1:2|1:2|1:2,0:0:0:0:
486,128,39686,6,0,P|423:135|368:256,2,187.000005706787,6|2|2,3:2|1:2|3:2,0:0:0:0:
314,7,40605,5,2,1:2:0:0:
265,60,40758,2,0,P|191:41|60:33,1,187.000005706787,2|0,0:2|0:0,0:0:0:0:
120,156,41217,2,0,P|181:153|203:116,1,93.5000028533936,2|0,1:2|3:2,0:0:0:0:
15,188,41523,5,0,3:2:0:0:
117,260,41676,1,0,3:2:0:0:
40,367,41829,2,0,P|32:319|13:265,1,93.5000028533936,0|0,1:2|0:0,0:0:0:0:
200,376,42135,6,0,P|212:287|244:173,1,187.000005706787,2|2,3:2|1:2,0:0:0:0:
124,91,42594,1,0,3:2:0:0:
139,124,42747,2,0,P|200:121|222:84,1,93.5000028533936,0|0,3:2|3:2,0:0:0:0:
259,23,43054,5,2,1:2:0:0:
167,0,43207,2,0,P|98:2|36:107,1,187.000005706787,2|2,0:0|0:0,0:0:0:0:
128,197,43666,2,0,P|123:245|121:297,1,93.5000028533936,0|0,1:2|3:2,0:0:0:0:
57,382,43972,5,2,0:0:0:0:
17,308,44125,1,0,3:2:0:0:
219,275,44278,1,2,1:2:0:0:
199,364,44431,1,0,0:0:0:0:
143,203,44584,6,0,P|151:114|176:14,1,187.000005706787,2|0,3:2|1:2,0:0:0:0:
240,104,45043,1,0,3:2:0:0:
57,33,45196,2,0,P|39:58|87:114,1,93.5000028533936,0|0,3:2|3:2,0:0:0:0:
180,21,45503,1,0,1:2:0:0:
495,64,45809,6,0,P|396:51|300:13,1,187.000005706787,2|0,3:2|1:2,0:0:0:0:
344,132,46268,1,0,3:2:0:0:
371,157,46421,2,0,P|402:147|473:138,1,93.5000028533936,0|0,0:0|3:2,0:0:0:0:
284,216,46727,1,2,1:2:0:0:
413,359,46880,1,0,0:0:0:0:
427,279,47033,6,0,P|370:264|284:357,1,187.000005706787,2|0,3:2|1:0,0:0:0:0:
150,281,47492,1,0,3:2:0:0:
138,263,47645,2,0,P|176:269|248:274,1,93.5000028533936,0|0,3:2|3:2,0:0:0:0:
103,367,47951,2,0,P|65:361|-7:356,1,93.5000028533936,2|0,1:2|0:0,0:0:0:0:
76,221,48258,6,0,B|85:119|184:197|165:44,1,187.000005706787,2|0,3:2|1:2,0:0:0:0:
60,29,48717,1,0,3:0:0:0:
160,75,48870,6,0,L|219:67,1,46.7500014266968,8|0,3:0|0:0,0:0:0:0:
215,77,49023,1,0,1:2:0:0:
325,10,49176,5,0,1:2:0:0:
396,24,49329,1,0,1:2:0:0:
493,146,49482,6,0,B|467:136|458:102|458:102|452:98|452:98|437:170|369:168,1,140.25000428009,6|2,3:2|0:0,0:0:0:0:
400,157,49788,2,0,P|370:189|392:251,1,93.5000028533936,2|0,1:2|3:2,0:0:0:0:
467,384,50094,6,0,P|476:328|511:218,1,170,2|2,3:2|1:2,0:0:0:0:
361,316,50554,2,0,B|259:314|311:377|195:386,1,170,2|0,0:2|0:0,0:0:0:0:
109,282,51013,2,0,P|143:288|223:296,1,85,2|0,1:2|3:2,0:0:0:0:
270,218,51319,1,0,3:2:0:0:
370,305,51472,1,0,3:2:0:0:
501,183,51625,2,0,P|467:189|380:198,1,93.5000028533936,0|0,1:2|0:0,0:0:0:0:
371,5,51931,5,2,3:2:0:0:
486,38,52084,2,0,B|373:40|453:134|313:138,1,187.000005706787,2|0,0:0|3:2,0:0:0:0:
280,39,52543,2,0,P|234:48|174:49,1,93.5000028533936,2|0,3:2|3:2,0:0:0:0:
39,155,52849,5,2,1:2:0:0:
50,83,53003,2,0,P|117:101|129:197,1,170,2|2,0:0|0:0,0:0:0:0:
27,323,53462,2,0,P|12:286|52:241,1,85,2|0,1:2|3:2,0:0:0:0:
153,372,53768,5,2,0:0:0:0:
272,358,53921,1,0,3:2:0:0:
329,261,54074,5,2,1:2:0:0:
409,271,54227,1,0,0:0:0:0:
454,372,54380,6,0,P|459:257|471:164,1,187.000005706787,2|0,3:2|1:2,0:0:0:0:
377,84,54839,1,0,3:2:0:0:
499,25,54992,2,0,P|454:16|404:0,1,93.5000028533936,0|0,3:2|3:2,0:0:0:0:
512,125,55298,1,0,1:2:0:0:
209,185,55605,6,0,P|163:174|186:50,1,187.000005706787,2|0,3:2|1:2,0:0:0:0:
283,133,56064,1,0,3:2:0:0:
314,160,56217,2,0,P|306:201|300:278,1,93.5000028533936,0|0,0:0|3:2,0:0:0:0:
147,257,56523,2,0,P|155:298|161:375,1,93.5000028533936,2|0,1:2|0:0,0:0:0:0:
369,303,56829,6,0,P|382:333|423:340,1,46.7500014266968,2|0,3:2|0:0,0:0:0:0:
464,305,56982,2,0,B|357:295|413:386|303:374,1,187.000005706787,0|0,0:0|3:2,0:0:0:0:
425,235,57441,2,0,B|439:193|439:193|391:160,1,93.5000028533936,0|0,3:2|3:2,0:0:0:0:
499,10,57747,1,2,1:2:0:0:
358,60,57900,1,0,0:0:0:0:
283,207,58054,6,0,P|273:110|256:3,1,187.000005706787,2|0,3:2|1:2,0:0:0:0:
370,71,58513,1,0,3:0:0:0:
168,148,58666,1,8,3:0:0:0:
173,67,58819,1,0,1:2:0:0:
296,203,58972,2,0,P|292:228|287:267,2,46.7500014266968,8|8|0,0:3|0:3|3:2,0:0:0:0:
198,377,59278,6,0,P|174:339|220:268,1,127.500004863739,2|2,3:2|3:2,0:0:0:0:
433,341,59890,1,0,1:0:0:0:
356,332,60043,1,0,1:0:0:0:
433,352,60196,1,0,1:0:0:0:
512,175,60503,6,0,B|430:174|478:226|385:229,1,127.500004863739,2|2,0:0|3:2,0:0:0:0:
317,73,61115,2,0,P|350:78|402:80,1,63.7500024318696,0|0,3:2|1:2,0:0:0:0:
314,83,61421,1,8,0:3:0:0:
200,163,61727,5,2,3:2:0:0:
126,152,61880,1,2,0:2:0:0:
57,146,62033,1,0,1:2:0:0:
142,234,62339,1,2,1:2:0:0:
142,234,62492,1,0,3:2:0:0:
64,256,62798,6,0,P|63:276|78:291,1,42.5,4|0,1:0|0:0,0:0:0:0:
0,378,62951,2,0,B|19:305|75:367|91:266,1,127.5,0|0,3:2|0:0,0:0:0:0:
107,341,63258,2,0,P|159:348|219:358,1,85,4|0,3:1|3:0,0:0:0:0:
291,288,63564,5,0,1:0:0:0:
301,287,63640,1,0,1:0:0:0:
314,285,63717,1,0,1:0:0:0:
390,360,63870,5,4,3:0:0:0:
436,369,63946,1,0,0:0:0:0:
483,377,64023,1,0,3:0:0:0:
408,185,64176,6,0,P|414:102|426:-10,3,170,6|0|0|0,3:2|3:2|1:2|3:2,0:0:0:0:
74,10,65400,6,0,P|87:71|98:157,1,127.5,6|0,3:2|1:2,0:0:0:0:
133,92,65707,2,0,P|167:101|235:105,1,85,0|0,1:2|1:2,0:0:0:0:
266,49,65936,5,0,1:2:0:0:
255,41,66013,2,0,P|258:77|289:91,1,42.5,0|0,1:2|0:0,0:0:0:0:
277,155,66166,2,0,P|311:166|336:144,1,55.2499974708558,0|0,1:2|0:0,0:0:0:0:
382,111,66319,5,0,1:2:0:0:
398,96,66395,1,0,1:2:0:0:
423,95,66472,1,2,1:0:0:0:
9,27,76413,6,0,P|87:44|240:52,1,220.999989883423,6|0,3:2|1:2,0:0:0:0:
129,137,76871,1,0,3:2:0:0:
116,149,77024,2,0,P|91:152|0:174,1,110.499994941712,2|0,3:2|3:2,0:0:0:0:
146,228,77331,6,0,P|221:250|252:373,1,203.999993774414,0|2,1:2|3:2,0:0:0:0:
304,228,77789,1,0,0:0:0:0:
376,243,77942,2,0,P|417:214|399:153,1,101.999996887207,2|0,1:2|3:2,0:0:0:0:
241,94,78249,2,0,P|281:92|356:70,1,101.999996887207,0|0,0:0|3:2,0:0:0:0:
163,142,78555,5,0,1:2:0:0:
19,72,78708,1,0,0:0:0:0:
58,0,78861,2,0,P|79:90|95:223,1,203.999993774414,0|0,3:2|1:2,0:0:0:0:
150,341,79320,1,0,3:2:0:0:
89,373,79473,2,0,P|50:333|71:272,1,101.999996887207,2|0,0:2|3:2,0:0:0:0:
184,227,79779,2,0,P|238:214|238:78,1,203.999993774414,0|2,1:0|3:2,0:0:0:0:
419,25,80238,5,0,0:0:0:0:
474,120,80392,2,0,P|426:116|374:103,1,93.5000028533936,2|0,1:2|3:2,0:0:0:0:
345,178,80698,1,0,0:0:0:0:
499,268,80851,1,0,3:2:0:0:
427,239,81004,6,0,B|375:285|375:285|296:249,1,140.25000428009,0|0,1:2|0:0,0:0:0:0:
292,280,81310,6,0,B|179:264|244:360|103:337,1,187.000005706787,0|0,3:2|1:2,0:0:0:0:
2,216,81769,1,0,3:2:0:0:
134,162,81922,2,0,P|127:201|120:264,1,93.5000028533936,2|0,3:2|3:2,0:0:0:0:
46,153,82228,2,0,P|37:83|15:4,1,140.25000428009,0|0,1:2|0:0,0:0:0:0:
25,13,82534,1,2,3:2:0:0:
161,24,82687,1,0,0:0:0:0:
241,125,82840,6,0,P|321:88|316:0,1,187.000005706787,2|0,1:2|0:0,0:0:0:0:
434,166,83300,1,0,3:2:0:0:
359,179,83453,2,0,P|351:222|407:264,1,93.5000028533936,0|0,1:2|0:0,0:0:0:0:
512,318,83759,6,0,P|494:314|455:297,1,46.7500014266968,2|0,3:2|0:0,0:0:0:0:
409,351,83912,2,0,P|317:358|200:379,1,187.000005706787,0|0,0:0|3:2,0:0:0:0:
122,277,84371,5,0,3:2:0:0:
210,296,84524,1,0,3:2:0:0:
89,180,84677,2,0,P|99:257|106:379,1,187.000005706787,0|2,1:2|3:2,0:0:0:0:
163,165,85137,6,0,P|167:132|182:88,1,46.7500014266968,0|0,1:2|0:0,0:0:0:0:
165,104,85289,1,0,1:2:0:0:
10,140,85442,1,0,1:2:0:0:
79,21,85596,6,0,P|83:53|85:104,1,46.7500014266968,0|0,1:2|0:0,0:0:0:0:
93,9,85749,1,0,1:2:0:0:
313,161,85902,6,0,P|317:140|327:112,3,46.7500014266968,0|0|0|0,1:2|1:2|1:2|1:2,0:0:0:0:
394,208,86208,6,0,P|317:223|298:319,1,165.749992412568,4|0,3:2|3:2,0:0:0:0:
296,308,86514,1,2,3:2:0:0:
380,321,86667,1,0,1:2:0:0:
235,177,86820,6,0,P|185:190|108:199,1,110.499994941712,2|0,1:2|1:2,0:0:0:0:
164,281,87050,1,0,1:2:0:0:
157,290,87126,2,0,P|110:272|50:267,1,110.499994941712,0|0,3:0|1:2,0:0:0:0:
46,159,87432,6,0,P|42:125|137:79,1,110.499994941712,2|0,3:2|1:2,0:0:0:0:
143,22,87662,1,0,0:0:0:0:
146,28,87739,2,0,P|170:30|219:25,1,55.2499974708558,2|0,3:2|0:0,0:0:0:0:
245,88,87892,1,0,1:2:0:0:
386,14,88045,6,0,P|372:95|369:169,1,110.499994941712,0|0,3:2|1:2,0:0:0:0:
294,162,88274,1,0,1:2:0:0:
297,173,88351,2,0,P|309:239|312:333,1,110.499994941712,2|0,3:2|1:2,0:0:0:0:
334,384,88657,5,0,3:2:0:0:
447,345,88810,1,0,1:2:0:0:
404,235,88963,1,0,3:2:0:0:
167,243,89116,5,0,1:2:0:0:
136,316,89269,1,0,3:2:0:0:
205,355,89422,2,0,P|233:347|278:342,2,55.2499974708558,2|0|0,1:2|1:2|3:2,0:0:0:0:
103,183,89728,1,0,1:2:0:0:
27,234,89881,6,0,P|19:148|4:46,1,165.749992412568,0|0,3:2|1:2,0:0:0:0:
14,61,90187,1,0,3:2:0:0:
173,119,90341,6,0,P|197:122|247:121,2,55.2499974708558,0|0|0,1:2|1:2|3:2,0:0:0:0:
311,41,90647,2,0,P|338:37|369:36,2,55.2499974708558,0|0|0,1:2|1:2|3:2,0:0:0:0:
480,130,90953,1,0,1:2:0:0:
416,268,91106,5,0,3:2:0:0:
333,252,91259,1,0,1:2:0:0:
333,252,91336,1,0,1:2:0:0:
333,252,91413,1,0,3:2:0:0:
155,326,91565,6,0,P|160:355|165:416,2,55.2499974708558,0|0|2,1:2|1:2|3:2,0:0:0:0:
233,330,91871,1,0,1:2:0:0:
60,284,92025,5,0,3:2:0:0:
0,185,92178,1,0,1:2:0:0:
4,166,92254,1,0,1:2:0:0:
8,147,92331,1,2,3:2:0:0:
133,50,92484,1,0,1:2:0:0:
140,71,92560,1,0,1:2:0:0:
146,88,92637,1,2,3:2:0:0:
267,153,92789,1,0,1:2:0:0:
480,63,92943,6,0,B|385:68|438:132|324:145,1,165.749992412568,0|0,3:2|1:2,0:0:0:0:
404,142,93248,2,0,P|430:146|480:152,2,55.2499974708558,0|0|0,3:2|0:2|1:2,0:0:0:0:
446,362,93555,5,2,3:2:0:0:
466,281,93708,1,0,1:2:0:0:
378,298,93861,1,2,3:2:0:0:
245,360,94014,5,2,1:2:0:0:
179,265,94167,1,2,3:2:0:0:
284,205,94320,1,0,1:2:0:0:
300,208,94397,1,0,1:2:0:0:
314,210,94473,5,2,3:2:0:0:
390,80,94626,1,2,1:2:0:0:
269,21,94779,1,2,3:2:0:0:
40,111,94932,5,0,1:2:0:0:
119,121,95085,1,2,3:2:0:0:
173,182,95238,1,2,1:2:0:0:
252,192,95391,1,2,3:2:0:0:
137,277,95544,1,0,1:0:0:0:
234,321,95698,2,0,P|268:325|312:331,3,55.2499974708558,0|0|0|0,1:0|1:0|1:0|1:0,0:0:0:0:
329,381,96004,6,0,B|366:242|455:333|469:198,1,220.999989883423,6|0,1:2|3:2,0:0:0:0:
345,93,96463,2,0,P|373:152|437:130,1,110.499994941712,6|0,1:2|0:0,0:0:0:0:
475,115,96769,1,0,3:2:0:0:
296,193,96922,6,0,P|204:178|25:169,1,220.999989883423,6|2,1:2|3:2,0:0:0:0:
264,27,97381,2,0,P|153:34|44:51,1,220.999989883423,6|0,1:2|3:2,0:0:0:0:
22,275,97841,6,0,P|37:299|94:291,1,55.2499974708558,6|0,1:2|0:0,0:0:0:0:
129,355,97994,2,0,P|157:351|172:295,1,55.2499974708558,0|0,1:2|0:0,0:0:0:0:
199,255,98147,6,0,P|222:233|303:239,1,110.499994941712,2|0,1:2|1:2,0:0:0:0:
403,364,98453,6,0,P|415:267|445:138,1,220.999989883423,6|0,1:2|3:2,0:0:0:0:
265,67,98912,1,6,1:2:0:0:
337,37,99065,2,0,P|349:77|362:172,1,110.499994941712,0|0,1:2|3:2,0:0:0:0:
307,205,99371,1,6,1:2:0:0:
512,233,99524,2,0,P|416:235|382:368,1,220.999989883423,0|6,1:2|1:2,0:0:0:0:
262,366,99983,2,0,P|194:360|189:307,1,110.499994941712,0|0,1:2|3:2,0:0:0:0:
19,217,100290,6,0,P|28:244|37:290,1,55.2499974708558,6|0,1:2|0:0,0:0:0:0:
132,217,100443,2,0,P|134:188|145:142,1,55.2499974708558,0|0,1:2|0:0,0:0:0:0:
65,121,100596,2,0,P|60:61|46:-5,1,110.499994941712,0|0,1:2|1:2,0:0:0:0:
258,47,100902,5,6,1:2:0:0:
301,117,101055,2,0,B|438:96|376:181|516:174,1,220.999989883423,0|6,1:2|1:2,0:0:0:0:
379,255,101514,2,0,B|243:234|305:319|175:312,1,220.999989883423,0|6,1:2|1:2,0:0:0:0:
381,270,101973,6,0,P|421:276|504:294,1,110.499994941712,0|0,1:2|3:2,0:0:0:0:
285,167,102279,1,6,1:2:0:0:
217,196,102433,2,0,P|132:210|30:220,1,165.749992412568,0|0,1:2|0:0,0:0:0:0:
62,248,102739,6,0,P|85:244|131:241,1,55.2499974708558,6|0,1:2|0:0,0:0:0:0:
106,163,102892,2,0,P|83:167|37:170,1,55.2499974708558,0|0,1:2|0:0,0:0:0:0:
134,58,103045,2,0,P|173:54|252:42,1,110.499994941712,2|0,1:2|1:2,0:0:0:0:
331,119,103351,5,6,1:2:0:0:
443,150,103504,1,4,1:2:0:0:
508,62,103657,1,0,3:2:0:0:
391,18,103810,1,6,1:2:0:0:
418,86,103964,5,4,1:2:0:0:
288,355,104270,1,6,1:2:0:0:
202,273,104422,2,0,P|120:281|-8:309,1,165.749992412568,4|0,1:2|0:0,0:0:0:0:
33,312,104728,1,6,1:2:0:0:
41,117,104881,2,0,P|85:123|174:121,1,110.499994941712,4|0,1:2|3:0,0:0:0:0:
395,167,105187,5,6,1:2:0:0:
452,68,105340,1,4,1:2:0:0:
327,28,105494,1,0,1:2:0:0:
323,47,105570,1,0,1:0:0:0:
344,62,105647,1,0,1:2:0:0:
256,192,115671,12,0,126807,0:0:0:0:
