osu file format v14

[General]
AudioFilename: audio.mp3
AudioLeadIn: 0
PreviewTime: 413
Countdown: 0
SampleSet: Soft
StackLeniency: 0.2
Mode: 0
LetterboxInBreaks: 0
WidescreenStoryboard: 1

[Editor]
DistanceSpacing: 0.2
BeatDivisor: 4
GridSize: 32
TimelineZoom: 1.6

[Metadata]
Title:chilblain
TitleUnicode:chilblain
Artist:Glaring Radiokids
ArtistUnicode:Glaring Radiokids
Creator:posydomojka
Version:Edda
Source:pop'n music 16 PARTY♪
Tags:shounen radio giragira kagayaku ぎらぎら輝く 少年ラジオ ギラギラメガネ団 OST soundtrack ポップンリズミン pop'n rhythmin cami SHOEGAZER シューゲイザー Jun Wakita 脇田潤 wac shoegaze rock english
BeatmapID:2989003
BeatmapSetID:1453966

[Difficulty]
HPDrainRate:5
CircleSize:4.2
OverallDifficulty:9
ApproachRate:9.2
SliderMultiplier:2
SliderTickRate:1

[Events]
//Background and Video events
0,0,"86157714_p4.jpg",0,0
//Break Periods
2,7896,9728
2,105848,110203
//Storyboard Layer 0 (Background)
//Storyboard Layer 1 (Fail)
//Storyboard Layer 2 (Pass)
//Storyboard Layer 3 (Foreground)
//Storyboard Layer 4 (Overlay)
//Storyboard Sound Samples

[TimingPoints]
503,306.122448979592,4,2,1,35,1,0
2951,-285.714285714284,4,2,1,32,0,0
4788,-181.818181818181,4,2,1,32,0,0
10298,-181.818181818181,4,2,1,32,0,0
20094,-153.846153846153,4,2,1,35,0,0
21931,-133.333333333333,4,2,1,40,0,0
22084,-142.857142857143,4,2,1,40,0,0
22543,-153.846153846153,4,2,1,32,0,0
24686,-153.846153846153,4,2,1,40,0,0
24992,-153.846153846153,4,2,1,32,0,0
26829,-153.846153846153,4,2,1,40,0,0
27747,-133.333333333333,4,2,1,40,0,0
28666,-133.333333333333,4,2,1,50,0,0
29584,-133.333333333333,4,2,1,60,0,0
29890,-133.333333333333,4,2,1,50,0,0
30043,-66.6666666666667,4,2,1,50,0,0
30503,-100,4,2,1,50,0,0
34788,-66.6666666666667,4,2,1,50,0,0
34941,-100,4,2,1,50,0,0
39686,-100,4,2,1,60,0,0
42135,-133.333333333333,4,2,1,60,0,0
43972,-100,4,2,1,60,0,0
45196,-71.4285714285714,4,2,1,60,0,0
45503,-222.222222222221,4,2,1,60,0,0
45809,-100,4,2,1,60,0,0
53462,-83.3333333333333,4,2,1,60,0,0
53768,-100,4,2,1,60,0,0
54380,-133.333333333333,4,2,1,60,0,0
54992,-100,4,2,1,60,0,0
59278,-153.846153846153,4,2,1,55,0,0
59584,-100,4,2,1,55,0,0
60503,-222.222222222221,4,2,1,55,0,0
62033,-133.333333333333,4,2,1,55,0,0
64176,-133.333333333333,4,2,1,60,0,0
65707,-66.6666666666667,4,2,1,60,0,0
66625,-285.714285714284,4,2,1,50,0,0
69074,-399.999999999997,4,2,1,50,0,0
71523,-285.714285714284,4,2,1,50,0,0
73972,-133.333333333333,4,2,1,50,0,0
74278,283.018867924529,4,2,1,50,1,0
74278,-133.333333333333,4,2,1,50,0,0
74561,322.58064516129,4,2,1,50,1,0
74722,291.26213592233,4,2,1,50,1,0
75304,279.06976744186,4,2,1,50,1,0
75583,333.333333333333,4,2,1,50,1,0
75916,384.615384615385,4,2,1,50,1,0
76108,333.333333333333,4,2,1,50,1,0
76276,273.972602739726,4,2,1,50,1,0
76412,306.122448979592,4,2,1,70,1,0
76412,-83.3333333333333,4,2,1,70,0,0
80545,-133.333333333333,4,2,1,70,0,0
81004,-83.3333333333333,4,2,1,70,0,0
86208,-66.6666666666667,4,2,1,70,0,0
86514,-100,4,2,1,70,0,0
86820,-66.6666666666667,4,2,1,70,0,0
88045,-50,4,2,1,70,0,0
88351,-133.333333333333,4,2,1,70,0,0
89422,-66.6666666666667,4,2,1,70,0,0
96004,-66.6666666666667,4,2,1,80,0,0
96463,-52.6315789473684,4,2,1,80,0,0
96769,-133.333333333333,4,2,1,80,0,0
96922,-50,4,2,1,80,0,0
97381,-133.333333333333,4,2,1,80,0,0
98453,-50,4,2,1,80,0,0
99524,-100,4,2,1,80,0,0
99983,-50,4,2,1,80,0,0
100289,-133.333333333333,4,2,1,80,0,0
100902,-50,4,2,1,85,0,0
101055,-50,4,2,1,85,0,0
101820,-66.6666666666667,4,2,1,85,0,0
103351,-66.6666666666667,4,2,1,90,0,0
103963,-50,4,2,1,90,0,0
104728,-66.6666666666667,4,2,1,90,0,0
105494,-100,4,2,1,80,0,0
105820,-100,4,2,1,60,0,0
105876,306.122448979592,4,2,1,50,1,1
105876,-100,4,2,1,50,0,1
108248,-100,4,2,1,50,0,0
108324,-100,4,2,1,50,0,1
109396,-666.666666666658,4,2,1,50,0,0
109626,-666.666666666658,4,2,1,50,0,1
110238,-666.666666666658,4,2,1,50,0,0
113069,-399.999999999997,4,2,1,50,0,0
114293,-222.222222222221,4,2,1,50,0,0
114599,-153.846153846153,4,2,1,50,0,0
114905,-117.647058823529,4,2,1,50,0,0
115211,-95.2380952380951,4,2,1,50,0,0
115518,-1000,4,2,1,50,0,0
115672,-1000,4,2,1,35,0,0

[Colours]
Combo1 : 0,187,187
Combo2 : 255,255,28

[HitObjects]
71,115,2951,6,0,P|87:132|119:133,1,52.4999983978272,0|0,3:0|0:0,0:0:0:0:
124,123,3258,1,0,3:0:0:0:
3,258,5094,6,0,P|14:246|60:245,2,55.0000016784668,0|0|0,3:0|3:0|3:0,0:0:0:0:
109,303,5707,1,0,3:0:0:0:
230,371,7543,6,0,P|234:333|241:307,1,55.0000016784668,0|0,3:0|3:0,0:0:0:0:
11,384,10298,6,0,P|23:277|133:265,1,220.000006713867,2|2,0:0|0:0,0:0:0:0:
148,152,11217,5,0,0:0:0:0:
77,171,11370,2,0,P|48:131|77:65,1,110.000003356934
127,20,11829,2,0,P|175:27|259:36,1,110.000003356934,0|2,0:0|0:0,0:0:0:0:
325,96,12441,1,0,0:0:0:0:
471,27,12747,6,0,B|371:23|413:99|320:105,1,165.000005035401,2|0,0:0|0:0,0:0:0:0:
421,155,13360,2,0,P|412:220|408:284,1,110.000003356934,2|0,0:0|0:0,0:0:0:0:
332,367,13819,6,0,P|289:329|338:233,1,165.000005035401
493,301,14584,1,2,0:0:0:0:
417,287,14890,1,0,0:0:0:0:
408,296,15196,6,0,P|369:287|336:283,1,55.0000016784668,2|0,0:0|0:0,0:0:0:0:
304,229,15503,2,0,P|264:224|178:204,1,110.000003356934,0|2,0:0|0:0,0:0:0:0:
48,366,16115,2,0,P|20:312|97:246,1,165.000005035401
157,260,16727,1,0,0:0:0:0:
20,111,17033,1,2,0:0:0:0:
98,101,17339,1,0,0:0:0:0:
173,52,17645,6,0,B|201:41|215:1|215:1|226:-1|226:-1|219:78|298:95,1,192.500005874634,2|0,0:0|0:0,0:0:0:0:
294,103,18258,2,0,P|332:91|409:78,1,110.000003356934,2|0,0:0|0:0,0:0:0:0:
0,35,18870,6,0,P|63:60|172:54,1,165.000005035401,2|0,0:0|0:0,0:0:0:0:
162,49,19482,1,2,0:0:0:0:
30,266,19788,5,2,0:0:0:0:
35,282,19941,1,2,0:0:0:0:
114,384,20094,6,0,P|148:340|123:311,1,97.4999955368044,2|0,0:0|0:0,0:0:0:0:
119,314,20400,2,0,P|114:279|109:244,1,64.9999970245363
238,290,20707,6,0,P|293:301|376:315,1,129.999994049073,2|2,0:0|0:0,0:0:0:0:
381,222,21166,2,0,P|316:211|253:198,1,129.999994049073,2|0,0:0|0:0,0:0:0:0:
462,230,21625,1,2,0:0:0:0:
464,218,21778,1,0,0:0:0:0:
369,125,21931,6,0,P|362:126|374:131,1,37.5000014305115,0|0,3:0|0:0,0:0:0:0:
377,116,22084,2,0,P|396:81|488:99,1,139.999995727539,0|0,3:0|3:0,0:0:0:0:
287,24,22543,6,0,P|255:20|214:13,1,64.9999970245363,2|0,0:0|0:0,0:0:0:0:
115,80,22849,2,0,P|147:84|179:89,1,64.9999970245363,2|0,0:0|0:0,0:0:0:0:
299,16,23156,6,0,B|379:23|337:57|418:79,1,129.999994049073,2|2,0:0|0:0,0:0:0:0:
298,195,23615,2,0,P|248:169|277:89,1,129.999994049073,2|0,0:0|0:0,0:0:0:0:
262,107,24074,1,2,0:0:0:0:
404,172,24227,6,0,P|392:234|384:327,1,129.999994049073,2|0,0:0|0:0,0:0:0:0:
385,372,24686,1,0,3:0:0:0:
375,372,24839,1,0,3:0:0:0:
293,296,24992,6,0,P|213:302|177:349,3,129.999994049073,2|0|0|0,0:0|0:0|0:0|0:0,0:0:0:0:
12,193,26217,2,0,P|42:197|89:199,1,64.9999970245363,2|0,0:0|0:0,0:0:0:0:
22,277,26523,2,0,P|61:278|134:285,1,97.4999955368044
128,274,26829,1,0,3:0:0:0:
202,224,26982,6,0,B|277:229|236:272|323:286,1,129.999994049073,0|0,3:0|3:0,0:0:0:0:
454,370,27441,6,0,P|459:330|465:290,1,64.9999970245363,2|0,0:0|0:0,0:0:0:0:
328,197,27747,2,0,P|392:188|482:171,1,150.000005722046,0|0,3:0|3:0,0:0:0:0:
276,126,28207,1,0,0:0:0:0:
336,76,28360,2,0,P|323:44|272:35,1,75.0000028610231,0|0,3:0|0:0,0:0:0:0:
22,51,28666,5,2,3:2:0:0:
96,63,28819,1,0,1:0:0:0:
170,76,28972,1,0,1:0:0:0:
489,167,29125,5,0,1:0:0:0:
331,201,29278,1,0,1:0:0:0:
175,230,29431,1,0,1:0:0:0:
297,382,29584,6,0,P|299:363|305:325,1,37.5000014305115,0|0,1:0|1:0,0:0:0:0:
293,326,29737,2,0,P|291:345|285:383,1,37.5000014305115,0|0,1:0|1:0,0:0:0:0:
1,266,29890,5,6,3:2:0:0:
48,320,30043,2,0,P|144:332|372:360,1,300.000011444092,0|0,3:0|3:0,0:0:0:0:
429,179,30503,5,0,3:0:0:0:
396,186,30579,1,0,1:0:0:0:
363,193,30656,1,0,1:0:0:0:
331,201,30732,1,0,1:0:0:0:
298,209,30809,1,0,3:0:0:0:
231,15,30962,6,0,B|136:28|198:78|81:99,1,150,4|0,3:2|0:0,0:0:0:0:
98,83,31268,1,0,3:2:0:0:
241,32,31421,6,0,P|298:39|412:50,1,150,2|0,3:2|0:0,0:0:0:0:
466,58,31727,1,2,3:2:0:0:
466,58,32033,2,0,P|467:36|470:62,1,100,2|0,3:2|0:0,0:0:0:0:
353,182,32339,6,0,L|272:200,1,50,6|0,3:2|0:0,0:0:0:0:
171,159,32492,2,0,B|182:144|182:144|234:152|234:152|245:204|314:212,1,150,0|0,3:2|0:0,0:0:0:0:
304,212,32798,1,2,1:2:0:0:
328,206,32874,1,2,1:2:0:0:
352,201,32951,1,2,3:2:0:0:
152,353,33258,1,0,3:0:0:0:
128,351,33334,1,0,1:0:0:0:
107,350,33411,1,6,3:2:0:0:
0,321,33564,5,2,0:0:0:0:
152,277,33717,1,2,3:2:0:0:
299,236,33870,1,2,3:2:0:0:
111,36,34176,6,0,L|124:95,3,50,0|0|0|0,1:2|1:2|1:2|1:2,0:0:0:0:
123,97,34482,1,0,1:2:0:0:
128,72,34559,1,0,1:2:0:0:
169,41,34635,1,0,1:2:0:0:
247,47,34712,1,0,1:2:0:0:
272,120,34788,6,0,P|308:128|361:127,1,75.0000028610231,6|0,3:2|0:0,0:0:0:0:
512,73,34941,2,0,P|437:59|340:61,1,150.000005722046,0|0,3:0|0:0,0:0:0:0:
357,98,35247,1,0,3:0:0:0:
368,99,35324,1,0,1:0:0:0:
380,99,35400,1,2,3:2:0:0:
103,325,35707,5,0,1:0:0:0:
129,321,35783,1,0,1:0:0:0:
157,317,35860,1,4,3:2:0:0:
272,371,36013,6,0,P|280:298|296:226,1,100,0|0,0:0|3:2,0:0:0:0:
49,228,36319,1,2,3:2:0:0:
49,228,36625,2,0,P|47:206|44:232,1,100,2|0,3:2|0:0,0:0:0:0:
224,26,36931,5,2,3:2:0:0:
221,40,37008,1,0,1:0:0:0:
196,58,37084,1,0,1:0:0:0:
146,57,37161,1,0,1:0:0:0:
96,16,37237,6,0,P|114:50|114:96,1,50,6|0,3:2|0:0,0:0:0:0:
0,7,37390,2,0,P|30:64|63:160,1,150,0|0,3:2|0:0,0:0:0:0:
70,146,37696,1,2,1:2:0:0:
155,222,37849,2,0,P|198:181|273:184,1,100,2|2,3:2|0:2,0:0:0:0:
114,383,38156,1,0,1:0:0:0:
116,373,38232,1,0,1:0:0:0:
118,363,38309,1,6,3:2:0:0:
15,312,38462,5,0,0:0:0:0:
55,244,38615,5,2,3:2:0:0:
133,242,38768,5,2,3:2:0:0:
167,307,38921,5,0,1:0:0:0:
236,356,39074,5,0,1:2:0:0:
304,326,39227,5,0,1:2:0:0:
313,251,39380,5,0,1:2:0:0:
337,256,39456,1,0,1:2:0:0:
361,261,39533,1,0,1:2:0:0:
386,264,39609,1,0,1:2:0:0:
404,280,39686,6,0,P|451:288|518:287,1,100,6|0,3:2|0:0,0:0:0:0:
498,118,39992,2,0,P|432:118|343:165,1,150,2|0,1:2|0:0,0:0:0:0:
360,167,40298,2,0,P|390:155|382:106,1,50,2|0,3:2|0:0,0:0:0:0:
446,75,40451,2,0,P|447:42|399:30,1,50,0|0,3:2|0:0,0:0:0:0:
357,8,40605,1,2,1:2:0:0:
141,58,40758,6,0,B|224:46|200:119|274:121,1,150,2|0,0:2|0:0,0:0:0:0:
276,113,41064,1,0,0:0:0:0:
143,42,41217,6,0,B|60:30|84:103|15:104,1,150,2|0,1:2|0:0,0:0:0:0:
9,100,41523,1,0,3:2:0:0:
21,175,41676,1,0,3:2:0:0:
110,370,41829,6,0,P|118:272|106:190,1,150,0|0,1:2|0:0,0:0:0:0:
0,262,42135,6,0,P|3:296|48:334,1,75.0000028610231,2|0,3:2|0:0,0:0:0:0:
111,215,42441,1,2,1:2:0:0:
315,372,42594,2,0,P|266:296|173:304,1,187.500007152558,0|0,3:2|0:0,0:0:0:0:
167,311,43054,1,2,1:2:0:0:
288,224,43207,6,0,P|317:231|388:241,1,75.0000028610231,2|0,0:0|3:2,0:0:0:0:
502,336,43513,2,0,P|437:323|339:315,1,150.000005722046,2|0,0:0|3:2,0:0:0:0:
441,122,43972,6,0,P|455:143|443:176,1,50,2|0,0:0|0:0,0:0:0:0:
440,172,44125,1,0,3:2:0:0:
261,96,44278,2,0,P|272:28|333:20,1,100,2|0,1:2|0:0,0:0:0:0:
159,224,44584,6,0,P|247:190|371:162,1,200,2|0,3:2|1:2,0:0:0:0:
315,356,45043,1,0,3:2:0:0:
474,239,45196,2,0,P|441:296|375:289,1,139.999995727539,0|0,3:2|3:2,0:0:0:0:
269,267,45503,1,0,1:2:0:0:
126,141,45809,6,0,P|132:121|123:141,1,50,2|0,3:2|0:0,0:0:0:0:
242,77,45962,2,0,P|168:56|86:19,1,150
83,35,46268,1,0,3:2:0:0:
45,210,46421,2,0,P|39:173|19:96,1,100,0|0,0:0|3:2,0:0:0:0:
215,217,46727,1,2,1:2:0:0:
94,335,46880,1,0,0:0:0:0:
91,319,47033,6,0,B|192:295|184:378|286:377,1,200,2|0,3:2|1:0,0:0:0:0:
399,301,47492,1,0,3:2:0:0:
284,322,47645,6,0,P|250:328|219:332,1,50,0|0,3:2|0:0,0:0:0:0:
158,342,47798,2,0,P|133:346|108:350,1,50,0|0,3:2|0:0,0:0:0:0:
0,192,47951,2,0,B|52:245|52:245|142:209,1,150,2|0,1:2|0:0,0:0:0:0:
126,203,48258,5,2,3:2:0:0:
156,29,48411,1,0,0:0:0:0:
312,130,48564,1,0,1:2:0:0:
293,54,48717,1,0,3:0:0:0:
428,65,48870,1,8,3:0:0:0:
512,230,49023,6,0,P|480:227|432:221,1,50,0|0,1:2|0:0,0:0:0:0:
329,227,49176,2,0,P|361:230|409:236,1,50,0|0,1:2|0:0,0:0:0:0:
460,238,49329,2,0,P|492:241|540:247,1,50,0|0,1:2|0:0,0:0:0:0:
470,327,49482,6,0,B|381:310|414:372|320:382,1,150,6|2,3:2|0:0,0:0:0:0:
323,383,49788,2,0,P|304:328|230:326,1,100,2|0,1:2|3:2,0:0:0:0:
232,326,50018,1,0,0:0:0:0:
232,326,50094,1,2,3:2:0:0:
32,366,50247,1,0,3:2:0:0:
90,258,50400,6,0,P|91:277|85:261,1,50,2|0,1:2|0:0,0:0:0:0:
142,384,50554,6,0,P|138:298|146:168,1,200,2|0,0:2|0:0,0:0:0:0:
65,151,51013,2,0,B|90:75|156:130|164:39,1,150,2|0,1:2|0:0,0:0:0:0:
156,42,51319,2,0,P|135:70|153:106,1,50,0|0,3:2|0:0,0:0:0:0:
146,96,51472,1,0,3:2:0:0:
339,83,51625,2,0,P|341:27|287:-4,1,100,0|0,1:2|0:0,0:0:0:0:
465,194,51931,5,2,3:2:0:0:
332,384,52084,2,0,P|336:284|288:195,1,200,2|0,0:0|3:2,0:0:0:0:
509,324,52543,1,2,3:2:0:0:
430,306,52696,1,0,3:2:0:0:
510,313,52849,1,2,1:2:0:0:
278,199,53003,6,0,P|274:155|367:122,1,150,2|0,0:0|0:0,0:0:0:0:
375,128,53309,2,0,P|404:111|390:75,1,50,2|0,0:0|0:0,0:0:0:0:
309,35,53462,6,0,P|341:136|358:239,1,179.999994506836,2|0,1:2|0:0,0:0:0:0:
455,208,53768,6,0,P|447:234|440:283,1,50,2|0,0:0|0:0,0:0:0:0:
435,267,53921,1,0,3:2:0:0:
267,219,54074,2,0,P|257:170|239:123,1,100,2|0,1:2|0:0,0:0:0:0:
342,321,54380,6,0,B|431:329|385:360|483:383,1,150.000005722046,2|0,3:2|1:2,0:0:0:0:
334,326,54839,1,0,3:2:0:0:
268,220,54992,6,0,P|272:186|317:175,1,50,0|0,3:2|0:0,0:0:0:0:
248,105,55145,2,0,P|270:94|293:100,1,50,0|0,3:2|0:0,0:0:0:0:
483,195,55298,2,0,P|413:194|346:112,1,150,0|0,1:2|0:0,0:0:0:0:
363,132,55605,1,2,3:2:0:0:
390,19,55758,1,0,0:0:0:0:
375,133,55911,1,0,1:2:0:0:
73,46,56064,6,0,P|152:19|279:13,1,200,0|0,3:2|3:2,0:0:0:0:
234,148,56523,2,0,P|174:139|174:91,1,100,2|0,1:2|0:0,0:0:0:0:
116,369,56829,6,0,P|98:270|73:173,1,200,2|0,3:2|1:0,0:0:0:0:
29,321,57288,1,0,3:2:0:0:
245,277,57441,2,0,P|220:272|176:264,1,50,0|0,3:2|0:0,0:0:0:0:
235,352,57594,2,0,P|210:347|166:339,1,50,0|0,3:2|0:0,0:0:0:0:
85,160,57747,6,0,P|97:208|107:257,1,100,2|0,1:2|0:0,0:0:0:0:
360,362,58054,2,0,P|374:280|413:131,1,200,2|0,3:2|1:2,0:0:0:0:
325,135,58513,1,0,3:0:0:0:
209,0,58666,5,8,3:0:0:0:
238,37,58742,1,8,3:0:0:0:
224,83,58819,1,0,1:2:0:0:
179,98,58895,1,0,1:0:0:0:
167,96,58972,5,8,0:3:0:0:
144,103,59048,1,8,0:3:0:0:
137,126,59125,1,0,3:2:0:0:
152,145,59201,1,8,0:3:0:0:
171,148,59278,6,0,P|165:199|163:225,1,64.9999970245363,2|0,3:2|0:0,0:0:0:0:
139,244,59584,1,2,3:2:0:0:
359,338,59890,5,0,1:0:0:0:
283,352,60043,1,0,1:0:0:0:
206,366,60196,1,0,1:0:0:0:
390,118,60503,6,0,P|441:127|493:132,1,89.9999972534181,2|2,0:0|3:2,0:0:0:0:
492,119,61115,5,0,3:2:0:0:
431,74,61268,1,0,1:2:0:0:
357,100,61421,1,8,0:3:0:0:
346,175,61574,1,0,0:0:0:0:
282,208,61727,6,0,L|242:205,1,22.4999993133545,2|0,3:2|0:0,0:0:0:0:
249,214,61880,1,2,0:2:0:0:
95,121,62033,2,0,L|190:110,1,75.0000028610231,0|0,1:2|3:2,0:0:0:0:
79,306,62339,1,2,1:2:0:0:
3,295,62492,1,0,3:2:0:0:
8,285,62798,2,0,L|60:293,1,37.5000014305115,4|0,1:0|0:0,0:0:0:0:
154,369,62951,6,0,P|183:312|249:311,1,112.500004291535,0|0,3:2|0:0,0:0:0:0:
236,293,63258,2,0,P|271:297|334:300,1,75.0000028610231,4|0,3:1|3:0,0:0:0:0:
400,365,63564,5,0,1:0:0:0:
422,363,63640,1,0,1:0:0:0:
449,360,63717,1,0,1:0:0:0:
388,198,63870,1,4,3:0:0:0:
377,197,63946,1,0,0:0:0:0:
363,195,64023,1,0,3:0:0:0:
503,19,64176,6,0,P|492:83|480:178,1,150.000005722046,6|0,3:2|3:2,0:0:0:0:
387,46,64788,2,0,P|398:77|407:121,1,75.0000028610231,0|0,1:2|0:0,0:0:0:0:
497,203,65094,5,0,3:2:0:0:
397,216,65247,1,0,0:0:0:0:
410,330,65400,6,0,B|372:333|397:352|342:362,1,75.0000028610231,6|0,3:2|0:0,0:0:0:0:
310,293,65630,1,0,1:2:0:0:
308,305,65707,6,0,B|390:313|334:356|435:374,1,150.000005722046,0|0,1:2|1:2,0:0:0:0:
473,298,65936,1,0,1:2:0:0:
466,282,66013,6,0,P|463:243|460:178,1,75.0000028610231,0|0,1:2|0:0,0:0:0:0:
311,185,66166,2,0,P|314:146|317:81,1,75.0000028610231,0|0,1:2|0:0,0:0:0:0:
441,32,66319,1,0,1:2:0:0:
358,18,66395,1,0,1:2:0:0:
357,29,66472,1,2,1:0:0:0:
0,170,66625,6,0,P|5:207|7:248,7,69.9999978637696,2|0|2|0|2|2|0|0,0:0|0:0|0:0|0:0|0:0|0:0|0:0|0:0,0:0:0:0:
91,176,69074,6,0,P|86:210|86:229,7,50,0|0|2|0|2|2|0|0,0:0|0:0|0:0|0:0|0:0|0:0|0:0|0:0,0:0:0:0:
0,170,71523,6,0,P|5:207|7:248,7,69.9999978637696,0|0|2|0|2|2|0|0,0:0|0:0|0:0|0:0|0:0|0:0|0:0|0:0,0:0:0:0:
123,360,73972,6,0,P|155:318|229:320,1,112.500004291535,2|0,3:2|0:0,0:0:0:0:
218,322,74278,2,0,P|259:329|298:332,1,75.0000028610231,0|0,3:2|3:2,0:0:0:0:
356,376,74561,1,0,1:2:0:0:
491,233,74722,6,0,P|442:238|380:238,1,100,0|0,3:2|0:0,0:0:0:0:
221,141,75013,2,0,P|270:146|332:146,1,100,0|2,3:2|0:2,0:0:0:0:
405,21,75304,5,0,3:2:0:0:
264,14,75443,2,0,P|243:13|202:-2,1,50,0|0,1:2|0:0,0:0:0:0:
208,11,75583,1,0,3:0:0:0:
0,234,75749,6,0,P|21:225|64:222,1,50,0|0,1:0|1:0,0:0:0:0:
54,210,75916,1,0,3:0:0:0:
87,31,76108,6,0,P|75:48|94:45,2,50,0|0|0,1:0|1:0|3:0,0:0:0:0:
249,190,76412,6,0,P|222:265|208:409,1,179.999994506836,6|0,3:2|0:0,0:0:0:0:
337,334,76718,2,0,P|331:301|293:282,1,59.9999981689454,0|0,1:2|0:0,0:0:0:0:
320,269,76871,1,0,3:2:0:0:
0,161,77024,6,0,P|85:151|238:88,1,239.999992675781,2|0,3:2|1:2,0:0:0:0:
99,13,77483,1,0,0:0:0:0:
138,236,77636,2,0,P|78:220|90:154,1,119.999996337891,2|0,3:2|0:0,0:0:0:0:
298,148,77942,1,2,1:2:0:0:
110,9,78096,6,0,P|128:104|144:274,1,239.999992675781,0|0,3:2|3:2,0:0:0:0:
198,368,78555,6,0,P|199:342|222:294,1,59.9999981689454,0|0,1:2|0:0,0:0:0:0:
127,332,78708,1,0,0:0:0:0:
242,132,78861,6,0,P|226:65|160:58,1,119.999996337891,0|0,3:2|0:0,0:0:0:0:
246,237,79167,1,0,1:2:0:0:
256,144,79320,1,0,3:2:0:0:
34,10,79473,6,0,P|119:35|291:37,1,239.999992675781,2|0,0:2|1:0,0:0:0:0:
512,125,79932,1,0,0:0:0:0:
441,108,80085,2,0,P|382:99|313:95,1,119.999996337891,2|0,3:2|0:0,0:0:0:0:
367,26,80391,1,2,1:2:0:0:
248,204,80545,2,0,P|302:214|355:133,1,150.000005722046,0|0,3:2|3:2,0:0:0:0:
0,172,81004,6,0,B|23:169|35:132|35:132|38:125|38:125|51:202|126:197,1,179.999994506836,0|0,1:2|0:0,0:0:0:0:
169,199,81310,6,0,P|89:218|-42:285,1,179.999994506836,0|0,3:2|0:0,0:0:0:0:
68,307,81616,2,0,P|91:297|147:282,1,59.9999981689454,0|0,1:2|0:0,0:0:0:0:
120,366,81769,1,0,3:2:0:0:
428,331,81922,6,0,P|314:345|243:255,1,239.999992675781,2|0,3:2|1:2,0:0:0:0:
504,169,82381,1,0,0:0:0:0:
436,134,82534,2,0,P|431:193|430:253,1,119.999996337891,2|0,3:2|0:0,0:0:0:0:
276,15,82840,6,0,P|296:89|314:226,1,179.999994506836,2|0,1:2|0:0,0:0:0:0:
337,141,83147,2,0,P|340:98|304:74,2,59.9999981689454,0|0|0,0:0|0:0|3:2,0:0:0:0:
83,253,83453,2,0,B|183:243|143:311|238:325,1,179.999994506836,0|0,1:2|0:0,0:0:0:0:
249,333,83759,6,0,P|255:301|266:262,1,59.9999981689454,2|0,3:2|0:0,0:0:0:0:
46,384,83912,2,0,P|38:287|18:158,1,179.999994506836
26,205,84218,1,0,3:2:0:0:
195,26,84371,6,0,P|213:49|210:78,1,59.9999981689454,0|0,3:2|0:0,0:0:0:0:
56,4,84524,2,0,P|85:8|115:14,1,59.9999981689454,0|0,3:2|0:0,0:0:0:0:
17,120,84677,2,0,P|105:102|194:92,1,179.999994506836,0|0,1:2|0:0,0:0:0:0:
262,130,84983,1,2,3:2:0:0:
420,2,85136,5,0,1:2:0:0:
434,12,85289,5,0,1:2:0:0:
398,52,85442,5,0,1:2:0:0:
442,82,85596,5,0,1:2:0:0:
361,142,85748,5,0,1:2:0:0:
460,196,85902,5,0,1:2:0:0:
457,215,85978,1,0,1:2:0:0:
454,235,86055,1,0,1:2:0:0:
451,255,86131,1,0,1:2:0:0:
481,344,86208,6,0,P|426:259|282:280,1,225.000008583069,4|0,3:2|3:2,0:0:0:0:
365,217,86514,2,0,P|366:206|361:220,1,50,2|0,3:2|0:0,0:0:0:0:
296,268,86667,1,0,1:2:0:0:
0,297,86820,6,0,P|101:306|205:337,1,150.000005722046,2|0,1:2|1:2,0:0:0:0:
72,203,87050,1,0,1:2:0:0:
76,215,87126,2,0,P|158:200|297:146,1,225.000008583069,0|0,3:0|1:2,0:0:0:0:
291,178,87432,6,0,P|254:182|221:131,1,75.0000028610231,2|0,3:2|0:0,0:0:0:0:
151,125,87585,2,0,P|131:93|165:41,1,75.0000028610231,0|0,1:2|0:0,0:0:0:0:
223,28,87738,6,0,P|246:19|221:25,1,75.0000028610231,2|0,3:2|0:0,0:0:0:0:
30,71,87891,2,0,P|7:80|32:74,1,75.0000028610231,0|0,1:2|1:2,0:0:0:0:
196,333,88045,6,0,P|173:246|72:209,1,200,0|0,3:2|1:2,0:0:0:0:
39,276,88274,1,0,1:2:0:0:
38,287,88351,2,0,P|50:323|105:326,1,75.0000028610231,2|0,3:2|1:2,0:0:0:0:
280,231,88657,5,0,3:2:0:0:
505,269,88810,1,0,1:2:0:0:
506,276,88886,1,0,1:2:0:0:
507,283,88963,1,0,3:2:0:0:
397,55,89116,6,0,P|400:30|415:-10,2,37.5000014305115,0|0|0,1:2|1:2|3:2,0:0:0:0:
301,122,89422,6,0,P|330:146|348:222,1,75.0000028610231,2|0,1:2|1:2,0:0:0:0:
512,79,89575,2,0,P|488:108|484:186,1,75.0000028610231,0|0,3:2|0:0,0:0:0:0:
426,211,89728,5,0,1:2:0:0:
458,357,89881,6,0,P|355:307|190:315,1,225.000008583069,0|0,3:2|1:2,0:0:0:0:
340,375,90187,2,0,P|385:347|339:268,1,150.000005722046,0|0,3:2|1:2,0:0:0:0:
266,322,90417,5,0,1:2:0:0:
247,327,90494,1,0,3:2:0:0:
9,184,90647,5,0,1:2:0:0:
59,189,90723,1,0,1:2:0:0:
109,196,90800,1,0,3:2:0:0:
67,369,90953,1,0,1:2:0:0:
354,148,91106,5,0,3:2:0:0:
350,129,91182,1,0,3:2:0:0:
346,111,91259,1,0,1:2:0:0:
342,92,91335,1,0,1:2:0:0:
338,74,91412,1,0,3:2:0:0:
210,26,91565,5,0,1:2:0:0:
204,70,91641,1,0,1:2:0:0:
199,114,91718,1,2,3:2:0:0:
193,158,91794,1,0,1:0:0:0:
188,203,91871,1,0,1:2:0:0:
436,112,92024,5,0,3:2:0:0:
434,103,92100,1,0,3:0:0:0:
432,95,92177,1,0,1:2:0:0:
430,87,92253,1,0,1:2:0:0:
428,79,92330,1,2,3:2:0:0:
137,25,92483,5,0,1:2:0:0:
130,61,92559,1,0,1:2:0:0:
124,98,92636,1,2,3:2:0:0:
289,46,92789,1,0,1:2:0:0:
282,82,92865,1,0,1:2:0:0:
276,119,92942,1,0,3:2:0:0:
451,71,93096,1,0,1:2:0:0:
444,107,93172,1,0,1:2:0:0:
438,144,93249,1,0,3:2:0:0:
424,234,93402,5,0,1:2:0:0:
23,363,93555,5,2,3:2:0:0:
85,267,93708,1,0,1:2:0:0:
186,319,93861,1,2,3:2:0:0:
135,181,94014,5,2,1:2:0:0:
149,176,94090,1,0,1:2:0:0:
168,170,94167,1,2,3:2:0:0:
120,375,94320,1,0,1:2:0:0:
0,234,94473,1,2,3:2:0:0:
328,294,94627,5,2,1:2:0:0:
402,304,94703,1,0,1:2:0:0:
476,314,94780,1,2,3:2:0:0:
4,225,94932,5,0,1:2:0:0:
73,199,95085,5,2,3:2:0:0:
117,265,95239,5,2,1:2:0:0:
116,342,95391,5,2,3:2:0:0:
183,384,95545,5,0,1:0:0:0:
236,333,95698,5,0,1:0:0:0:
254,331,95774,1,0,1:0:0:0:
273,329,95851,1,0,1:0:0:0:
291,327,95927,1,0,1:0:0:0:
330,367,96004,6,0,B|376:232|458:368|500:205,1,225.000008583069,6|0,1:2|0:0,0:0:0:0:
434,176,96310,2,0,P|400:190|391:225,1,75.0000028610231,0|0,3:2|0:0,0:0:0:0:
482,42,96463,6,0,P|340:22|200:0,1,284.999992389679,6|0,1:2|0:0,0:0:0:0:
293,87,96769,2,0,P|264:82|229:76,1,37.5000014305115,0|0,3:2|0:0,0:0:0:0:
17,298,96922,6,0,P|52:162|192:160,1,300,6|0,1:2|0:0,0:0:0:0:
197,173,97228,1,2,3:2:0:0:
13,33,97381,6,0,P|37:103|128:92,1,150.000005722046,6|0,1:2|3:2,0:0:0:0:
502,170,97840,5,6,1:2:0:0:
421,163,97994,1,0,1:2:0:0:
503,159,98147,5,2,1:2:0:0:
422,152,98299,1,0,1:2:0:0:
199,47,98453,6,0,P|251:46|272:2,1,100,6|0,1:2|0:0,0:0:0:0:
310,136,98606,2,0,P|193:95|-13:69,1,300,0|0,1:2|0:0,0:0:0:0:
28,145,98912,2,0,P|4:163|31:147,1,100,6|0,1:2|0:0,0:0:0:0:
8,303,99065,6,0,P|181:209|394:121,1,400,0|6,1:2|1:2,0:0:0:0:
392,376,99524,6,0,P|348:320|267:333,1,150,0|0,1:2|0:0,0:0:0:0:
278,339,99830,1,6,1:2:0:0:
258,222,99983,6,0,P|311:323|500:319,1,300,0|0,1:2|0:0,0:0:0:0:
381,264,100289,5,6,1:2:0:0:
381,264,100442,1,0,1:2:0:0:
381,264,100596,1,0,1:2:0:0:
381,264,100749,1,0,1:2:0:0:
496,124,100902,6,0,P|480:179|406:179,1,100,6|0,1:2|0:0,0:0:0:0:
295,383,101055,2,0,P|305:268|362:84,1,300,0|0,1:2|0:0,0:0:0:0:
436,209,101361,6,0,P|394:223|370:137,1,100,6|0,1:2|0:0,0:0:0:0:
105,216,101514,2,0,P|176:124|324:1,1,300,0|0,1:2|0:0,0:0:0:0:
411,5,101820,2,0,P|419:12|405:4,1,75.0000028610231,6|0,1:2|0:0,0:0:0:0:
149,104,101973,6,0,P|106:92|138:-15,1,150.000005722046,0|0,1:2|3:2,0:0:0:0:
177,15,102203,1,0,0:0:0:0:
177,15,102279,1,6,1:2:0:0:
0,211,102432,2,0,P|103:230|154:373,1,225.000008583069,0|0,1:2|0:0,0:0:0:0:
98,371,102738,5,6,1:2:0:0:
95,365,102891,1,0,1:2:0:0:
195,195,103045,1,2,1:2:0:0:
376,287,103198,1,0,1:2:0:0:
502,26,103351,6,0,P|480:59|482:140,1,75.0000028610231,6|0,1:2|0:0,0:0:0:0:
360,0,103504,2,0,P|411:167|418:265,1,225.000008583069,4|0,1:2|0:0,0:0:0:0:
480,288,103810,2,0,P|503:279|476:282,1,75.0000028610231,6|0,1:2|0:0,0:0:0:0:
294,367,103963,6,0,P|306:236|465:200,1,300,4|0,1:2|0:0,0:0:0:0:
327,130,104269,2,0,P|286:115|319:59,1,100,6|0,1:2|0:0,0:0:0:0:
512,63,104422,6,0,P|352:33|149:-21,1,300,4|0,1:2|0:0,0:0:0:0:
74,171,104728,6,0,B|57:161|40:157|40:157|53:140|77:146,1,75.0000028610231,6|0,1:2|0:0,0:0:0:0:
172,103,104881,2,0,B|186:90|196:75|196:75|207:93|194:114,1,75.0000028610231,4|0,1:2|0:0,0:0:0:0:
200,227,105034,2,0,B|203:245|212:261|212:261|191:262|179:240,1,75.0000028610231,0|0,3:0|0:0,0:0:0:0:
146,176,105187,5,6,1:2:0:0:
512,296,105340,1,4,1:2:0:0:
138,365,105494,5,0,1:2:0:0:
213,349,105570,1,0,1:0:0:0:
289,333,105647,1,0,1:2:0:0:
14,136,110773,6,0,P|31:131|42:123,3,29.9999990844727
86,59,111998,2,0,P|100:59|117:54,3,29.9999990844727
169,148,113222,6,0,P|200:151|228:160,1,50
291,69,113835,2,0,P|322:66|350:57,1,50
476,213,114447,6,0,P|479:190|488:170,1,44.999998626709
397,223,114753,2,0,P|382:190|388:154,1,64.9999970245363
327,286,115059,2,0,P|284:258|273:212,1,85.0000016212464
346,372,115365,2,0,P|295:381|248:348,1,104.999996795654
38,288,115671,6,0,P|379:335|476:25,1,727.5
