osu file format v14

[General]
AudioFilename: audio.mp3
AudioLeadIn: 0
PreviewTime: 41870
Countdown: 0
SampleSet: Soft
StackLeniency: 0.7
Mode: 0
LetterboxInBreaks: 0
WidescreenStoryboard: 0

[Editor]
Bookmarks: 41890
DistanceSpacing: 0.8
BeatDivisor: 4
GridSize: 4
TimelineZoom: 7.599995

[Metadata]
Title:...To Eternity
TitleUnicode:...To Eternity
Artist:Gladenfold
ArtistUnicode:Gladenfold
Creator:LMT
Version:Yamicchi's Light Insane
Source:
Tags:melodic death power metal acoustic rotta olavi paavali pouttu from dusk yamicchi
BeatmapID:1056699
BeatmapSetID:496072

[Difficulty]
HPDrainRate:6
CircleSize:4
OverallDifficulty:6.5
ApproachRate:8.5
SliderMultiplier:1.50000000596046
SliderTickRate:1

[Events]
//Background and Video events
0,0,"7.jpg",0,0
//Break Periods
//Storyboard Layer 0 (Background)
//Storyboard Layer 1 (Fail)
//Storyboard Layer 2 (Pass)
//Storyboard Layer 3 (Foreground)
//Storyboard Sound Samples

[TimingPoints]
1131,366.97247706422,4,2,1,33,1,0
1406,416.666666666667,4,2,1,33,1,0
1510,444.444444444444,4,2,1,33,1,0
1732,337.078651685393,4,2,1,33,1,0
1844,472.44094488189,4,2,1,33,1,0
2080,344.827586206897,4,2,1,33,1,0
2544,350.877192982456,4,2,1,33,1,0
5351,-133.333333333333,4,2,1,33,0,0
7807,357.142857142857,4,2,1,33,1,0
8164,363.636363636364,4,2,1,33,1,0
8527,334.261838440111,4,2,1,33,1,0
8861,316.622691292876,4,2,1,33,1,0
9177,350.877192982456,4,2,1,33,1,0
9177,-125,4,2,1,33,0,0
9527,368.098159509202,4,2,1,33,1,0
9895,333.333333333333,4,2,1,33,1,0
10228,350.877192982456,4,2,1,33,1,0
10842,461.538461538462,4,2,1,33,1,0
10957,319.148936170213,4,2,1,33,1,0
11276,337.078651685393,4,2,1,33,1,0
11276,-125,4,2,1,33,0,0
11613,339.943342776204,4,2,1,33,1,0
11613,-125,4,2,1,33,0,0
12292,346.820809248555,4,2,1,33,1,0
12985,364.741641337386,4,2,1,33,1,0
13349,373.831775700935,4,2,1,33,1,0
13722,340.909090909091,4,2,1,33,1,0
14403,344.827586206897,4,2,1,33,1,0
15092,359.281437125748,4,2,1,33,1,0
15810,350.877192982456,4,2,1,33,1,0
16511,350.877192982456,4,2,1,33,1,0
16511,-133.333333333333,4,2,1,33,0,0
17914,343.445907269605,4,2,1,33,1,0
17914,-133.333333333333,4,2,1,33,0,0
18600,-133.333333333333,4,2,1,33,0,0
18944,369.230769230769,4,2,1,33,1,0
19313,333.333333333333,4,2,1,33,1,0
19313,-143.884892086331,4,2,1,33,0,0
19646,379.746835443038,4,2,1,33,1,0
20025,330.578512396694,4,2,1,33,1,0
20355,375,4,2,1,33,1,0
20355,-133.333333333333,4,2,1,33,0,0
20730,350.877192982456,4,2,1,33,1,0
20730,-133.333333333333,4,2,1,33,0,0
21431,331.491712707182,4,2,1,33,1,0
21762,388.349514563107,4,2,1,33,1,0
22150,350.877192982456,4,2,1,33,1,0
22150,-133.333333333333,4,2,1,33,0,0
23904,337.078651685393,4,2,1,33,1,0
24241,-133.333333333333,4,2,1,33,0,0
24579,363.636363636364,4,2,1,33,1,0
24942,350.877192982456,4,2,1,33,1,0
25994,366.97247706422,4,2,1,33,1,0
26360,350.877192982456,4,2,1,33,1,0
27061,-133.333333333333,4,2,1,33,0,0
29517,342.857142857143,4,2,1,33,1,0
29859,359.281437125748,4,2,1,33,1,0
29859,-133.333333333333,4,2,1,33,0,0
30218,355.029585798817,4,2,1,33,1,0
30573,-133.333333333333,4,2,1,33,0,0
31283,350.877192982456,4,2,1,33,1,0
31283,-133.333333333333,4,2,1,33,0,0
31809,331.491712707182,4,2,1,33,1,0
31974,346.820809248555,4,2,1,33,1,0
31974,-133.333333333333,4,2,1,33,0,0
32320,329.67032967033,4,2,1,33,1,0
32649,316.622691292876,4,2,1,33,1,0
32649,-133.333333333333,4,2,1,33,0,0
32965,363.636363636364,4,2,1,33,1,0
33207,512.820512820513,4,2,1,33,1,0
33377,350.877192982456,4,2,1,33,1,0
33377,-111.111111111111,4,2,1,33,0,0
33727,412.371134020619,4,2,1,33,1,0
33864,314.13612565445,4,2,1,33,1,0
34282,341.880341880342,4,2,1,33,1,0
34282,-133.333333333333,4,2,1,33,0,0
34509,383.386581469649,4,2,1,33,1,0
34764,333.333333333333,4,2,1,33,1,0
35097,350.877192982456,4,2,1,33,1,0
35798,346.820809248555,4,2,1,33,1,0
36144,353.982300884956,4,2,1,33,1,0
36144,-121.212121212121,4,2,1,33,0,0
36500,350.877192982456,4,2,1,33,1,0
36850,332.409972299169,4,2,1,33,1,0
37182,376.175548589342,4,2,1,33,1,0
37370,398.671096345515,4,2,1,33,1,0
37569,329.67032967033,4,2,1,33,1,0
37569,-111.111111111111,4,2,1,33,0,0
37898,371.517027863777,4,2,1,33,1,0
38269,350.877192982456,4,2,1,33,1,0
38269,-111.111111111111,4,2,1,33,0,0
38619,368.098159509202,4,2,1,33,1,0
38987,359.281437125748,4,2,1,33,1,0
39346,350.877192982456,4,2,1,33,1,0
39696,335.195530726257,4,2,1,33,1,0
40032,350.877192982456,4,2,1,33,1,0
40382,348.837209302326,4,2,1,33,1,0
41428,432.432432432432,4,2,1,33,1,0
41860,339.943342776204,3,2,1,33,1,0
41860,-90.9090909090909,3,2,1,33,0,0
42199,348.837209302326,3,2,1,33,1,0
42547,355.029585798817,3,2,1,33,1,0
42902,327.868852459016,3,2,1,33,1,0
43229,368.098159509202,3,2,1,33,1,0
43597,354.400472533963,3,2,1,33,1,0
43951,324.324324324324,3,2,1,33,1,0
44275,340.909090909091,3,2,1,33,1,0
44956,360.36036036036,3,2,1,33,1,0
45316,362.174495672015,3,2,1,33,1,0
46040,338.983050847458,3,2,1,33,1,0
46378,351.906158357771,3,2,1,33,1,0
47785,364.741641337386,3,2,1,33,1,0
48149,346.820809248555,3,2,1,33,1,0
50229,348.837209302326,3,2,1,33,1,0
51101,413.793103448276,3,2,1,33,1,0
51307,350.877192982456,3,2,1,33,1,0
54377,350.877192982456,3,2,1,33,1,0
54511,461.538461538462,3,2,1,33,1,0
54511,-97.799511002445,3,2,1,33,0,0
54962,333.333333333333,3,2,1,33,1,0
55295,382.165605095541,3,2,1,33,1,0
55295,-99.502487562189,3,2,1,33,0,0
55675,439.882697947214,3,2,1,33,1,0
56114,-133.333333333333,4,2,1,33,0,0
56994,620.693935820247,4,2,1,33,1,0
56994,-71.4285714285714,4,2,1,33,0,0
59166,582.52427184466,4,2,1,33,1,0
59457,564.265091740099,4,2,1,33,1,0
61149,498.616339657451,4,2,1,33,1,0
61398,431.654676258993,4,2,1,33,1,0
61613,550.45871559633,4,2,1,33,1,0
63264,413.793103448276,4,2,1,33,1,0
63470,425.531914893617,4,2,1,33,1,0
63682,629.37282997493,4,2,1,33,1,0
65570,581.9592628516,4,2,1,33,1,0
66151,350.877192982456,4,2,1,33,1,0
66501,368.098159509202,4,2,1,33,1,0
66868,419.58041958042,4,2,1,33,1,0
67147,515.021459227468,4,2,1,33,1,0
67318,472.44094488189,4,2,1,33,1,0

[Colours]
Combo1 : 184,3,252
Combo2 : 134,216,247
Combo3 : 233,165,39
Combo4 : 242,24,57

[HitObjects]
256,192,1131,12,4,2080,0:0:0:0:
188,156,5351,5,2,0:0:0:0:
256,192,5526,1,0,0:0:0:0:
324,156,5701,1,0,0:0:0:0:
128,104,6052,2,0,P|108:153|128:212,1,112.500004738569,2|0,0:0|0:0,0:0:0:0:
384,208,6754,2,0,P|403:158|384:100,1,112.500004738569,2|0,0:0|0:0,0:0:0:0:
192,232,7456,6,0,L|184:288,1,56.2500023692846,2|0,0:0|0:0,0:0:0:0:
272,352,7807,2,0,L|264:296,1,56.2500023692846,2|0,0:0|0:0,0:0:0:0:
184,216,8164,2,0,L|176:272,1,56.2500023692846,2|0,0:0|0:0,0:0:0:0:
280,368,8527,5,2,0:0:0:0:
336,192,8861,1,0,0:0:0:0:
136,144,9177,2,0,L|92:152,3,30.0000001192092,2|0|0|0,0:0|0:0|0:0|0:0,0:0:0:0:
64,160,9527,5,0,0:0:0:0:
208,64,9895,1,0,0:0:0:0:
336,192,10228,2,0,P|384:200|450:171,1,112.500000447034
468,172,10578,2,0,L|510:180,3,37.5000001490115
476,96,10957,5,4,0:0:0:0:
380,68,11276,1,0,0:0:0:0:
280,116,11613,1,2,0:0:0:0:
180,68,11952,1,0,0:0:0:0:
28,268,12292,5,0,0:0:0:0:
132,316,12638,1,0,0:0:0:0:
232,268,12985,1,2,0:0:0:0:
332,316,13349,1,0,0:0:0:0:
384,328,13535,1,0,0:0:0:0:
436,336,13722,6,0,P|456:280|420:192,2,150.000000596046,0|0|2,0:0|0:0|0:0,0:0:0:0:
348,276,14747,1,0,0:0:0:0:
328,228,14920,1,0,0:0:0:0:
332,176,15092,6,0,P|336:156|368:120,3,37.5000001490115
256,188,15451,2,0,P|256:164|276:132,3,37.5000001490115
180,200,15810,2,0,P|184:140|240:56,1,150.000000596046
400,48,16511,5,4,0:0:0:0:
463,185,16861,2,0,L|500:176,2,37.500001579523
404,232,17212,2,0,P|404:260|408:280,2,37.500001579523,2|0|0,0:0|0:0|0:0,0:0:0:0:
344,184,17563,2,0,P|316:184|296:188,2,37.500001579523,2|0|0,0:0|0:0|0:0,0:0:0:0:
416,228,17914,6,0,P|412:272|428:344,1,112.500004738569,2|0,0:0|0:0,0:0:0:0:
260,256,18600,2,0,P|276:292|352:364,1,112.500000447034
196,356,19313,1,4,0:0:0:0:
156,184,19646,1,0,0:0:0:0:
196,356,20025,1,0,0:0:0:0:
348,184,20355,6,0,P|352:156|344:136,2,37.500001579523
288,100,20730,2,0,P|320:76|404:92,1,112.500004738569,2|0,0:0|0:0,0:0:0:0:
384,256,21431,1,0,0:0:0:0:
228,328,21762,1,0,0:0:0:0:
87,228,22150,6,0,P|80:192|84:168,1,56.2500023692846,4|0,0:0|0:0,0:0:0:0:
100,96,22500,1,0,0:0:0:0:
228,232,22851,1,0,0:0:0:0:
410,190,23202,1,0,0:0:0:0:
248,68,23553,5,2,0:0:0:0:
325,236,23904,1,0,0:0:0:0:
462,109,24241,2,0,L|392:104,1,56.2500023692846
324,100,24578,1,0,0:0:0:0:
404,280,24942,5,4,0:0:0:0:
324,324,25117,1,0,0:0:0:0:
248,280,25292,1,0,0:0:0:0:
324,132,25643,1,0,0:0:0:0:
404,280,25994,1,0,0:0:0:0:
172,232,26360,5,2,0:0:0:0:
328,236,26710,1,0,0:0:0:0:
164,320,27061,2,0,B|120:332|120:332|48:320,1,112.500000447034
176,144,27763,6,0,P|228:164|260:224,1,112.500000447034,4|0,0:0|0:0,0:0:0:0:
96,184,28465,1,0,0:0:0:0:
256,104,28816,1,0,0:0:0:0:
245,282,29167,5,2,0:0:0:0:
176,144,29517,1,0,0:0:0:0:
330,153,29859,2,0,P|348:208|328:260,1,112.500004738569
168,236,30573,6,0,B|48:240,1,112.500004738569,4|0,0:0|0:0,0:0:0:0:
56,64,31283,2,0,B|176:60,1,112.500004738569
256,192,31974,6,0,P|264:216|264:240,2,37.500001579523,2|0|0,0:0|0:0|0:0,0:0:0:0:
352,227,32320,2,0,P|349:252|340:275,2,50.000000198682,2|0|0,0:0|0:0|0:0,0:0:0:0:
416,320,32649,5,2,0:0:0:0:
416,320,32754,2,0,P|382:351|327:353,1,75.0000031590461
314,357,33086,2,0,L|260:349,1,50.000000198682
256,192,33377,6,0,B|240:160|252:128|252:128|264:96|248:56,1,134.999996416568,4|0,0:0|0:0,0:0:0:0:
180,96,33864,1,2,0:0:0:0:
328,160,34282,2,0,P|336:200|311:253,1,75.0000031590461,2|2,0:0|0:0,0:0:0:0:
176,184,34764,2,0,P|112:176|40:224,1,150.000000596046
131,283,35447,1,0,0:0:0:0:
240,273,35798,1,0,0:0:0:0:
276,81,36144,5,4,0:0:0:0:
468,117,36497,1,0,0:0:0:0:
432,309,36850,1,0,0:0:0:0:
240,273,37182,1,0,0:0:0:0:
131,283,37370,1,0,0:0:0:0:
40,348,37569,6,0,P|44:264|44:196,1,134.999996416568,2|0,0:0|0:0,0:0:0:0:
44,112,38083,1,0,0:0:0:0:
144,132,38269,2,0,P|242:142|292:144,1,134.999996416568
448,240,38987,5,6,0:0:0:0:
278,142,39346,1,0,0:0:0:0:
473,121,39696,1,0,0:0:0:0:
327,252,40032,1,0,0:0:0:0:
368,60,40382,1,0,0:0:0:0:
448,240,41860,5,2,0:0:0:0:
436,272,41944,1,0,0:0:0:0:
412,296,42029,1,0,0:0:0:0:
380,308,42114,1,0,0:0:0:0:
348,312,42199,2,0,L|301:304,3,37.5000001490115,2|0|0|0,0:0|0:0|0:0|0:0,0:0:0:0:
232,328,42547,2,0,L|184:323,3,37.5000001490115
112,324,42902,5,2,0:0:0:0:
92,296,42983,1,0,0:0:0:0:
84,264,43065,1,0,0:0:0:0:
96,232,43147,1,0,0:0:0:0:
116,208,43229,2,0,L|153:210,3,37.5000001490115,2|0|0|0,0:0|0:0|0:0|0:0,0:0:0:0:
232,168,43597,2,0,L|279:165,3,37.5000001490115
360,184,43951,5,0,0:0:0:0:
384,168,44032,1,0,0:0:0:0:
400,148,44113,1,0,0:0:0:0:
412,120,44194,1,0,0:0:0:0:
412,92,44275,6,0,L|404:45,5,37.5000001490115
318,51,44786,2,0,L|329:5,1,37.5000001490115,2|0,0:0|0:0,0:0:0:0:
244,88,44956,5,2,0:0:0:0:
212,100,45046,1,0,0:0:0:0:
180,104,45136,1,0,0:0:0:0:
148,100,45226,1,0,0:0:0:0:
120,92,45316,2,0,L|133:159,3,37.5000001490115,2|0|0|0,0:0|0:0|0:0|0:0,0:0:0:0:
96,204,45678,2,0,L|102:251,3,37.5000001490115
144,304,46040,5,2,0:0:0:0:
172,312,46124,1,0,0:0:0:0:
204,312,46209,1,0,0:0:0:0:
232,308,46294,1,0,0:0:0:0:
264,300,46378,6,0,L|308:304,5,37.5000001490115,2|0|0|0|0|0,0:0|0:0|0:0|0:0|0:0|0:0,0:0:0:0:
376,336,46905,2,0,L|420:340,1,37.5000001490115,2|0,0:0|0:0,0:0:0:0:
472,288,47081,5,2,0:0:0:0:
484,260,47169,1,0,0:0:0:0:
484,228,47257,1,0,0:0:0:0:
476,200,47345,1,0,0:0:0:0:
456,184,47433,6,0,L|408:176,3,37.5000001490115,2|0|0|0,0:0|0:0|0:0|0:0,0:0:0:0:
344,172,47785,2,0,L|296:180,3,37.5000001490115,2|0|0|0,0:0|0:0|0:0|0:0,0:0:0:0:
240,144,48149,2,0,L|192:136,3,37.5000001490115,2|0|0|0,0:0|0:0|0:0|0:0,0:0:0:0:
128,156,48495,5,2,0:0:0:0:
116,184,48582,1,0,0:0:0:0:
112,212,48669,1,0,0:0:0:0:
116,240,48755,1,0,0:0:0:0:
128,268,48842,2,0,L|172:260,3,37.5000001490115,2|0|0|0,0:0|0:0|0:0|0:0,0:0:0:0:
240,236,49189,5,2,0:0:0:0:
268,248,49276,1,0,0:0:0:0:
292,264,49362,1,0,0:0:0:0:
312,288,49449,1,0,0:0:0:0:
332,312,49536,2,0,L|376:304,3,37.5000001490115,2|0|0|0,0:0|0:0|0:0|0:0,0:0:0:0:
444,320,49883,2,0,L|488:328,3,37.5000001490115
512,256,50229,5,2,0:0:0:0:
500,228,50316,1,0,0:0:0:0:
480,208,50403,1,0,0:0:0:0:
456,192,50490,1,0,0:0:0:0:
428,188,50577,6,0,L|376:192,5,37.5000001490115,2|0|0|0|0|0,0:0|0:0|0:0|0:0|0:0|0:0,0:0:0:0:
320,152,51101,2,0,L|324:104,1,37.5000001490115,2|0,0:0|0:0,0:0:0:0:
248,84,51307,6,0,L|200:80,3,37.5000001490115,2|0|0|0,0:0|0:0|0:0|0:0,0:0:0:0:
132,96,51657,2,0,L|84:100,3,37.5000001490115,2|0|0|0,0:0|0:0|0:0|0:0,0:0:0:0:
28,144,52008,2,0,L|32:192,3,37.5000001490115
68,248,52359,5,2,0:0:0:0:
100,248,52447,1,0,0:0:0:0:
132,248,52535,1,0,0:0:0:0:
160,248,52622,1,0,0:0:0:0:
192,248,52710,2,0,P|200:288|200:308,3,37.5000001490115,2|0|0|0,0:0|0:0|0:0|0:0,0:0:0:0:
252,336,53061,5,2,0:0:0:0:
280,344,53149,1,0,0:0:0:0:
308,344,53236,1,0,0:0:0:0:
336,336,53324,1,0,0:0:0:0:
360,320,53412,1,2,0:0:0:0:
380,296,53499,1,0,0:0:0:0:
388,268,53587,1,0,0:0:0:0:
384,240,53675,1,0,0:0:0:0:
372,212,53763,6,0,P|364:172|364:164,3,37.5000001490115,2|0|0|0,0:0|0:0|0:0|0:0,0:0:0:0:
360,100,54114,2,0,P|366:59|368:52,3,37.5000001490115,2|0|0|0,0:0|0:0|0:0|0:0,0:0:0:0:
304,16,54511,6,0,P|236:46|164:28,1,150.000000596046,4|0,0:0|0:0,0:0:0:0:
88,48,55295,6,0,B|104:104|104:104|92:200,1,150.000000596046
112,272,56114,6,0,B|140:284|172:276|172:276|204:268|235:279,1,112.500004738569
320,332,56994,6,0,B|344:280|336:232|304:196|304:196|300:136|344:40|480:96|440:244|344:208|304:196|304:196|264:152|201:158|201:158|160:192|98:174,1,682.499981883763,2|0,0:0|0:0,0:0:0:0:
140,92,59166,6,0,L|113:86,3,25.000000099341,0|0|0|2,0:0|0:0|0:0|0:0,0:0:0:0:
224,48,61398,6,0,L|264:56,3,25.000000099341,0|0|0|2,0:0|0:0|0:0|0:0,0:0:0:0:
240,128,63470,6,0,L|186:120,2,37.5000001490115
232,120,66151,6,0,B|248:144|248:144|224:168|208:208|224:264,1,150.000000596046,4|0,0:0|0:0,0:0:0:0:
288,312,66623,2,0,L|344:320,1,50.000000198682
408,264,66869,6,0,P|416:240|412:193,2,50.000000198682
332,224,67318,5,0,0:0:0:0:
320,72,67554,1,2,0:0:0:0:
