osu file format v14

[General]
AudioFilename: audio.mp3
AudioLeadIn: 0
PreviewTime: 41870
Countdown: 0
SampleSet: Soft
StackLeniency: 0.7
Mode: 0
LetterboxInBreaks: 0
WidescreenStoryboard: 0

[Editor]
Bookmarks: 41890
DistanceSpacing: 0.6
BeatDivisor: 4
GridSize: 4
TimelineZoom: 1.8

[Metadata]
Title:...To Eternity
TitleUnicode:...To Eternity
Artist:Gladenfold
ArtistUnicode:Gladenfold
Creator:LMT
Version:Insane
Source:
Tags:melodic death power metal acoustic rotta olavi paavali pouttu from dusk yamicchi
BeatmapID:1055945
BeatmapSetID:496072

[Difficulty]
HPDrainRate:7
CircleSize:5
OverallDifficulty:7
ApproachRate:9
SliderMultiplier:1.60000000596046
SliderTickRate:1

[Events]
//Background and Video events
0,0,"7.jpg",0,0
//Break Periods
//Storyboard Layer 0 (Background)
//Storyboard Layer 1 (Fail)
//Storyboard Layer 2 (Pass)
//Storyboard Layer 3 (Foreground)
//Storyboard Sound Samples

[TimingPoints]
1131,366.97247706422,4,2,1,33,1,0
1131,-133.333333333333,4,2,1,33,0,0
1406,416.666666666667,4,2,1,33,1,0
1510,444.444444444444,4,2,1,33,1,0
1732,337.078651685393,4,2,1,33,1,0
1844,472.44094488189,4,2,1,33,1,0
2080,344.827586206897,4,2,1,33,1,0
2544,350.877192982456,4,2,1,33,1,0
7807,357.142857142857,4,2,1,33,1,0
8164,363.636363636364,4,2,1,33,1,0
8527,334.261838440111,4,2,1,33,1,0
8861,316.622691292876,4,2,1,33,1,0
9177,350.877192982456,4,2,1,33,1,0
9527,368.098159509202,4,2,1,33,1,0
9895,333.333333333333,4,2,1,33,1,0
10228,350.877192982456,4,2,1,33,1,0
10842,461.538461538462,4,2,1,33,1,0
10957,319.148936170213,4,2,1,33,1,0
10957,-111.111111111111,4,2,1,33,0,0
11276,337.078651685393,4,2,1,33,1,0
11613,339.943342776204,4,2,1,33,1,0
12292,346.820809248555,4,2,1,33,1,0
12985,364.741641337386,4,2,1,33,1,0
12985,-133.333333333333,4,2,1,33,0,0
13349,373.831775700935,4,2,1,33,1,0
13722,340.909090909091,4,2,1,33,1,0
13722,-100,4,2,1,33,0,0
14403,344.827586206897,4,2,1,33,1,0
15092,359.281437125748,4,2,1,33,1,0
15181,-100,4,2,1,10,0,0
15451,-100,4,2,1,5,0,0
15810,350.877192982456,4,2,1,33,1,0
16511,350.877192982456,4,2,1,33,1,0
17914,343.445907269605,4,2,1,33,1,0
18944,369.230769230769,4,2,1,33,1,0
19313,333.333333333333,4,2,1,33,1,0
19313,-105.263157894737,4,2,1,33,0,0
19646,379.746835443038,4,2,1,33,1,0
20025,330.578512396694,4,2,1,33,1,0
20355,375,4,2,1,33,1,0
20730,350.877192982456,4,2,1,33,1,0
21431,331.491712707182,4,2,1,33,1,0
21762,388.349514563107,4,2,1,33,1,0
22150,350.877192982456,4,2,1,33,1,0
23904,337.078651685393,4,2,1,33,1,0
24579,363.636363636364,4,2,1,33,1,0
24579,-142.857142857143,4,2,1,33,0,0
24760,-133.333333333333,4,2,1,5,0,0
24942,350.877192982456,4,2,1,33,1,0
24942,-100,4,2,1,33,0,0
25994,366.97247706422,4,2,1,33,1,0
26360,350.877192982456,4,2,1,33,1,0
26360,-133.333333333333,4,2,1,33,0,0
27061,-100,4,2,1,33,0,0
29517,342.857142857143,4,2,1,33,1,0
29859,359.281437125748,4,2,1,33,1,0
30218,355.029585798817,4,2,1,33,1,0
30564,-100,4,2,1,12,0,0
30652,-100,4,2,1,20,0,0
31283,350.877192982456,4,2,1,33,1,0
31809,331.491712707182,4,2,1,15,1,0
31809,-100,4,2,1,15,0,0
31974,346.820809248555,4,2,1,33,1,0
31974,-100,4,2,1,33,0,0
32320,329.67032967033,4,2,1,33,1,0
32649,316.622691292876,4,2,1,33,1,0
32965,363.636363636364,4,2,1,33,1,0
33207,512.820512820513,4,2,1,33,1,0
33377,350.877192982456,4,2,1,33,1,0
33392,-97.5609756097561,4,2,1,33,0,0
33727,412.371134020619,4,2,1,33,1,0
33864,314.13612565445,4,2,1,33,1,0
33864,-133.333333333333,4,2,1,33,0,0
34135,-100,4,2,1,5,0,0
34282,341.880341880342,4,2,1,33,1,0
34282,-143.884892086331,4,2,1,33,0,0
34424,-100,4,2,1,5,0,0
34509,383.386581469649,4,2,1,33,1,0
34509,-166.666666666667,4,2,1,33,0,0
34687,-100,4,2,1,5,0,0
34764,333.333333333333,4,2,1,33,1,0
35097,350.877192982456,4,2,1,33,1,0
35798,346.820809248555,4,2,1,33,1,0
36144,353.982300884956,4,2,1,33,1,0
36144,-156.25,4,2,1,33,0,0
36500,350.877192982456,4,2,1,33,1,0
36850,332.409972299169,4,2,1,33,1,0
37182,376.175548589342,4,2,1,33,1,0
37370,398.671096345515,4,2,1,33,1,0
37569,329.67032967033,4,2,1,33,1,0
37569,-148.148148148148,4,2,1,33,0,0
37898,371.517027863777,4,2,1,33,1,0
38269,350.877192982456,4,2,1,33,1,0
38619,368.098159509202,4,2,1,33,1,0
38987,359.281437125748,4,2,1,33,1,0
39346,350.877192982456,4,2,1,33,1,0
39696,335.195530726257,4,2,1,33,1,0
40032,350.877192982456,4,2,1,33,1,0
40382,348.837209302326,4,2,1,33,1,0
40470,-100,4,2,1,5,0,0
40564,-100,4,2,1,33,0,0
41428,432.432432432432,4,2,1,33,1,0
41860,339.943342776204,3,2,1,33,1,0
42199,348.837209302326,3,2,1,33,1,0
42547,355.029585798817,3,2,1,33,1,0
42902,327.868852459016,3,2,1,33,1,0
43229,368.098159509202,3,2,1,33,1,0
43597,354.400472533963,3,2,1,33,1,0
43951,324.324324324324,3,2,1,33,1,0
44275,340.909090909091,3,2,1,33,1,0
44956,360.36036036036,3,2,1,33,1,0
45316,362.174495672015,3,2,1,33,1,0
46040,338.983050847458,3,2,1,33,1,0
46290,-100,3,2,1,5,0,0
46378,351.906158357771,3,2,1,33,1,0
46378,-100,3,2,1,33,0,0
47785,364.741641337386,3,2,1,33,1,0
48149,346.820809248555,3,2,1,33,1,0
50229,348.837209302326,3,2,1,33,1,0
50229,-100,3,2,1,33,0,0
51101,413.793103448276,3,2,1,33,1,0
51307,350.877192982456,3,2,1,33,1,0
51572,-100,3,2,1,5,0,0
51660,-100,3,2,1,33,0,0
52622,-100,3,2,1,5,0,0
52712,-100,3,2,1,33,0,0
54377,350.877192982456,3,2,1,33,1,0
54511,461.538461538462,3,2,1,33,1,0
54847,-100,4,2,1,5,0,0
54962,333.333333333333,3,2,1,33,1,0
54962,-133.333333333333,4,2,1,33,0,0
55212,-133.333333333333,4,2,1,5,0,0
55295,382.165605095541,3,2,1,33,1,0
55585,-100,4,2,1,5,0,0
55675,439.882697947214,3,2,1,33,1,0
56004,-100,4,2,1,5,0,0
56444,-100,4,2,1,5,0,0
56554,-100,4,2,1,7,0,0
56884,-100,4,2,1,5,0,0
56994,620.693935820247,4,2,1,5,1,0
56994,-100,4,2,1,5,0,0
59166,582.52427184466,4,2,1,33,1,0
59457,564.265091740099,4,2,1,33,1,0
61149,498.616339657451,4,2,1,33,1,0
61398,431.654676258993,4,2,1,33,1,0
61613,550.45871559633,4,2,1,33,1,0
63264,413.793103448276,4,2,1,33,1,0
63470,425.531914893617,4,2,1,33,1,0
63682,629.37282997493,4,2,1,33,1,0
65570,581.9592628516,4,2,1,33,1,0
66151,350.877192982456,4,2,1,33,1,0
66408,-100,4,2,1,5,0,0
66501,368.098159509202,4,2,1,33,1,0
66501,-100,4,2,1,33,0,0
66868,419.58041958042,4,2,1,33,1,0
67147,515.021459227468,4,2,1,33,1,0
67318,472.44094488189,4,2,1,33,1,0
67554,-100,4,2,1,15,0,0

[Colours]
Combo1 : 184,3,252
Combo2 : 134,216,247
Combo3 : 233,165,39
Combo4 : 242,24,57

[HitObjects]
122,156,1131,54,0,L|161:134,3,30.0000012561679
224,167,1510,2,0,L|251:179,3,26.6666667660077
321,155,1844,2,0,L|347:144,3,26.6666667660077
34,205,5351,5,0,0:0:0:0:
126,181,5526,1,0,0:0:0:0:
218,209,5702,2,0,P|254:240|306:253,1,80.000000298023
382,225,6052,2,0,L|434:153,1,80.000000298023,2|0,0:0|0:0,0:0:0:0:
426,289,6403,2,0,L|378:353,1,80.000000298023,2|0,0:0|0:0,0:0:0:0:
282,349,6754,6,0,B|235:357|202:333|202:333|162:353|90:325,1,160.000000596046,2|0,0:0|0:0,0:0:0:0:
103,112,7456,2,0,P|167:144|215:152,1,80.000000298023,2|0,0:0|0:0,0:0:0:0:
267,88,7807,2,0,P|291:156|315:180,1,80.000000298023,2|0,0:0|0:0,0:0:0:0:
432,108,8164,2,0,P|384:156|368:200,1,80.000000298023,2|0,0:0|0:0,0:0:0:0:
420,264,8527,6,0,P|356:304|228:284,1,160.000000596046
176,144,9177,1,0,0:0:0:0:
192,132,9264,1,0,0:0:0:0:
212,128,9352,1,0,0:0:0:0:
232,136,9440,1,0,0:0:0:0:
244,152,9527,6,0,P|228:224|160:288,1,160.000000596046,2|0,0:0|0:0,0:0:0:0:
25,115,10228,2,0,P|32:68|52:44,1,80.000000298023
82,49,10491,1,0,0:0:0:0:
82,49,10578,38,0,P|126:49|146:33,1,40.0000001490115
188,99,10754,2,0,P|212:79|220:55,1,40.0000001490115
316,30,10957,22,0,P|352:94|300:174,1,143.99999614191,2|0,0:0|0:0,0:0:0:0:
132,220,11613,1,0,0:0:0:0:
132,36,11952,1,0,0:0:0:0:
300,108,12292,6,0,P|368:120|468:80,1,160.000000596046,2|0,0:0|0:0,0:0:0:0:
280,40,12985,38,0,P|212:28|164:44,1,120.000005024671,2|0,0:0|0:0,0:0:0:0:
112,96,13535,1,0,0:0:0:0:
176,188,13722,6,0,P|244:200|344:160,1,160.000000596046,2|0,0:0|0:0,0:0:0:0:
196,8,14403,1,0,0:0:0:0:
196,8,14747,1,0,0:0:0:0:
248,106,14920,1,0,0:0:0:0:
412,71,15092,38,0,L|472:87,7,40.0000001490115
376,96,15810,1,0,0:0:0:0:
240,205,16160,1,0,0:0:0:0:
130,61,16511,21,0,0:0:0:0:
29,209,16861,1,2,0:0:0:0:
47,211,16978,2,0,P|80:202|107:187,1,53.3333335320153
150,266,17212,1,2,0:0:0:0:
132,264,17329,2,0,P|99:273|72:288,1,53.3333335320153
85,353,17563,1,2,0:0:0:0:
148,346,17680,1,0,0:0:0:0:
201,310,17797,1,0,0:0:0:0:
235,256,17914,6,0,P|259:196|207:92,1,160.000000596046,2|0,0:0|0:0,0:0:0:0:
38,192,18600,2,0,P|118:212|192:182,1,160.000000596046,2|0,0:0|0:0,0:0:0:0:
420,32,19313,6,0,P|452:136|424:192,1,151.999996507406,2|0,0:0|0:0,0:0:0:0:
294,345,20025,1,0,0:0:0:0:
216,231,20355,2,0,L|256:291,2,53.3333335320153
168,144,20730,6,0,P|156:84|248:-12,1,160.000000596046,2|0,0:0|0:0,0:0:0:0:
376,96,21431,2,0,P|388:156|344:252,1,160.000000596046
120,340,22150,38,0,L|80:260,1,80.000000298023,2|0,0:0|0:0,0:0:0:0:
24,148,22500,1,0,0:0:0:0:
248,196,22851,1,0,0:0:0:0:
288,336,23202,1,0,0:0:0:0:
220,96,23553,1,2,0:0:0:0:
220,96,23904,37,0,0:0:0:0:
312,188,24072,1,0,0:0:0:0:
220,281,24241,1,0,0:0:0:0:
128,188,24409,1,0,0:0:0:0:
270,50,24579,6,0,P|330:50|365:70,1,83.9999977494476,2|0,0:0|0:0,0:0:0:0:
387,78,24942,38,0,P|395:138|423:178,1,80.000000298023,4|0,0:0|0:0,0:0:0:0:
464,224,25292,2,0,P|348:252|304:296,1,160.000000596046
128,248,25994,1,0,0:0:0:0:
159,60,26360,6,0,P|235:112|279:112,1,120.000000447034,2|0,0:0|0:0,0:0:0:0:
392,46,27061,38,0,P|313:58|255:125,1,160.000000596046,2|0,0:0|0:0,0:0:0:0:
256,211,27588,1,0,0:0:0:0:
255,307,27764,21,2,0:0:0:0:
440,108,28114,1,0,0:0:0:0:
349,207,28465,1,0,0:0:0:0:
152,76,28816,1,0,0:0:0:0:
132,268,29167,6,0,L|140:176,1,80.000000298023,2|0,0:0|0:0,0:0:0:0:
152,76,29517,1,0,0:0:0:0:
335,266,29859,1,0,0:0:0:0:
190,150,30218,1,0,0:0:0:0:
278,153,30395,1,0,0:0:0:0:
363,155,30573,37,4,0:0:0:0:
216,328,30928,1,0,0:0:0:0:
363,155,31283,2,0,P|395:217|363:307,1,160.000000596046
280,232,31809,1,0,0:0:0:0:
280,232,31891,1,0,0:0:0:0:
280,232,31974,6,0,P|241:250|204:247,2,53.3333335320153
212,313,32320,2,0,P|178:298|164:277,2,53.3333335320153,2|0|0,0:0|0:0|0:0,0:0:0:0:
116,238,32649,5,0,0:0:0:0:
92,232,32754,2,0,P|75:182|86:146,1,53.3333335320153
10,182,32965,5,0,0:0:0:0:
6,158,33086,2,0,P|33:127|78:114,1,53.3333335320153
256,68,33377,38,0,P|316:104|408:81,1,160.000000596046,6|0,0:0|0:0,0:0:0:0:
400,160,33864,6,0,P|440:208|428:268,1,120.000005024671
476,260,34282,38,0,P|474:299|456:324,1,55.6000019039034
496,336,34509,6,0,P|485:364|456:380,1,47.9999987139701
440,348,34764,38,0,P|372:376|268:344,1,160.000000596046,2|0,0:0|0:0,0:0:0:0:
180,162,35447,1,0,0:0:0:0:
400,84,35798,1,2,0:0:0:0:
160,244,36144,38,0,P|104:220|92:168,1,102.000002325475,6|0,0:0|0:0,0:0:0:0:
412,184,36850,1,0,0:0:0:0:
412,184,37182,2,0,P|356:176|328:156,1,80.000000298023
244,100,37569,38,0,P|226:55|176:16,1,108.000000814318,6|0,0:0|0:0,0:0:0:0:
189,162,38083,1,2,0:0:0:0:
189,162,38269,2,0,P|120:132|109:26,1,160.000000596046,0|2,0:0|0:0,0:0:0:0:
296,124,38987,5,4,0:0:0:0:
388,256,39346,1,0,0:0:0:0:
244,240,39696,1,0,0:0:0:0:
424,128,40031,1,0,0:0:0:0:
220,328,40382,38,0,L|172:328,1,40.0000001490115
128,124,41860,21,2,0:0:0:0:
136,156,41944,1,0,0:0:0:0:
144,188,42029,2,0,L|155:248,1,40.0000001490115
236,136,42199,5,2,0:0:0:0:
240,104,42286,1,0,0:0:0:0:
244,72,42373,2,0,L|247:8,1,40.0000001490115
328,176,42547,2,0,L|328:232,1,40.0000001490115
420,116,42724,2,0,L|420:76,1,40.0000001490115
480,261,42902,37,6,0:0:0:0:
448,270,42983,1,0,0:0:0:0:
416,279,43065,2,0,L|349:296,1,40.0000001490115
229,253,43229,5,2,0:0:0:0:
221,222,43321,1,0,0:0:0:0:
213,190,43413,2,0,L|199:125,1,40.0000001490115
57,109,43597,2,0,L|32:45,1,40.0000001490115
203,151,43774,2,0,L|194:111,1,40.0000001490115
10,212,43951,37,6,0:0:0:0:
5,241,44032,1,0,0:0:0:0:
11,273,44113,1,0,0:0:0:0:
25,292,44194,1,0,0:0:0:0:
47,310,44275,2,0,L|51:352,5,40.0000001490115,6|0|0|0|0|0,0:0|0:0|0:0|0:0|0:0|0:0,0:0:0:0:
166,305,44786,5,6,0:0:0:0:
190,322,44871,1,0,0:0:0:0:
219,328,44956,2,0,L|260:310,3,40.0000001490115
305,209,45316,37,6,0:0:0:0:
278,226,45406,1,0,0:0:0:0:
251,244,45497,1,0,0:0:0:0:
211,247,45587,1,0,0:0:0:0:
172,236,45678,1,0,0:0:0:0:
141,212,45768,1,0,0:0:0:0:
117,180,45859,2,0,L|98:141,1,40.0000001490115
104,68,46040,6,0,B|160:20|220:56,1,120.000000447034,6|0,0:0|0:0,0:0:0:0:
248,52,46378,37,2,0:0:0:0:
280,48,46465,1,0,0:0:0:0:
312,56,46553,1,0,0:0:0:0:
340,68,46641,1,0,0:0:0:0:
372,76,46729,5,2,0:0:0:0:
404,76,46817,1,0,0:0:0:0:
436,68,46905,2,0,L|476:44,1,40.0000001490115
464,140,47081,37,6,0:0:0:0:
464,173,47169,1,0,0:0:0:0:
451,203,47257,1,0,0:0:0:0:
429,227,47345,1,0,0:0:0:0:
398,241,47433,5,2,0:0:0:0:
365,242,47521,1,0,0:0:0:0:
334,231,47609,2,0,P|292:216|264:216,1,40.0000001490115
178,220,47785,37,2,0:0:0:0:
154,240,47876,1,0,0:0:0:0:
130,260,47967,2,0,L|74:308,1,40.0000001490115
116,104,48149,5,6,0:0:0:0:
140,84,48235,1,0,0:0:0:0:
164,64,48322,2,0,L|220:16,1,40.0000001490115
280,156,48495,37,2,0:0:0:0:
248,156,48582,1,0,0:0:0:0:
216,156,48669,2,0,L|152:156,1,40.0000001490115
256,24,48842,5,2,0:0:0:0:
276,48,48929,1,0,0:0:0:0:
296,72,49016,2,0,L|344:128,1,40.0000001490115
392,224,49189,37,6,0:0:0:0:
372,248,49276,1,0,0:0:0:0:
344,264,49362,1,0,0:0:0:0:
312,272,49449,1,0,0:0:0:0:
280,276,49536,6,0,L|249:302,3,40.0000001490115,2|0|0|0,0:0|0:0|0:0|0:0,0:0:0:0:
217,195,49883,2,0,L|188:143,3,40.0000001490115,2|0|0|0,0:0|0:0|0:0|0:0,0:0:0:0:
197,66,50229,37,6,0:0:0:0:
171,46,50316,1,0,0:0:0:0:
141,35,50403,2,0,P|108:35|73:50,1,40.0000001490115
23,43,50577,5,2,0:0:0:0:
7,71,50665,1,0,0:0:0:0:
7,103,50752,1,0,0:0:0:0:
19,135,50839,1,0,0:0:0:0:
39,159,50926,1,2,0:0:0:0:
55,187,51013,1,0,0:0:0:0:
63,219,51101,2,0,P|64:249|58:271,1,40.0000001490115
76,336,51307,38,0,P|104:368|196:364,1,120.000000447034,6|0,0:0|0:0,0:0:0:0:
216,356,51657,5,2,0:0:0:0:
240,336,51745,1,0,0:0:0:0:
272,332,51833,1,0,0:0:0:0:
304,336,51921,1,0,0:0:0:0:
332,348,52008,1,2,0:0:0:0:
364,360,52096,1,0,0:0:0:0:
396,364,52184,1,0,0:0:0:0:
428,360,52271,1,0,0:0:0:0:
452,340,52359,38,0,B|477:296|415:246|460:188,1,120.000000447034,6|0,0:0|0:0,0:0:0:0:
472,188,52710,5,2,0:0:0:0:
468,156,52798,1,0,0:0:0:0:
448,132,52885,1,0,0:0:0:0:
420,116,52973,1,0,0:0:0:0:
400,116,53061,37,2,0:0:0:0:
380,120,53149,1,0,0:0:0:0:
360,120,53236,1,0,0:0:0:0:
340,112,53324,1,0,0:0:0:0:
320,116,53412,5,6,0:0:0:0:
300,124,53499,1,0,0:0:0:0:
284,132,53587,1,0,0:0:0:0:
272,148,53675,1,0,0:0:0:0:
248,164,53763,37,6,0:0:0:0:
224,176,53850,1,0,0:0:0:0:
196,180,53938,1,0,0:0:0:0:
168,176,54026,1,0,0:0:0:0:
136,164,54114,5,6,0:0:0:0:
100,160,54201,1,0,0:0:0:0:
64,164,54289,2,0,P|32:180|16:192,1,40.0000001490115
44,256,54511,38,0,P|104:276|180:276,1,120.000000447034,2|0,0:0|0:0,0:0:0:0:
192,256,54962,6,0,P|256:248|300:264,1,90.0000037685036
304,272,55295,38,0,P|380:272|440:248,1,120.000000447034
436,232,55675,6,0,P|462:174|461:98,1,120.000000447034
444,88,56114,38,0,P|380:48|328:48,1,120.000000447034
304,64,56554,6,0,P|224:84|156:68,1,120.000000447034
160,56,56994,6,0,P|108:52|84:60,1,53.3333335320153
144,196,59166,6,0,L|184:204,3,26.6666667660077
320,152,61398,38,0,L|304:180,3,26.6666667660077
112,176,63470,6,0,L|101:216,2,40.0000001490115
120,104,66151,6,0,P|110:153|159:222,1,120.000000447034
196,144,66501,38,0,L|280:124,2,53.3333335320153
260,64,66869,6,0,L|253:-2,2,53.3333335320153
328,112,67318,37,0,0:0:0:0:
484,24,67554,1,0,0:0:0:0:
