osu file format v14

[General]
AudioFilename: audio.mp3
AudioLeadIn: 0
PreviewTime: 41870
Countdown: 0
SampleSet: Soft
StackLeniency: 0.7
Mode: 0
LetterboxInBreaks: 0
WidescreenStoryboard: 0

[Editor]
DistanceSpacing: 1
BeatDivisor: 4
GridSize: 4
TimelineZoom: 2.9

[Metadata]
Title:...To Eternity
TitleUnicode:...To Eternity
Artist:Gladenfold
ArtistUnicode:Gladenfold
Creator:LMT
Version:Normal
Source:
Tags:melodic death power metal acoustic rotta olavi paavali pouttu from dusk yamicchi
BeatmapID:1056037
BeatmapSetID:496072

[Difficulty]
HPDrainRate:4
CircleSize:3.5
OverallDifficulty:3
ApproachRate:5
SliderMultiplier:1.00000000596046
SliderTickRate:1

[Events]
//Background and Video events
0,0,"7.jpg",0,0
//Break Periods
//Storyboard Layer 0 (Background)
//Storyboard Layer 1 (Fail)
//Storyboard Layer 2 (Pass)
//Storyboard Layer 3 (Foreground)
//Storyboard Sound Samples

[TimingPoints]
1131,366.97247706422,4,2,1,33,1,0
1131,-100,4,2,1,33,0,0
1406,416.666666666667,4,2,1,33,1,0
1510,444.444444444444,4,2,1,33,1,0
1732,337.078651685393,4,2,1,33,1,0
1844,472.44094488189,4,2,1,33,1,0
2080,344.827586206897,4,2,1,33,1,0
2544,350.877192982456,4,2,1,33,1,0
7807,357.142857142857,4,2,1,33,1,0
8164,363.636363636364,4,2,1,33,1,0
8527,334.261838440111,4,2,1,33,1,0
8861,316.622691292876,4,2,1,33,1,0
9177,350.877192982456,4,2,1,33,1,0
9527,368.098159509202,4,2,1,33,1,0
9895,333.333333333333,4,2,1,33,1,0
10228,350.877192982456,4,2,1,33,1,0
10842,461.538461538462,4,2,1,33,1,0
10957,319.148936170213,4,2,1,33,1,0
11276,337.078651685393,4,2,1,33,1,0
11613,339.943342776204,4,2,1,33,1,0
12292,346.820809248555,4,2,1,33,1,0
12985,364.741641337386,4,2,1,33,1,0
13349,373.831775700935,4,2,1,33,1,0
13722,340.909090909091,4,2,1,33,1,0
14403,344.827586206897,4,2,1,33,1,0
15092,359.281437125748,4,2,1,33,1,0
15810,350.877192982456,4,2,1,33,1,0
16511,350.877192982456,4,2,1,33,1,0
17914,343.445907269605,4,2,1,33,1,0
18944,369.230769230769,4,2,1,33,1,0
19313,333.333333333333,4,2,1,33,1,0
19313,-100,4,2,1,33,0,0
19646,379.746835443038,4,2,1,33,1,0
20025,330.578512396694,4,2,1,33,1,0
20355,375,4,2,1,33,1,0
20730,350.877192982456,4,2,1,33,1,0
20730,-100,4,2,1,33,0,0
21431,331.491712707182,4,2,1,33,1,0
21762,388.349514563107,4,2,1,33,1,0
22150,350.877192982456,4,2,1,33,1,0
22150,-100,4,2,1,33,0,0
22325,-100,4,2,1,33,0,0
23904,337.078651685393,4,2,1,33,1,0
24579,363.636363636364,4,2,1,33,1,0
24942,350.877192982456,4,2,1,33,1,0
25994,366.97247706422,4,2,1,33,1,0
26360,350.877192982456,4,2,1,33,1,0
29517,342.857142857143,4,2,1,33,1,0
29859,359.281437125748,4,2,1,33,1,0
30218,355.029585798817,4,2,1,33,1,0
31283,350.877192982456,4,2,1,33,1,0
31809,331.491712707182,4,2,1,33,1,0
31974,346.820809248555,4,2,1,33,1,0
32320,329.67032967033,4,2,1,33,1,0
32649,316.622691292876,4,2,1,33,1,0
32965,363.636363636364,4,2,1,33,1,0
33207,512.820512820513,4,2,1,33,1,0
33377,350.877192982456,4,2,1,33,1,0
33377,-92.5925925925926,4,2,1,33,0,0
33727,412.371134020619,4,2,1,33,1,0
33864,314.13612565445,4,2,1,33,1,0
34282,341.880341880342,4,2,1,33,1,0
34282,-98.5221674876847,4,2,1,33,0,0
34509,383.386581469649,4,2,1,33,1,0
34764,333.333333333333,4,2,1,33,1,0
35097,350.877192982456,4,2,1,33,1,0
35798,346.820809248555,4,2,1,33,1,0
36144,353.982300884956,4,2,1,33,1,0
36500,350.877192982456,4,2,1,33,1,0
36850,332.409972299169,4,2,1,33,1,0
37182,376.175548589342,4,2,1,33,1,0
37370,398.671096345515,4,2,1,33,1,0
37569,329.67032967033,4,2,1,33,1,0
37569,-102.040816326531,4,2,1,33,0,0
37898,371.517027863777,4,2,1,33,1,0
38269,350.877192982456,4,2,1,33,1,0
38619,368.098159509202,4,2,1,33,1,0
38987,359.281437125748,4,2,1,33,1,0
39346,350.877192982456,4,2,1,33,1,0
39696,335.195530726257,4,2,1,33,1,0
40032,350.877192982456,4,2,1,33,1,0
40382,348.837209302326,4,2,1,33,1,0
41428,432.432432432432,4,2,1,33,1,0
41860,339.943342776204,3,2,1,33,1,0
42199,348.837209302326,3,2,1,33,1,0
42547,355.029585798817,3,2,1,33,1,0
42902,327.868852459016,3,2,1,33,1,0
43229,368.098159509202,3,2,1,33,1,0
43597,354.400472533963,3,2,1,33,1,0
43951,324.324324324324,3,2,1,33,1,0
44275,340.909090909091,3,2,1,33,1,0
44786,-103.626943005181,3,2,1,33,0,0
44956,360.36036036036,3,2,1,33,1,0
45316,362.174495672015,3,2,1,33,1,0
46040,338.983050847458,3,2,1,33,1,0
46378,351.906158357771,3,2,1,33,1,0
47785,364.741641337386,3,2,1,33,1,0
48149,346.820809248555,3,2,1,33,1,0
50229,348.837209302326,3,2,1,33,1,0
51101,413.793103448276,3,2,1,33,1,0
51307,350.877192982456,3,2,1,33,1,0
54377,350.877192982456,3,2,1,33,1,0
54511,461.538461538462,3,2,1,33,1,0
54511,-97.799511002445,3,2,1,33,0,0
54962,333.333333333333,3,2,1,33,1,0
55295,382.165605095541,3,2,1,33,1,0
55295,-99.502487562189,3,2,1,33,0,0
55675,439.882697947214,3,2,1,33,1,0
56994,620.693935820247,4,2,1,33,1,0
59166,582.52427184466,4,2,1,33,1,0
59457,564.265091740099,4,2,1,33,1,0
61149,498.616339657451,4,2,1,33,1,0
61398,431.654676258993,4,2,1,33,1,0
61613,550.45871559633,4,2,1,33,1,0
63264,413.793103448276,4,2,1,33,1,0
63470,425.531914893617,4,2,1,33,1,0
63682,629.37282997493,4,2,1,33,1,0
65570,581.9592628516,4,2,1,33,1,0
66151,350.877192982456,4,2,1,33,1,0
66501,368.098159509202,4,2,1,33,1,0
66501,-104.004160166407,4,2,1,33,0,0
66868,419.58041958042,4,2,1,33,1,0
67147,515.021459227468,4,2,1,33,1,0
67318,472.44094488189,4,2,1,33,1,0
67554,-100,4,2,1,5,0,0

[Colours]
Combo1 : 184,3,252
Combo2 : 134,216,247
Combo3 : 233,165,39
Combo4 : 242,24,57

[HitObjects]
256,192,1131,12,0,2080,0:0:0:0:
80,116,5351,6,0,P|128:104|192:120,1,100.000000596046
240,188,6052,2,0,P|300:200|352:184,1,100.000000596046,2|2,0:0|0:0,0:0:0:0:
400,112,6754,1,2,0:0:0:0:
400,112,7456,6,0,P|424:144|436:184,1,50.0000002980232,2|0,0:0|0:0,0:0:0:0:
471,171,7807,2,0,P|463:199|427:235,1,50.0000002980232,2|0,0:0|0:0,0:0:0:0:
473,261,8164,2,0,P|445:285|409:289,1,50.0000002980232,2|0,0:0|0:0,0:0:0:0:
379,272,8527,6,0,P|319:260|263:268,1,100.000000596046
199,223,9177,2,0,P|155:223|123:207,1,50.0000002980232
129,175,9527,2,0,P|113:111|125:47,1,100.000000596046,2|0,0:0|0:0,0:0:0:0:
212,56,10229,1,0,0:0:0:0:
292,96,10578,2,0,P|324:124|336:152,1,50.000000298023
324,180,10957,37,2,0:0:0:0:
256,248,11276,1,0,0:0:0:0:
156,240,11613,2,0,P|96:204|80:164,1,100.000000596046
148,112,12292,2,0,P|207:147|223:187,1,100.000000596046,2|0,0:0|0:0,0:0:0:0:
226,274,12985,1,2,0:0:0:0:
144,336,13349,1,0,0:0:0:0:
68,272,13722,6,0,L|36:144,1,100.000000596046,2|0,0:0|0:0,0:0:0:0:
96,88,14403,1,0,0:0:0:0:
190,56,14747,1,0,0:0:0:0:
241,141,15092,2,0,L|269:273,1,100.000000596046
354,277,15810,2,0,L|326:145,1,100.000000596046
348,79,16511,21,0,0:0:0:0:
247,80,16861,2,0,P|203:36|171:36,1,50.000000298023,2|0,0:0|0:0,0:0:0:0:
171,62,17212,2,0,P|155:38|135:26,1,50.000000298023,2|0,0:0|0:0,0:0:0:0:
95,55,17563,2,0,P|79:39|51:35,1,50.000000298023,2|0,0:0|0:0,0:0:0:0:
24,76,17914,6,0,P|4:120|20:200,1,100.000000596046,2|0,0:0|0:0,0:0:0:0:
92,220,18600,2,0,P|160:228|212:208,1,100.000000596046,2|0,0:0|0:0,0:0:0:0:
292,180,19313,37,2,0:0:0:0:
292,180,20025,2,0,P|302:219|276:280,1,100.000000596046
200,320,20730,5,2,0:0:0:0:
200,320,21431,2,0,P|188:252|212:208,1,100.000000596046
300,196,22150,6,0,P|312:148|292:92,1,100.000000596046,2|0,0:0|0:0,0:0:0:0:
228,28,22851,2,0,P|156:24|108:36,1,100.000000596046
43,81,23553,1,2,0:0:0:0:
60,176,23904,2,0,P|72:200|120:220,1,50.000000298023
140,208,24241,2,0,P|168:232|212:236,1,50.000000298023
228,216,24578,1,0,0:0:0:0:
331,184,24942,6,0,P|387:188|407:180,2,50.000000298023,4|0|0,0:0|0:0|0:0,0:0:0:0:
236,136,25643,2,0,P|160:128|116:140,1,100.000000596046
54,196,26360,2,0,P|42:240|65:306,1,100.000000596046,2|0,0:0|0:0,0:0:0:0:
140,244,27061,1,2,0:0:0:0:
236,272,27412,1,0,0:0:0:0:
308,340,27763,22,0,P|384:344|436:320,1,100.000000596046,2|0,0:0|0:0,0:0:0:0:
436,240,28465,1,0,0:0:0:0:
416,140,28816,1,0,0:0:0:0:
339,80,29167,2,0,P|282:64|209:99,1,100.000000596046,2|0,0:0|0:0,0:0:0:0:
283,165,29859,1,0,0:0:0:0:
276,265,30218,1,0,0:0:0:0:
188,312,30573,6,0,P|184:252|200:204,1,100.000000596046,4|0,0:0|0:0,0:0:0:0:
276,265,31283,2,0,P|336:269|388:261,1,100.000000596046
416,172,31974,2,0,L|336:152,1,50.000000298023,2|0,0:0|0:0,0:0:0:0:
320,148,32320,2,0,L|264:144,1,50.000000298023,2|0,0:0|0:0,0:0:0:0:
222,141,32649,2,0,P|174:132|117:141,1,100.000000596046
148,264,33377,6,0,P|224:284|293:272,1,150.000000894069,6|0,0:0|0:0,0:0:0:0:
412,316,34282,2,0,P|464:240|459:178,1,143.249998285496,0|2,0:0|0:0,0:0:0:0:
388,120,35097,1,0,0:0:0:0:
312,188,35447,2,0,P|240:200|176:184,1,100.000000596046,0|2,0:0|0:0,0:0:0:0:
124,124,36144,5,6,0:0:0:0:
124,124,36850,1,0,0:0:0:0:
47,177,37182,2,0,P|43:201|63:237,1,50.000000298023
102,240,37569,2,0,P|123:288|253:171,1,312.375009845726,6|2,0:0|0:0,0:0:0:0:
189,229,38987,6,0,P|180:168|204:123,1,100.000000596046,4|0,0:0|0:0,0:0:0:0:
278,67,39696,2,0,P|339:58|384:82,1,100.000000596046
431,153,40382,1,0,0:0:0:0:
60,196,41860,22,0,P|80:232|96:244,1,50.000000298023,2|0,0:0|0:0,0:0:0:0:
144,224,42199,2,0,P|216:228|279:208,1,100.000000596046,2|0,0:0|0:0,0:0:0:0:
232,104,42902,2,0,P|212:68|196:56,1,50.000000298023,6|0,0:0|0:0,0:0:0:0:
160,104,43229,2,0,P|88:100|41:120,1,100.000000596046
28,224,43951,38,0,P|32:264|56:288,1,50.000000298023,6|0,0:0|0:0,0:0:0:0:
88,272,44275,2,0,P|127:344|156:356,1,100.000000596046,6|0,0:0|0:0,0:0:0:0:
168,296,44786,2,0,P|240:296|321:224,1,150.000000894069,6|6,0:0|0:0,0:0:0:0:
196,189,45678,2,0,P|192:145|208:113,1,50.000000298023
176,88,46040,6,0,P|203:97|256:96,1,50.000000298023,6|0,0:0|0:0,0:0:0:0:
252,48,46378,2,0,P|324:48|380:80,1,100.000000596046,2|2,0:0|0:0,0:0:0:0:
436,144,47081,2,0,P|444:172|440:208,1,50.000000298023,6|0,0:0|0:0,0:0:0:0:
400,232,47433,1,2,0:0:0:0:
284,264,47785,1,2,0:0:0:0:
168,232,48149,38,0,P|128:216|104:196,1,50.000000298023,6|0,0:0|0:0,0:0:0:0:
168,168,48495,2,0,P|132:112|124:68,1,100.000000596046,2|2,0:0|0:0,0:0:0:0:
240,76,49189,1,6,0:0:0:0:
312,168,49536,2,0,P|348:112|356:72,1,100.000000596046,2|2,0:0|0:0,0:0:0:0:
240,76,50229,5,6,0:0:0:0:
237,176,50577,2,0,L|237:300,1,100.000000596046,2|2,0:0|0:0,0:0:0:0:
336,265,51307,1,6,0:0:0:0:
336,164,51657,2,0,L|336:48,1,100.000000596046,2|2,0:0|0:0,0:0:0:0:
242,29,52359,37,6,0:0:0:0:
167,95,52710,1,2,0:0:0:0:
67,89,53061,1,2,0:0:0:0:
60,192,53412,6,0,P|84:232|124:248,1,50.000000298023,6|0,0:0|0:0,0:0:0:0:
132,212,53763,2,0,P|164:248|184:248,1,50.000000298023,6|0,0:0|0:0,0:0:0:0:
200,216,54114,2,0,P|232:236|276:232,1,50.000000298023,6|0,0:0|0:0,0:0:0:0:
288,224,54511,6,0,P|356:216|399:191,1,100.000000596046,2|0,0:0|0:0,0:0:0:0:
376,99,55295,6,0,P|308:91|268:71,1,100.000000596046
183,52,56114,1,0,0:0:0:0:
118,132,56554,2,0,P|110:212|130:256,1,100.000000596046
152,152,59166,38,0,L|208:152,1,50.000000298023
336,156,61398,6,0,L|284:156,1,50.000000298023
184,280,63470,38,0,L|184:224,1,50.000000298023
112,256,66151,5,0,0:0:0:0:
188,200,66501,2,0,B|256:172|324:212|324:212|392:248|472:202,1,275.000001639126
