osu file format v14

[General]
AudioFilename: audio.mp3
AudioLeadIn: 0
PreviewTime: 41870
Countdown: 0
SampleSet: Soft
StackLeniency: 0.7
Mode: 0
LetterboxInBreaks: 0
WidescreenStoryboard: 0

[Editor]
DistanceSpacing: 1
BeatDivisor: 3
GridSize: 4
TimelineZoom: 4.399998

[Metadata]
Title:...To Eternity
TitleUnicode:...To Eternity
Artist:Gladenfold
ArtistUnicode:Gladenfold
Creator:LMT
Version:Hard
Source:
Tags:melodic death power metal acoustic rotta olavi paavali pouttu from dusk yamicchi
BeatmapID:1055944
BeatmapSetID:496072

[Difficulty]
HPDrainRate:5
CircleSize:3.5
OverallDifficulty:5
ApproachRate:8
SliderMultiplier:1.40000000596046
SliderTickRate:1

[Events]
//Background and Video events
0,0,"7.jpg",0,0
//Break Periods
//Storyboard Layer 0 (Background)
//Storyboard Layer 1 (Fail)
//Storyboard Layer 2 (Pass)
//Storyboard Layer 3 (Foreground)
//Storyboard Sound Samples

[TimingPoints]
1131,366.97247706422,4,2,1,33,1,0
1131,-100,4,2,1,33,0,0
1406,416.666666666667,4,2,1,33,1,0
1510,444.444444444444,4,2,1,33,1,0
1732,337.078651685393,4,2,1,33,1,0
1844,472.44094488189,4,2,1,33,1,0
2080,344.827586206897,4,2,1,33,1,0
2544,350.877192982456,4,2,1,33,1,0
7807,357.142857142857,4,2,1,33,1,0
8164,363.636363636364,4,2,1,33,1,0
8527,334.261838440111,4,2,1,33,1,0
8861,316.622691292876,4,2,1,33,1,0
9177,350.877192982456,4,2,1,33,1,0
9527,368.098159509202,4,2,1,33,1,0
9895,333.333333333333,4,2,1,33,1,0
10228,350.877192982456,4,2,1,33,1,0
10842,461.538461538462,4,2,1,33,1,0
10957,319.148936170213,4,2,1,33,1,0
11276,337.078651685393,4,2,1,33,1,0
11613,339.943342776204,4,2,1,33,1,0
11613,-91.743119266055,4,2,1,33,0,0
12292,346.820809248555,4,2,1,33,1,0
12985,364.741641337386,4,2,1,33,1,0
13349,373.831775700935,4,2,1,33,1,0
13722,340.909090909091,4,2,1,33,1,0
14403,344.827586206897,4,2,1,33,1,0
15092,359.281437125748,4,2,1,33,1,0
15810,350.877192982456,4,2,1,33,1,0
16511,350.877192982456,4,2,1,33,1,0
17914,343.445907269605,4,2,1,33,1,0
18944,369.230769230769,4,2,1,33,1,0
19313,333.333333333333,4,2,1,33,1,0
19646,379.746835443038,4,2,1,33,1,0
20025,330.578512396694,4,2,1,33,1,0
20355,375,4,2,1,33,1,0
20730,350.877192982456,4,2,1,33,1,0
21431,331.491712707182,4,2,1,33,1,0
21762,388.349514563107,4,2,1,33,1,0
22150,350.877192982456,4,2,1,33,1,0
23904,337.078651685393,4,2,1,33,1,0
24579,363.636363636364,4,2,1,33,1,0
24942,350.877192982456,4,2,1,33,1,0
25994,366.97247706422,4,2,1,33,1,0
26360,350.877192982456,4,2,1,33,1,0
29517,342.857142857143,4,2,1,33,1,0
29859,359.281437125748,4,2,1,33,1,0
30218,355.029585798817,4,2,1,33,1,0
31283,350.877192982456,4,2,1,33,1,0
31809,331.491712707182,4,2,1,33,1,0
31974,346.820809248555,4,2,1,33,1,0
32320,329.67032967033,4,2,1,33,1,0
32649,316.622691292876,4,2,1,33,1,0
32965,363.636363636364,4,2,1,33,1,0
33207,512.820512820513,4,2,1,33,1,0
33377,350.877192982456,4,2,1,33,1,0
33727,412.371134020619,4,2,1,33,1,0
33864,314.13612565445,4,2,1,33,1,0
33864,-111.111111111111,4,2,1,33,0,0
34282,341.880341880342,4,2,1,33,1,0
34282,-108.40108401084,4,2,1,33,0,0
34509,383.386581469649,4,2,1,33,1,0
34764,333.333333333333,4,2,1,33,1,0
35097,350.877192982456,4,2,1,33,1,0
35798,346.820809248555,4,2,1,33,1,0
36144,353.982300884956,4,2,1,33,1,0
36144,-100,4,2,1,33,0,0
36500,350.877192982456,4,2,1,33,1,0
36675,-100,4,2,1,5,0,0
36850,332.409972299169,4,2,1,33,1,0
36850,-100,4,2,1,33,0,0
37182,376.175548589342,4,2,1,33,1,0
37370,398.671096345515,4,2,1,33,1,0
37569,329.67032967033,4,2,1,33,1,0
37898,371.517027863777,4,2,1,33,1,0
38083,-97.0873786407767,4,2,1,33,0,0
38269,350.877192982456,4,2,1,33,1,0
38619,368.098159509202,4,2,1,33,1,0
38987,359.281437125748,4,2,1,33,1,0
39346,350.877192982456,4,2,1,33,1,0
39696,335.195530726257,4,2,1,33,1,0
40032,350.877192982456,4,2,1,33,1,0
40382,348.837209302326,4,2,1,33,1,0
41428,432.432432432432,4,2,1,33,1,0
41860,339.943342776204,3,2,1,33,1,0
42199,348.837209302326,3,2,1,33,1,0
42547,355.029585798817,3,2,1,33,1,0
42902,327.868852459016,3,2,1,33,1,0
43229,368.098159509202,3,2,1,33,1,0
43597,354.400472533963,3,2,1,33,1,0
43951,324.324324324324,3,2,1,33,1,0
44275,340.909090909091,3,2,1,33,1,0
44871,-137.931034482759,3,2,1,33,0,0
44956,360.36036036036,3,2,1,33,1,0
45316,362.174495672015,3,2,1,33,1,0
46040,338.983050847458,3,2,1,33,1,0
46378,351.906158357771,3,2,1,33,1,0
47785,364.741641337386,3,2,1,33,1,0
48149,346.820809248555,3,2,1,33,1,0
50229,348.837209302326,3,2,1,33,1,0
51101,413.793103448276,3,2,1,33,1,0
51307,350.877192982456,3,2,1,33,1,0
54377,350.877192982456,3,2,1,33,1,0
54511,461.538461538462,3,2,1,33,1,0
54511,-98.0392156862745,3,2,1,33,0,0
54962,333.333333333333,3,2,1,33,1,0
54962,-133.333333333333,4,2,1,33,0,0
55295,382.165605095541,3,2,1,33,1,0
55295,-99.502487562189,3,2,1,33,0,0
55675,439.882697947214,3,2,1,33,1,0
56444,-100,4,2,1,5,0,0
56556,-100,4,2,1,7,0,0
56884,-100,4,2,1,5,0,0
56994,620.693935820247,4,2,1,5,1,0
56994,-100,4,2,1,5,0,0
57103,-100,4,2,1,5,0,0
59166,582.52427184466,4,2,1,33,1,0
59457,564.265091740099,4,2,1,33,1,0
61149,498.616339657451,4,2,1,33,1,0
61398,431.654676258993,4,2,1,33,1,0
61613,550.45871559633,4,2,1,33,1,0
63264,413.793103448276,4,2,1,33,1,0
63470,425.531914893617,4,2,1,33,1,0
63682,629.37282997493,4,2,1,33,1,0
65570,581.9592628516,4,2,1,33,1,0
66151,350.877192982456,4,2,1,33,1,0
66414,-100,4,2,1,5,0,0
66501,368.098159509202,4,2,1,33,1,0
66501,-100,4,2,1,33,0,0
66868,419.58041958042,4,2,1,33,1,0
67147,515.021459227468,4,2,1,33,1,0
67318,472.44094488189,4,2,1,33,1,0
67554,-100,4,2,1,5,0,0

[Colours]
Combo1 : 184,3,252
Combo2 : 134,216,247
Combo3 : 233,165,39
Combo4 : 242,24,57

[HitObjects]
256,192,1131,12,0,2080,0:0:0:0:
128,192,5351,6,0,P|132:156|156:120,1,70.000000298023
208,180,5701,1,0,0:0:0:0:
250,313,6052,2,0,P|269:340|301:353,1,70.000000298023,2|0,0:0|0:0,0:0:0:0:
316,279,6403,1,2,0:0:0:0:
314,138,6754,5,2,0:0:0:0:
431,213,7105,1,0,0:0:0:0:
348,320,7456,2,0,P|300:320|264:296,1,70.000000298023,2|0,0:0|0:0,0:0:0:0:
212,344,7807,2,0,P|184:296|192:256,1,70.000000298023,2|0,0:0|0:0,0:0:0:0:
116,244,8164,2,0,P|148:200|188:188,1,70.000000298023,2|0,0:0|0:0,0:0:0:0:
236,216,8527,37,0,0:0:0:0:
360,128,8861,1,0,0:0:0:0:
212,84,9177,2,0,L|160:48,4,35.0000001490115,0|0|0|0|2,0:0|0:0|0:0|0:0|0:0,0:0:0:0:
88,196,9895,5,0,0:0:0:0:
198,110,10228,2,0,P|234:141|254:188,1,70.000000298023
292,256,10578,2,0,L|344:248,3,35.0000001490115
284,320,10957,38,0,P|244:360|148:376,1,140.000000596046,2|0,0:0|0:0,0:0:0:0:
96,232,11613,2,0,P|136:192|237:177,1,152.600002279634
380,208,12292,2,0,P|420:148|412:76,1,140.000000596046,2|0,0:0|0:0,0:0:0:0:
276,16,12985,2,0,P|212:40|128:28,1,140.000000596046,2|0,0:0|0:0,0:0:0:0:
56,24,13535,1,0,0:0:0:0:
64,108,13722,6,0,P|84:188|72:260,1,140.000000596046,2|0,0:0|0:0,0:0:0:0:
212,320,14403,1,0,0:0:0:0:
352,256,14747,2,0,P|336:204|340:164,1,70.000000298023
348,112,15092,37,0,0:0:0:0:
72,64,15810,1,0,0:0:0:0:
48,232,16160,1,0,0:0:0:0:
216,216,16511,21,0,0:0:0:0:
86,60,16861,2,0,P|137:47|156:20,2,46.6666668653487,2|0|0,0:0|0:0|0:0,0:0:0:0:
118,104,17212,2,0,P|158:80|182:52,2,46.6666668653487,2|0|0,0:0|0:0|0:0,0:0:0:0:
166,124,17563,2,0,P|194:80|182:56,2,46.6666668653487,2|0|0,0:0|0:0|0:0,0:0:0:0:
217,131,17914,2,0,P|277:67|345:51,1,140.000000596046,2|0,0:0|0:0,0:0:0:0:
340,184,18600,2,0,P|408:200|484:180,1,140.000000596046,2|0,0:0|0:0,0:0:0:0:
324,260,19313,22,0,P|244:244|176:264,1,140.000000596046,2|0,0:0|0:0,0:0:0:0:
72,336,20025,2,0,P|152:352|228:328,1,140.000000596046
188,257,20542,1,0,0:0:0:0:
136,184,20730,2,0,P|136:92|168:36,1,140.000000596046,2|0,0:0|0:0,0:0:0:0:
296,144,21431,2,0,P|364:172|464:160,1,140.000000596046
512,56,22150,5,2,0:0:0:0:
360,24,22500,1,0,0:0:0:0:
184,136,22851,1,0,0:0:0:0:
336,108,23202,1,0,0:0:0:0:
144,20,23553,22,0,P|72:40|36:112,1,140.000000596046,2|0,0:0|0:0,0:0:0:0:
56,176,24072,1,0,0:0:0:0:
120,232,24241,1,0,0:0:0:0:
200,256,24409,1,0,0:0:0:0:
280,236,24579,2,0,P|340:192|364:140,1,70.000000298023,2|0,0:0|0:0,0:0:0:0:
260,132,24942,22,0,P|184:104|168:96,2,70.000000298023,4|0|0,0:0|0:0|0:0,0:0:0:0:
380,32,25643,1,0,0:0:0:0:
468,176,25994,1,0,0:0:0:0:
384,300,26360,6,0,P|316:324|220:296,1,140.000000596046,2|0,0:0|0:0,0:0:0:0:
448,356,27061,2,0,P|464:268|428:228,1,140.000000596046,2|0,0:0|0:0,0:0:0:0:
380,172,27588,1,0,0:0:0:0:
296,164,27763,38,0,P|200:176|144:144,1,140.000000596046,2|0,0:0|0:0,0:0:0:0:
236,16,28465,1,0,0:0:0:0:
388,88,28816,1,0,0:0:0:0:
448,244,29167,6,0,P|392:312|328:336,1,140.000000596046,2|0,0:0|0:0,0:0:0:0:
216,244,29859,1,0,0:0:0:0:
140,108,30218,2,0,L|196:56,1,70.000000298023
252,12,30573,37,4,0:0:0:0:
368,136,30928,1,0,0:0:0:0:
268,272,31283,1,0,0:0:0:0:
166,181,31633,2,0,L|70:173,1,70.000000298023
132,88,31974,22,0,L|173:33,2,46.6666668653487,2|0|0,0:0|0:0|0:0,0:0:0:0:
228,96,32320,2,0,L|250:158,2,46.6666668653487,2|0|0,0:0|0:0|0:0,0:0:0:0:
166,168,32649,6,0,L|55:152,1,93.3333337306973
85,80,32965,2,0,L|118:11,1,70.000000298023
231,15,33377,38,0,L|379:47,1,140.000000596046,6|0,0:0|0:0,0:0:0:0:
400,136,33864,1,0,0:0:0:0:
236,177,34282,2,0,L|323:200,1,86.0999996604106
373,314,34764,2,0,L|213:274,1,140.000000596046,2|0,0:0|0:0,0:0:0:0:
103,174,35447,1,0,0:0:0:0:
216,60,35798,2,0,L|308:52,1,70.000000298023,2|0,0:0|0:0,0:0:0:0:
388,40,36144,6,0,B|432:92|400:172|400:172|372:256|424:316,1,280.000001192092,6|0,0:0|0:0,0:0:0:0:
273,285,37182,2,0,P|250:258|219:243,1,70.000000298023,0|0,0:0|0:0,0:0:0:0:
151,171,37569,38,0,P|123:111|167:27,1,140.000000596046,6|0,0:0|0:0,0:0:0:0:
268,45,38083,2,0,P|296:101|264:177,1,140.000000596046,2|0,0:0|0:0,0:0:0:0:
210,105,38619,1,2,0:0:0:0:
378,100,38987,21,4,0:0:0:0:
352,256,39346,1,0,0:0:0:0:
468,116,39696,1,0,0:0:0:0:
365,177,40031,1,0,0:0:0:0:
492,248,40382,5,0,0:0:0:0:
128,104,41860,5,2,0:0:0:0:
152,184,42029,1,0,0:0:0:0:
160,192,42114,1,0,0:0:0:0:
160,192,42199,2,0,L|186:271,1,70.000000298023,2|0,0:0|0:0,0:0:0:0:
260,288,42547,2,0,L|352:304,1,70.000000298023
388,240,42902,5,6,0:0:0:0:
424,164,43065,1,0,0:0:0:0:
424,164,43147,1,0,0:0:0:0:
424,164,43229,2,0,L|464:80,1,70.000000298023,2|0,0:0|0:0,0:0:0:0:
416,24,43597,2,0,L|321:61,1,70.000000298023
272,80,43951,37,6,0:0:0:0:
188,68,44113,1,0,0:0:0:0:
188,68,44194,1,0,0:0:0:0:
188,68,44275,2,0,P|119:45|53:68,1,140.000000596046,6|0,0:0|0:0,0:0:0:0:
119,165,44871,2,0,P|154:184|204:183,1,78.7500033393501,6|0,0:0|0:0,0:0:0:0:
218,182,45226,1,0,0:0:0:0:
218,182,45316,2,0,P|267:173|297:184,1,70.000000298023,6|0,0:0|0:0,0:0:0:0:
240,308,45678,2,0,P|208:352|172:364,1,70.000000298023
100,344,46040,5,6,0:0:0:0:
48,280,46209,1,0,0:0:0:0:
48,280,46294,1,0,0:0:0:0:
48,280,46378,2,0,P|64:220|88:192,1,70.000000298023,2|0,0:0|0:0,0:0:0:0:
120,148,46729,2,0,P|176:164|212:156,1,70.000000298023,2|0,0:0|0:0,0:0:0:0:
268,84,47081,37,6,0:0:0:0:
344,136,47257,1,0,0:0:0:0:
344,136,47345,1,0,0:0:0:0:
344,136,47433,2,0,P|380:192|408:208,1,70.000000298023,2|0,0:0|0:0,0:0:0:0:
460,244,47785,2,0,P|400:272|380:288,1,70.000000298023,2|0,0:0|0:0,0:0:0:0:
290,277,48149,5,6,0:0:0:0:
216,208,48322,1,0,0:0:0:0:
216,208,48409,1,0,0:0:0:0:
216,208,48495,2,0,P|172:160|144:152,1,70.000000298023,2|0,0:0|0:0,0:0:0:0:
72,168,48842,2,0,P|104:108|108:84,1,70.000000298023,2|0,0:0|0:0,0:0:0:0:
72,0,49189,37,6,0:0:0:0:
152,40,49362,1,0,0:0:0:0:
160,48,49449,1,0,0:0:0:0:
160,48,49536,2,0,P|216:84|244:88,1,70.000000298023,2|0,0:0|0:0,0:0:0:0:
296,48,49883,2,0,P|352:72|376:100,1,70.000000298023,2|0,0:0|0:0,0:0:0:0:
398,151,50229,5,6,0:0:0:0:
392,240,50403,1,0,0:0:0:0:
392,240,50490,1,0,0:0:0:0:
392,240,50577,2,0,P|408:300|432:332,1,70.000000298023,2|0,0:0|0:0,0:0:0:0:
328,320,50926,2,0,P|276:304|232:312,1,70.000000298023,2|0,0:0|0:0,0:0:0:0:
180,324,51307,37,6,0:0:0:0:
132,256,51482,1,0,0:0:0:0:
132,256,51570,1,0,0:0:0:0:
132,256,51657,2,0,P|112:192|120:164,1,70.000000298023,2|0,0:0|0:0,0:0:0:0:
180,140,52008,2,0,P|200:204|192:232,1,70.000000298023,2|0,0:0|0:0,0:0:0:0:
112,190,52359,5,6,0:0:0:0:
83,110,52535,1,0,0:0:0:0:
83,110,52622,1,0,0:0:0:0:
83,110,52710,2,0,P|91:58|115:42,1,70.000000298023,2|0,0:0|0:0,0:0:0:0:
192,27,53061,1,2,0:0:0:0:
272,92,53236,1,0,0:0:0:0:
272,92,53324,1,0,0:0:0:0:
272,92,53412,38,0,L|344:120,1,70.000000298023,6|0,0:0|0:0,0:0:0:0:
260,176,53763,2,0,L|176:216,1,70.000000298023,6|0,0:0|0:0,0:0:0:0:
284,256,54114,2,0,L|372:296,1,70.000000298023,6|0,0:0|0:0,0:0:0:0:
280,340,54511,22,0,P|224:352|140:312,1,140.000000596046,2|0,0:0|0:0,0:0:0:0:
112,148,55295,6,0,P|168:132|248:176,1,140.000000596046
56,208,56114,38,0,P|32:132|60:88,1,105.000000447034
64,76,56554,6,0,P|106:58|148:16,1,105.000000447034
184,28,56994,38,0,L|247:18,1,35.0000001490115
144,128,59166,22,0,L|168:148,3,23.3333334326743
276,216,61398,6,0,L|312:195,3,23.3333334326743
99,128,63470,38,0,L|129:108,2,35.0000001490115
256,96,66151,6,0,L|256:212,1,105.000000447034
188,240,66501,38,0,L|148:276,2,46.6666668653487
256,280,66869,6,0,L|256:352,2,46.6666668653487
324,240,67318,38,0,L|408:296,1,70.000000298023
