osu file format v14

[General]
AudioFilename: audio.mp3
AudioLeadIn: 0
PreviewTime: 41870
Countdown: 0
SampleSet: Soft
StackLeniency: 0.7
Mode: 0
LetterboxInBreaks: 0
WidescreenStoryboard: 0

[Editor]
DistanceSpacing: 1
BeatDivisor: 2
GridSize: 4
TimelineZoom: 4.499997

[Metadata]
Title:...To Eternity
TitleUnicode:...To Eternity
Artist:Gladenfold
ArtistUnicode:Gladenfold
Creator:LMT
Version:Easy
Source:
Tags:melodic death power metal acoustic rotta olavi paavali pouttu from dusk yamicchi
BeatmapID:1055943
BeatmapSetID:496072

[Difficulty]
HPDrainRate:3
CircleSize:3
OverallDifficulty:2
ApproachRate:4
SliderMultiplier:0.800000005960464
SliderTickRate:1

[Events]
//Background and Video events
0,0,"7.jpg",0,0
//Break Periods
//Storyboard Layer 0 (Background)
//Storyboard Layer 1 (Fail)
//Storyboard Layer 2 (Pass)
//Storyboard Layer 3 (Foreground)
//Storyboard Sound Samples

[TimingPoints]
1131,366.97247706422,4,2,1,33,1,0
1131,-94.1176470588235,4,2,1,33,0,0
1406,416.666666666667,4,2,1,33,1,0
1510,444.444444444444,4,2,1,33,1,0
1732,337.078651685393,4,2,1,33,1,0
1844,472.44094488189,4,2,1,33,1,0
2080,344.827586206897,4,2,1,33,1,0
2544,350.877192982456,4,2,1,33,1,0
7807,357.142857142857,4,2,1,33,1,0
8164,363.636363636364,4,2,1,33,1,0
8164,-95.9232613908873,4,2,1,33,0,0
8527,334.261838440111,4,2,1,33,1,0
8861,316.622691292876,4,2,1,33,1,0
9177,350.877192982456,4,2,1,33,1,0
9527,368.098159509202,4,2,1,33,1,0
9527,-95.2380952380952,4,2,1,33,0,0
9895,333.333333333333,4,2,1,33,1,0
10228,350.877192982456,4,2,1,33,1,0
10842,461.538461538462,4,2,1,33,1,0
10957,319.148936170213,4,2,1,33,1,0
11276,337.078651685393,4,2,1,33,1,0
11613,339.943342776204,4,2,1,33,1,0
12292,346.820809248555,4,2,1,33,1,0
12985,364.741641337386,4,2,1,33,1,0
13349,373.831775700935,4,2,1,33,1,0
13722,340.909090909091,4,2,1,33,1,0
14403,344.827586206897,4,2,1,33,1,0
15092,359.281437125748,4,2,1,33,1,0
15810,350.877192982456,4,2,1,33,1,0
16511,350.877192982456,4,2,1,33,1,0
17914,343.445907269605,4,2,1,33,1,0
18944,369.230769230769,4,2,1,33,1,0
19313,333.333333333333,4,2,1,33,1,0
19646,379.746835443038,4,2,1,33,1,0
20025,330.578512396694,4,2,1,33,1,0
20355,375,4,2,1,33,1,0
20730,350.877192982456,4,2,1,33,1,0
21431,331.491712707182,4,2,1,33,1,0
21762,388.349514563107,4,2,1,33,1,0
22150,350.877192982456,4,2,1,33,1,0
23553,-98.0392156862745,4,2,1,33,0,0
23904,337.078651685393,4,2,1,33,1,0
24579,363.636363636364,4,2,1,33,1,0
24942,350.877192982456,4,2,1,33,1,0
25994,366.97247706422,4,2,1,33,1,0
26360,350.877192982456,4,2,1,33,1,0
29517,342.857142857143,4,2,1,33,1,0
29859,359.281437125748,4,2,1,33,1,0
30218,355.029585798817,4,2,1,33,1,0
31283,350.877192982456,4,2,1,33,1,0
31809,331.491712707182,4,2,1,33,1,0
31974,346.820809248555,4,2,1,33,1,0
32320,329.67032967033,4,2,1,33,1,0
32649,316.622691292876,4,2,1,33,1,0
32965,363.636363636364,4,2,1,33,1,0
33207,512.820512820513,4,2,1,33,1,0
33377,350.877192982456,4,2,1,33,1,0
33377,-107.52688172043,4,2,1,33,0,0
33727,412.371134020619,4,2,1,33,1,0
33864,314.13612565445,4,2,1,33,1,0
34282,341.880341880342,4,2,1,33,1,0
34509,383.386581469649,4,2,1,33,1,0
34764,333.333333333333,4,2,1,33,1,0
34764,-107.238605898123,4,2,1,33,0,0
35097,350.877192982456,4,2,1,33,1,0
35798,346.820809248555,4,2,1,33,1,0
36144,353.982300884956,4,2,1,33,1,0
36144,-117.647058823529,4,2,1,33,0,0
36500,350.877192982456,4,2,1,33,1,0
36850,332.409972299169,4,2,1,33,1,0
36850,-100,4,2,1,33,0,0
37182,376.175548589342,4,2,1,33,1,0
37370,398.671096345515,4,2,1,33,1,0
37569,329.67032967033,4,2,1,33,1,0
37569,-96.3855421686747,4,2,1,33,0,0
37898,371.517027863777,4,2,1,33,1,0
38269,350.877192982456,4,2,1,33,1,0
38619,368.098159509202,4,2,1,33,1,0
38987,359.281437125748,4,2,1,33,1,0
38987,-98.7654320987654,4,2,1,33,0,0
39346,350.877192982456,4,2,1,33,1,0
39696,335.195530726257,4,2,1,33,1,0
40032,350.877192982456,4,2,1,33,1,0
40382,348.837209302326,4,2,1,33,1,0
41428,432.432432432432,4,2,1,33,1,0
41860,339.943342776204,3,2,1,33,1,0
42199,348.837209302326,3,2,1,33,1,0
42547,355.029585798817,3,2,1,33,1,0
42902,327.868852459016,3,2,1,33,1,0
43229,368.098159509202,3,2,1,33,1,0
43597,354.400472533963,3,2,1,33,1,0
43951,324.324324324324,3,2,1,33,1,0
44275,340.909090909091,3,2,1,33,1,0
44275,-101.781170483461,3,2,1,33,0,0
44956,360.36036036036,3,2,1,33,1,0
45316,362.174495672015,3,2,1,33,1,0
46040,338.983050847458,3,2,1,33,1,0
46378,351.906158357771,3,2,1,33,1,0
47785,364.741641337386,3,2,1,33,1,0
48149,346.820809248555,3,2,1,33,1,0
50229,348.837209302326,3,2,1,33,1,0
51101,413.793103448276,3,2,1,33,1,0
51307,350.877192982456,3,2,1,33,1,0
54114,-108.695652173913,3,2,1,33,0,0
54377,350.877192982456,3,2,1,33,1,0
54511,461.538461538462,3,2,1,33,1,0
54962,333.333333333333,3,2,1,33,1,0
54962,-133.333333333333,4,2,1,33,0,0
55295,382.165605095541,3,2,1,33,1,0
55675,439.882697947214,3,2,1,33,1,0
56994,620.693935820247,4,2,1,33,1,0
59166,582.52427184466,4,2,1,33,1,0
59457,564.265091740099,4,2,1,33,1,0
59457,-106.100795755968,4,2,1,33,0,0
61149,498.616339657451,4,2,1,33,1,0
61398,431.654676258993,4,2,1,33,1,0
61613,550.45871559633,4,2,1,33,1,0
63264,413.793103448276,4,2,1,33,1,0
63470,425.531914893617,4,2,1,33,1,0
63470,-104.98687664042,4,2,1,33,0,0
63682,629.37282997493,4,2,1,33,1,0
65570,581.9592628516,4,2,1,33,1,0
66151,350.877192982456,4,2,1,33,1,0
66501,368.098159509202,4,2,1,33,1,0
66868,419.58041958042,4,2,1,33,1,0
66868,-108.991825613079,4,2,1,33,0,0
67147,515.021459227468,4,2,1,33,1,0
67318,472.44094488189,4,2,1,33,1,0
67554,-100,4,2,1,5,0,0

[Colours]
Combo1 : 184,3,252
Combo2 : 134,216,247
Combo3 : 233,165,39
Combo4 : 242,24,57

[HitObjects]
193,215,1131,38,0,P|258:138|308:236,1,220.000008352995
424,36,5351,22,0,P|428:124|380:200,1,160.000001192093,0|2,0:0|0:0,0:0:0:0:
332,236,6403,1,2,0:0:0:0:
280,300,6754,2,0,P|224:308|188:296,1,80.0000005960464,2|0,0:0|0:0,0:0:0:0:
128,272,7456,1,2,0:0:0:0:
88,204,7807,1,2,0:0:0:0:
136,140,8164,6,0,P|68:140|24:48,1,160.000001192093,2|0,0:0|0:0,0:0:0:0:
104,64,9177,1,0,0:0:0:0:
184,64,9527,2,0,P|220:112|176:224,1,160.000001192093,2|0,0:0|0:0,0:0:0:0:
144,259,10578,1,0,0:0:0:0:
80,311,10957,6,0,P|131:342|181:332,1,80.0000005960464
220,304,11613,2,0,P|246:267|242:216,1,80.0000005960464
234,156,12292,2,0,P|169:113|84:157,1,160.000001192093,2|2,0:0|0:0,0:0:0:0:
80,219,13349,1,0,0:0:0:0:
160,204,13722,6,0,P|264:192|336:220,1,160.000001192093,2|0,0:0|0:0,0:0:0:0:
382,253,14747,1,0,0:0:0:0:
316,300,15092,2,0,P|212:312|140:284,1,160.000001192093
124,224,16160,1,0,0:0:0:0:
124,142,16511,22,0,P|128:98|180:58,1,80.0000005960464,0|2,0:0|0:0,0:0:0:0:
203,131,17212,2,0,P|259:123|291:139,1,80.0000005960464,2|2,0:0|0:0,0:0:0:0:
242,202,17914,2,0,P|290:234|306:274,1,80.0000005960464,2|0,0:0|0:0,0:0:0:0:
224,281,18600,2,0,P|224:345|192:385,1,80.0000005960464,2|0,0:0|0:0,0:0:0:0:
149,311,19313,5,2,0:0:0:0:
0,204,20025,2,0,P|36:208|90:197,1,80.0000005960464
111,127,20730,1,2,0:0:0:0:
255,68,21431,2,0,P|292:78|328:95,1,80.0000005960464
407,114,22150,6,0,P|443:90|478:80,2,80.0000005960464,2|0|0,0:0|0:0|0:0,0:0:0:0:
354,173,23202,1,0,0:0:0:0:
304,236,23553,2,0,P|259:265|216:175,1,160.000001192093,2|0,0:0|0:0,0:0:0:0:
245,126,24578,1,2,0:0:0:0:
206,56,24942,6,0,P|146:20|106:20,1,80.0000005960464,4|0,0:0|0:0,0:0:0:0:
71,60,25643,1,0,0:0:0:0:
54,139,25994,1,0,0:0:0:0:
80,216,26360,2,0,P|118:254|152:272,1,80.0000005960464,2|0,0:0|0:0,0:0:0:0:
206,223,27061,2,0,P|266:247|294:275,1,80.0000005960464,2|0,0:0|0:0,0:0:0:0:
290,335,27763,6,0,P|340:363|382:367,1,80.0000005960464,2|0,0:0|0:0,0:0:0:0:
443,361,28465,1,0,0:0:0:0:
495,298,28816,1,0,0:0:0:0:
442,237,29167,2,0,P|398:241|338:221,1,80.0000005960464,2|0,0:0|0:0,0:0:0:0:
319,164,29859,2,0,P|315:84|335:56,1,80.0000005960464
388,120,30573,38,0,P|428:128|492:108,1,80.0000005960464,4|0,0:0|0:0,0:0:0:0:
456,41,31283,1,0,0:0:0:0:
381,12,31633,1,0,0:0:0:0:
301,13,31974,2,0,P|257:9|201:33,1,80.0000005960464,2|2,0:0|0:0,0:0:0:0:
192,92,32649,2,0,P|120:100|84:84,1,80.0000005960464
41,128,33377,6,0,P|82:75|124:191,1,240.000001788139,6|0,0:0|0:0,0:0:0:0:
74,231,34764,2,0,P|148:209|232:210,1,152.799998398886,2|0,0:0|0:0,0:0:0:0:
271,142,35798,1,2,0:0:0:0:
332,88,36144,22,0,P|355:145|304:219,1,136.000003607273,6|0,0:0|0:0,0:0:0:0:
289,288,37182,1,0,0:0:0:0:
205,292,37569,2,0,P|274:268|406:314,1,176.000006682396,6|0,0:0|0:0,0:0:0:0:
442,328,38619,1,2,0:0:0:0:
512,285,38987,38,0,P|496:209|512:117,1,160.000001192093,4|0,0:0|0:0,0:0:0:0:
486,51,40031,1,0,0:0:0:0:
412,20,40382,1,0,0:0:0:0:
207,207,41860,6,0,P|169:171|151:106,1,80.0000005960464,6|2,0:0|0:0,0:0:0:0:
163,67,42547,1,0,0:0:0:0:
239,95,42902,2,0,P|277:131|295:196,1,80.0000005960464,6|2,0:0|0:0,0:0:0:0:
287,236,43597,1,0,0:0:0:0:
250,310,43951,5,6,0:0:0:0:
330,310,44275,2,0,B|427:267|447:152|447:152|370:172,1,240.000001788139,6|6,0:0|0:0,0:0:0:0:
335,159,45678,1,0,0:0:0:0:
264,120,46040,22,0,P|204:136|156:124,1,80.0000005960464,6|2,0:0|0:0,0:0:0:0:
108,128,46729,1,2,0:0:0:0:
84,204,47081,2,0,P|76:264|40:300,1,80.0000005960464,6|2,0:0|0:0,0:0:0:0:
32,352,47785,1,2,0:0:0:0:
112,356,48149,6,0,P|160:328|196:324,1,80.0000005960464,6|2,0:0|0:0,0:0:0:0:
260,352,48842,2,0,P|316:344|364:312,1,80.0000005960464,2|6,0:0|0:0,0:0:0:0:
334,253,49536,2,0,P|286:241|222:245,1,80.0000005960464,2|2,0:0|0:0,0:0:0:0:
188,194,50229,37,6,0:0:0:0:
140,130,50577,2,0,P|80:126|36:106,1,80.0000005960464,2|2,0:0|0:0,0:0:0:0:
47,41,51307,1,6,0:0:0:0:
127,31,51657,2,0,P|187:35|231:55,1,80.0000005960464,2|2,0:0|0:0,0:0:0:0:
276,77,52359,5,6,0:0:0:0:
355,60,52710,1,2,0:0:0:0:
408,120,53061,2,0,P|420:192|408:232,1,80.0000005960464,2|6,0:0|0:0,0:0:0:0:
341,213,53763,2,0,P|329:141|341:101,1,80.0000005960464,2|6,0:0|0:0,0:0:0:0:
355,60,54511,37,6,0:0:0:0:
256,192,54962,12,0,56994,0:0:0:0:
87,197,59457,6,0,B|154:168|223:198|223:198|302:233|368:186,1,287.999993356705
489,315,63470,6,0,B|431:347|330:305|330:305|282:341|202:316|135:354|135:354|92:319|19:323,1,480.000003576278
62,170,66868,2,0,P|129:172|191:144,1,120.00000089407
