osu file format v14

[General]
AudioFilename: audio.mp3
AudioLeadIn: 0
PreviewTime: 74898
Countdown: 0
SampleSet: Soft
StackLeniency: 0.7
Mode: 2
LetterboxInBreaks: 0
WidescreenStoryboard: 1

[Editor]
DistanceSpacing: 1.2
BeatDivisor: 6
GridSize: 8
TimelineZoom: 2.1

[Metadata]
Title:Neos
TitleUnicode:Neos
Artist:Glacier
ArtistUnicode:Glacier
Creator:WildOne94
Version:wonjae's Salad
Source:
Tags:Wonjae Monstercat Electronic Uncaged future bass glitch hop nu disco house paranoid grapes
BeatmapID:1735237
BeatmapSetID:771096

[Difficulty]
HPDrainRate:4
CircleSize:3
OverallDifficulty:7
ApproachRate:7
SliderMultiplier:1.50023972042085
SliderTickRate:1

[Events]
//Background and Video events
0,0,"Neos BG.jpg",0,0
Video,-89,"Neos Osu Video Re-upload.mp4"
//Break Periods
2,59333,66508
//Storyboard Layer 0 (Background)
//Storyboard Layer 1 (Fail)
//Storyboard Layer 2 (Pass)
//Storyboard Layer 3 (Foreground)
//Storyboard Sound Samples

[TimingPoints]
1202,517.241379310345,4,2,0,30,1,0
1977,-100,4,2,0,35,0,0
2753,-100,4,2,0,40,0,0
3529,-100,4,2,0,45,0,0
4305,-100,4,2,0,50,0,0
5081,-100,4,2,0,60,0,0
5339,-100,4,2,0,40,0,0
8960,-100,4,2,0,50,0,0
17753,-100,4,2,4,55,0,0
21891,-76.9230769230769,4,2,4,55,0,0
22279,-100,4,2,4,55,0,0
23960,-100,4,2,3,55,0,0
25512,-100,4,2,0,30,0,0
26029,-100,4,2,3,55,0,0
43098,-100,4,2,0,35,0,0
44520,-100,4,2,0,45,0,0
44650,-100,4,2,3,55,0,0
59133,-100,4,2,1,40,0,0
59650,-100,4,2,0,25,0,0
65339,-100,4,2,0,30,0,0
67408,-100,4,2,0,40,0,0
69477,-100,4,2,0,50,0,0
71546,-100,4,2,3,60,0,0
73615,-100,4,2,3,70,0,0
74650,-100,4,2,3,80,0,0
74898,517.241379310345,4,2,3,30,1,0
75113,-100,4,2,3,35,0,0
75285,-100,4,2,3,40,0,0
75684,517.241379310345,4,2,1,50,1,0
75684,-100,4,2,1,50,0,0
76201,-100,4,2,1,80,0,1
83960,-100,4,2,1,50,0,1
84477,-100,4,2,2,80,0,1
84650,-100,4,2,1,80,0,1
90684,-100,4,2,0,60,0,0
92236,-100,4,2,0,50,0,0
92752,-100,4,2,1,80,0,1
96374,-100,4,2,1,60,0,1
96891,-100,4,2,1,80,0,1
100512,-100,4,2,1,50,0,1
101029,-100,4,2,2,80,0,1
101202,-100,4,2,1,80,0,1
106719,-100,4,2,0,50,0,1
108270,-100,4,2,1,80,0,1
108787,-100,4,2,0,40,0,0
110857,-100,4,2,0,30,0,0
112926,-100,4,2,0,20,0,0
116029,-100,4,2,0,20,0,0
117064,-100,4,2,0,15,0,0

[Colours]
Combo1 : 1,184,15
Combo2 : 13,123,189
Combo3 : 28,244,234
Combo4 : 137,245,65

[HitObjects]
359,250,1202,6,0,P|422:156|330:139,1,225.035958063127,2|2,0:0|0:0,0:0:0:0:
177,133,2753,2,0,P|67:192|53:311,1,225.035958063128,2|2,0:0|0:0,0:0:0:0:
247,296,4305,2,0,L|495:291,1,225.035958063127,2|2,0:0|0:0,0:0:0:0:
315,241,5857,5,0,0:0:0:0:
256,192,6374,12,8,8960,0:0:0:0:
381,129,9477,5,2,0:0:0:0:
243,233,9995,2,0,L|242:288,1,37.5059930105213,2|0,0:0|0:0,0:0:0:0:
339,314,10383,1,0,0:0:0:0:
445,345,10641,1,2,0:0:0:0:
299,203,11029,2,0,L|298:149,1,37.5059930105213,2|0,0:0|0:0,0:0:0:0:
186,148,11417,2,0,L|183:103,1,37.5059930105213,0|2,0:0|0:0,0:0:0:0:
385,163,12064,6,0,L|392:223,1,37.5059930105213,2|0,0:0|0:0,0:0:0:0:
289,252,12452,1,0,0:0:0:0:
185,260,12710,1,2,0:0:0:0:
336,333,13098,2,0,L|404:333,1,37.5059930105213,2|0,0:0|0:0,0:0:0:0:
36,302,13615,6,0,B|40:123,1,150.023972042085,2|2,0:0|0:0,0:0:0:0:
106,147,14262,1,0,0:0:0:0:
219,143,14520,1,0,0:0:0:0:
343,143,14779,1,2,0:0:0:0:
195,81,15167,2,0,L|139:82,1,37.5059930105213,2|0,0:0|0:0,0:0:0:0:
495,94,15684,6,0,L|490:259,1,150.023972042085,2|2,0:0|0:0,0:0:0:0:
429,245,16331,1,0,0:0:0:0:
309,243,16589,1,0,0:0:0:0:
181,237,16848,1,2,0:0:0:0:
228,237,16977,1,2,0:0:0:0:
315,181,17236,1,2,0:0:0:0:
375,186,17365,1,0,0:0:0:0:
37,203,17753,6,0,L|29:29,1,150.023972042085,2|8,0:0|0:0,0:0:0:0:
91,52,18400,1,0,0:0:0:0:
207,43,18658,1,0,0:0:0:0:
331,35,18917,1,0,0:0:0:0:
204,121,19305,1,8,0:0:0:0:
112,120,19564,1,0,0:0:0:0:
366,192,19822,5,2,0:0:0:0:
407,248,20081,1,0,0:0:0:0:
319,289,20339,2,0,L|266:292,1,37.5059930105213,8|0,0:0|0:0,0:0:0:0:
376,321,20727,1,0,0:0:0:0:
485,350,20986,1,0,0:0:0:0:
376,257,21374,2,0,L|343:216,1,37.5059930105213,8|0,0:0|0:0,0:0:0:0:
42,155,21891,6,0,P|32:105|155:24,1,195.031154726893,2|8,0:0|0:0,0:0:0:0:
188,22,22538,1,0,0:0:0:0:
294,22,22796,1,0,0:0:0:0:
399,22,23055,1,0,0:0:0:0:
291,105,23443,2,0,L|223:106,1,37.5059930105213,8|0,0:0|0:0,0:0:0:0:
154,186,23831,1,0,0:0:0:0:
154,186,23960,5,2,0:0:0:0:
281,294,24348,1,0,0:0:0:0:
281,294,24477,1,8,0:0:0:0:
138,191,24898,1,0,0:0:0:0:
251,180,25253,1,2,0:0:0:0:
407,157,25512,2,0,B|445:131|392:120,1,50.007990680695,8|2,0:0|0:0,0:0:0:0:
370,120,25770,1,2,0:0:0:0:
133,94,26029,5,2,0:0:0:0:
248,231,26546,2,0,L|245:297,1,37.5059930105213,8|0,0:0|0:0,0:0:0:0:
129,324,26934,1,0,0:0:0:0:
245,354,27193,1,0,0:0:0:0:
129,324,27581,1,8,0:0:0:0:
215,282,27969,1,0,0:0:0:0:
385,258,28098,6,0,P|434:228|361:204,1,150.023972042085,2|8,0:0|0:0,0:0:0:0:
318,189,28745,1,0,0:0:0:0:
214,148,29003,1,0,0:0:0:0:
333,71,29262,1,0,0:0:0:0:
214,148,29650,1,8,0:0:0:0:
300,74,30038,1,0,0:0:0:0:
131,76,30167,6,0,P|93:142|145:143,1,150.023972042085,2|8,0:0|0:0,0:0:0:0:
187,144,30814,1,0,0:0:0:0:
283,223,31072,1,0,0:0:0:0:
173,286,31331,1,0,0:0:0:0:
285,334,31719,1,8,0:0:0:0:
424,285,32107,1,0,0:0:0:0:
256,213,32236,6,0,L|77:201,1,150.023972042085,2|8,0:0|0:0,0:0:0:0:
55,190,32883,1,0,0:0:0:0:
165,128,33141,1,0,0:0:0:0:
46,68,33400,1,0,0:0:0:0:
196,138,33788,1,8,0:0:0:0:
88,61,34176,1,0,0:0:0:0:
258,197,34305,6,0,L|426:209,1,150.023972042085,2|8,0:0|0:0,0:0:0:0:
464,211,34952,1,0,0:0:0:0:
358,154,35210,2,0,L|252:151,1,75.0119860210425,0|0,0:0|0:0,0:0:0:0:
146,41,35857,1,8,0:0:0:0:
111,127,36245,1,0,0:0:0:0:
279,333,36374,6,0,P|330:303|309:213,1,150.023972042085,2|8,0:0|0:0,0:0:0:0:
255,284,37020,1,0,0:0:0:0:
150,222,37279,1,0,0:0:0:0:
47,197,37538,1,0,0:0:0:0:
151,149,37796,1,0,0:0:0:0:
208,138,37926,1,8,0:0:0:0:
294,73,38314,1,0,0:0:0:0:
125,164,38443,6,0,P|95:116|167:35,1,150.023972042085,2|8,0:0|0:0,0:0:0:0:
195,36,39089,1,0,0:0:0:0:
288,113,39348,1,0,0:0:0:0:
196,204,39607,1,0,0:0:0:0:
197,259,39736,1,0,0:0:0:0:
299,307,39995,1,8,0:0:0:0:
240,305,40124,1,0,0:0:0:0:
209,179,40383,1,0,0:0:0:0:
377,167,40512,6,0,P|428:103|397:50,1,150.023972042085,2|8,0:0|0:0,0:0:0:0:
350,42,41158,1,0,0:0:0:0:
296,37,41288,1,2,0:0:0:0:
264,60,41374,1,0,0:0:0:0:
293,99,41460,1,0,0:0:0:0:
384,190,41676,1,0,0:0:0:0:
385,251,41805,1,2,0:0:0:0:
295,307,42064,2,0,L|395:308,1,75.0119860210425,8|2,0:0|0:0,0:0:0:0:
153,228,42581,5,2,0:0:0:0:
262,144,43098,2,0,L|121:150,1,112.517979031564,2|2,0:0|0:0,0:0:0:0:
236,213,43745,1,2,0:0:0:0:
316,287,44003,2,0,L|314:189,1,75.0119860210425,2|2,0:0|0:0,0:0:0:0:
219,173,44520,1,2,0:0:0:0:
63,170,44650,6,0,P|35:111|99:34,1,150.023972042085,2|8,0:0|0:0,0:0:0:0:
136,25,45296,1,0,0:0:0:0:
234,91,45555,2,0,L|236:184,1,75.0119860210425,0|0,0:0|0:0,0:0:0:0:
163,176,45943,1,0,0:0:0:0:
68,258,46202,2,0,L|68:310,1,37.5059930105213,8|0,0:0|0:0,0:0:0:0:
135,346,46589,1,0,0:0:0:0:
305,346,46719,6,0,P|369:330|393:235,1,150.023972042085,2|8,0:0|0:0,0:0:0:0:
341,220,47365,1,0,0:0:0:0:
257,149,47624,1,0,0:0:0:0:
338,75,47883,1,0,0:0:0:0:
257,149,48141,1,0,0:0:0:0:
210,198,48270,2,0,P|204:277|232:324,1,112.517979031564,8|0,0:0|0:0,0:0:0:0:
388,332,48788,6,0,P|463:288|456:215,1,150.023972042085,2|8,0:0|0:0,0:0:0:0:
397,190,49434,1,0,0:0:0:0:
310,107,49693,1,0,0:0:0:0:
398,179,49952,1,0,0:0:0:0:
310,269,50210,1,0,0:0:0:0:
151,226,50339,1,8,0:0:0:0:
185,151,50727,1,0,0:0:0:0:
355,154,50857,6,0,P|397:111|361:39,1,150.023972042085,2|8,0:0|0:0,0:0:0:0:
296,31,51503,1,0,0:0:0:0:
205,167,51762,1,0,0:0:0:0:
298,43,52020,1,0,0:0:0:0:
205,167,52279,1,0,0:0:0:0:
146,236,52408,1,8,0:0:0:0:
232,323,52796,1,0,0:0:0:0:
66,317,52926,6,0,P|33:256|82:180,1,150.023972042085,2|8,0:0|0:0,0:0:0:0:
126,174,53572,1,0,0:0:0:0:
217,115,53831,1,0,0:0:0:0:
126,174,54089,1,0,0:0:0:0:
217,247,54348,1,0,0:0:0:0:
275,272,54477,2,0,L|276:339,1,37.5059930105213,8|0,0:0|0:0,0:0:0:0:
245,339,54736,1,0,0:0:0:0:
188,343,54865,1,0,0:0:0:0:
139,343,54995,6,0,B|296:338,1,150.023972042085,0|8,0:0|0:0,0:0:0:0:
367,333,55641,1,0,0:0:0:0:
268,253,55900,2,0,L|266:161,1,75.0119860210425,0|0,0:0|0:0,0:0:0:0:
162,145,56417,1,0,0:0:0:0:
112,95,56546,6,0,L|117:38,1,37.5059930105213,8|0,0:0|0:0,0:0:0:0:
182,28,56805,2,0,L|254:37,1,37.5059930105213,0|0,0:0|0:0,0:0:0:0:
286,74,57064,2,0,L|104:84,1,150.023972042085,2|8,0:0|0:0,0:0:0:0:
79,133,57710,1,0,0:0:0:0:
168,237,57969,1,0,0:0:0:0:
280,303,58227,2,0,L|278:370,1,37.5059930105213,0|0,0:0|0:0,0:0:0:0:
173,354,58615,2,0,L|304:348,1,112.517979031564,8|0,0:0|0:0,0:0:0:0:
455,291,59133,5,6,0:0:0:0:
256,192,67408,12,8,71029,0:0:0:0:
349,127,71546,6,0,L|337:250,1,100.01598136139,2|0,0:0|0:0,0:0:0:0:
246,238,72064,2,0,L|231:360,1,100.01598136139,8|0,0:0|0:0,0:0:0:0:
131,92,72581,6,0,L|252:94,1,100.01598136139,2|0,0:0|0:0,0:0:0:0:
121,197,73098,2,0,L|221:195,1,100.01598136139,8|0,0:0|0:0,0:0:0:0:
276,223,73529,1,0,0:0:0:0:
328,241,73615,6,0,L|390:242,2,50.007990680695,2|2|2,0:0|0:0|0:0,0:0:0:0:
208,305,74133,2,0,L|142:310,2,50.007990680695,8|2|2,0:0|0:0|0:0,0:0:0:0:
434,335,74650,1,2,0:0:0:0:
476,168,75684,2,0,P|492:119|472:36,1,100.01598136139,2|0,0:0|0:0,0:0:0:0:
300,244,76202,6,0,P|262:187|314:133,1,150.023972042085,12|2,0:0|0:0,0:0:0:0:
393,95,76891,1,0,0:0:0:0:
313,41,77064,1,0,0:0:0:0:
133,101,77236,1,8,0:0:0:0:
111,178,77408,1,0,0:0:0:0:
182,234,77581,1,0,0:0:0:0:
42,311,77926,1,0,0:0:0:0:
303,275,78270,6,0,L|301:223,1,50.007990680695,8|0,0:0|0:0,0:0:0:0:
195,176,78615,1,0,0:0:0:0:
93,146,78788,2,0,L|44:100,1,50.007990680695,2|0,0:0|0:0,0:0:0:0:
123,30,79133,1,0,0:0:0:0:
200,70,79305,1,8,0:0:0:0:
117,139,79477,1,0,0:0:0:0:
27,202,79650,1,0,0:0:0:0:
285,313,79995,1,0,0:0:0:0:
463,225,80339,6,0,L|424:74,1,150.023972042085,8|2,0:0|0:0,0:0:0:0:
364,80,81029,1,0,0:0:0:0:
425,79,81202,1,0,0:0:0:0:
232,135,81374,1,8,0:0:0:0:
167,197,81546,1,0,0:0:0:0:
234,253,81719,1,0,0:0:0:0:
314,190,81891,2,0,L|312:332,1,100.01598136139,2|0,0:0|0:0,0:0:0:0:
133,316,82408,6,0,L|39:316,2,50.007990680695,8|0|0,0:0|0:0|0:0,0:0:0:0:
223,247,82926,2,0,L|221:139,1,100.01598136139,2|0,0:0|0:0,0:0:0:0:
46,126,83443,1,0,0:0:0:0:
48,67,83615,1,0,0:0:0:0:
117,66,83788,1,0,0:0:0:0:
292,76,83960,2,0,P|320:137|293:168,1,100.01598136139
138,202,84477,5,0,0:0:0:0:
85,231,84822,1,0,0:0:0:0:
92,292,84995,2,0,L|147:289,1,50.007990680695,2|0,0:0|0:0,0:0:0:0:
208,281,85339,1,0,0:0:0:0:
385,280,85512,2,0,L|443:281,1,50.007990680695,8|0,0:0|0:0,0:0:0:0:
385,280,85857,1,0,0:0:0:0:
259,209,86202,1,0,0:0:0:0:
249,150,86374,1,0,0:0:0:0:
57,311,86546,6,0,L|52:231,1,50.007990680695,8|0,0:0|0:0,0:0:0:0:
113,217,86891,1,0,0:0:0:0:
190,213,87064,1,2,0:0:0:0:
113,217,87236,1,0,0:0:0:0:
33,204,87408,1,0,0:0:0:0:
118,179,87581,2,0,L|199:110,1,100.01598136139,8|0,0:0|0:0,0:0:0:0:
263,73,88098,1,0,0:0:0:0:
445,239,88270,1,0,0:0:0:0:
371,276,88615,6,0,L|300:278,1,50.007990680695,8|0,0:0|0:0,0:0:0:0:
318,227,88960,1,0,0:0:0:0:
395,223,89133,1,2,0:0:0:0:
461,281,89305,1,0,0:0:0:0:
386,325,89477,1,0,0:0:0:0:
207,267,89650,1,8,0:0:0:0:
123,228,89822,1,0,0:0:0:0:
66,164,89995,1,0,0:0:0:0:
67,101,90167,1,2,0:0:0:0:
197,137,90512,5,0,0:0:0:0:
391,61,90684,2,0,P|425:150|388:203,1,150.023972042085,8|2,0:0|0:0,0:0:0:0:
291,231,91374,1,0,0:0:0:0:
195,251,91546,1,0,0:0:0:0:
297,270,91719,2,0,L|375:265,2,50.007990680695,8|0|0,0:0|0:0|0:0,0:0:0:0:
194,278,92236,2,0,L|187:145,1,100.01598136139,2|0,0:0|0:0,0:0:0:0:
376,107,92753,6,0,P|407:173|371:211,1,100.01598136139,12|0,0:0|0:0,0:0:0:0:
212,282,93270,2,0,L|151:303,2,50.007990680695,2|0|0,0:0|0:0|0:0,0:0:0:0:
308,232,93788,1,8,0:0:0:0:
306,157,93960,1,0,0:0:0:0:
217,107,94133,1,0,0:0:0:0:
397,42,94305,6,0,P|436:74|433:150,1,100.01598136139,2|0,0:0|0:0,0:0:0:0:
382,207,94822,1,8,0:0:0:0:
293,235,94995,1,0,0:0:0:0:
294,305,95167,1,0,0:0:0:0:
108,331,95339,1,2,0:0:0:0:
48,280,95512,1,0,0:0:0:0:
103,221,95684,1,0,0:0:0:0:
193,174,95857,6,0,L|262:176,2,50.007990680695,8|0|0,0:0|0:0|0:0,0:0:0:0:
3,107,96374,1,2,0:0:0:0:
120,94,96719,5,0,0:0:0:0:
317,273,96891,2,0,L|315:190,1,50.007990680695,8|0,0:0|0:0,0:0:0:0:
242,170,97236,1,0,0:0:0:0:
166,112,97408,2,0,L|275:106,1,100.01598136139,2|0,0:0|0:0,0:0:0:0:
364,180,97926,2,0,L|431:180,2,50.007990680695,8|0|0,0:0|0:0|0:0,0:0:0:0:
270,260,98615,2,0,L|219:261,1,50.007990680695,0|0,0:0|0:0,0:0:0:0:
44,281,98960,6,0,L|40:201,1,50.007990680695,8|0,0:0|0:0,0:0:0:0:
110,189,99305,1,0,0:0:0:0:
292,151,99477,2,0,L|291:75,1,50.007990680695,2|0,0:0|0:0,0:0:0:0:
205,80,99822,1,0,0:0:0:0:
121,58,99995,2,0,L|-15:64,1,100.01598136139,8|0,0:0|0:0,0:0:0:0:
211,140,100512,1,2,0:0:0:0:
203,144,100857,1,0,0:0:0:0:
407,328,101029,6,0,L|486:325,2,50.007990680695,12|0|0,0:0|0:0|0:0,0:0:0:0:
331,272,101546,1,2,0:0:0:0:
329,209,101719,1,0,0:0:0:0:
404,187,101891,1,0,0:0:0:0:
329,209,102064,1,8,0:0:0:0:
419,190,102236,1,0,0:0:0:0:
337,241,102408,1,0,0:0:0:0:
144,275,102581,6,0,L|7:277,1,100.01598136139,2|0,0:0|0:0,0:0:0:0:
109,188,103098,1,8,0:0:0:0:
41,133,103270,1,0,0:0:0:0:
37,58,103443,1,0,0:0:0:0:
223,126,103615,1,2,0:0:0:0:
298,185,103788,1,0,0:0:0:0:
298,193,103960,1,0,0:0:0:0:
116,325,104133,6,0,L|15:326,1,100.01598136139,8|0,0:0|0:0,0:0:0:0:
84,245,104650,2,0,L|183:239,1,100.01598136139,2|0,0:0|0:0,0:0:0:0:
371,160,105167,1,8,0:0:0:0:
269,117,105512,1,0,0:0:0:0:
451,250,105684,6,0,P|460:302|434:345,1,100.01598136139,2|0,0:0|0:0,0:0:0:0:
344,345,106202,2,0,L|262:349,2,50.007990680695,8|0|0,0:0|0:0|0:0,0:0:0:0:
427,267,106719,2,0,L|311:264,1,100.01598136139,2|8,0:0|0:0,0:0:0:0:
250,220,107236,1,0,0:0:0:0:
257,154,107408,1,0,0:0:0:0:
335,145,107581,1,0,0:0:0:0:
257,154,107753,6,0,L|127:172,1,100.01598136139,2|0,0:0|0:0,0:0:0:0:
247,268,108270,2,0,L|297:262,2,50.007990680695,2|2|2,0:0|0:0|0:0,0:0:0:0:
76,314,108788,1,0,0:0:0:0:
256,192,109305,12,2,117064,0:0:0:0:
