osu file format v14

[General]
AudioFilename: audio.mp3
AudioLeadIn: 0
PreviewTime: 60655
Countdown: 0
SampleSet: Soft
StackLeniency: 0.7
Mode: 0
LetterboxInBreaks: 0
WidescreenStoryboard: 0

[Editor]
DistanceSpacing: 1.4
BeatDivisor: 4
GridSize: 4
TimelineZoom: 0.4999999

[Metadata]
Title:Marutsuke (TV Size)
TitleUnicode:まるつけ (TV Size)
Artist:Given
ArtistUnicode:ギヴン
Creator:Blitzifyyy
Version:Easy
Source:ギヴン
Tags:センチミリメンタル centimilli mental centimillimental anime japanese ed ending yaoi bl boys love shounen ai kizuato キヅアト Lerche Sato Satou Mafuyu 佐藤真冬 Yano Shougo 矢野奨吾
BeatmapID:2404192
BeatmapSetID:1151806

[Difficulty]
HPDrainRate:2
CircleSize:2.8
OverallDifficulty:2
ApproachRate:3
SliderMultiplier:1.8
SliderTickRate:1

[Events]
//Background and Video events
0,0,"bggiven.jpg",0,0
Video,200,"blob.mp4"
//Break Periods
//Storyboard Layer 0 (Background)
//Storyboard Layer 1 (Fail)
//Storyboard Layer 2 (Pass)
//Storyboard Layer 3 (Foreground)
//Storyboard Layer 4 (Overlay)
//Storyboard Sound Samples

[TimingPoints]
30,750,4,2,1,40,1,0
1530,750,4,2,2,40,1,0
31530,-100,4,2,1,60,0,0
55530,-100,4,2,1,65,0,0
61530,-100,4,2,1,70,0,1
82530,-100,4,2,2,40,0,0

[Colours]
Combo1 : 199,146,120
Combo2 : 255,72,72
Combo3 : 47,128,225
Combo4 : 255,168,125

[HitObjects]
196,352,1530,6,0,B|299:384|282:308|396:344,1,180,2|2,0:0|0:0,0:0:0:0:
459,353,2655,1,2,0:0:0:0:
434,266,3030,2,0,P|422:221|436:164,1,90,2|2,0:0|0:0,0:0:0:0:
491,113,3780,1,2,0:0:0:0:
344,7,4530,6,0,B|275:7|275:7|254:18|254:18|163:18,1,180,2|2,0:0|0:0,0:0:0:0:
155,107,5655,1,2,0:0:0:0:
206,180,6030,2,0,L|300:179,1,90,2|0,0:0|0:0,0:0:0:0:
386,163,6780,1,2,0:0:0:0:
445,230,7155,1,0,0:0:0:0:
388,299,7530,6,0,B|292:275|307:333|201:318,1,180,2|2,0:0|0:0,0:0:0:0:
155,256,8655,1,2,0:0:0:0:
80,205,9030,2,0,P|63:253|71:297,1,90,2|0,0:0|0:0,0:0:0:0:
134,352,9780,2,0,P|161:356|188:348,1,45,2|0,0:0|0:0,0:0:0:0:
241,233,10530,6,0,B|297:204|297:204|406:252,1,180,2|2,0:0|0:0,0:0:0:0:
479,300,11655,1,2,0:0:0:0:
502,213,12030,2,0,P|513:171|497:121,2,90,2|0|2,0:0|0:0|0:0,0:0:0:0:
333,276,13530,6,0,P|294:259|237:267,1,90,2|0,0:0|0:0,0:0:0:0:
166,210,14280,2,0,L|168:110,1,90,2|2,0:0|0:0,0:0:0:0:
128,38,15030,1,2,0:0:0:0:
41,13,15405,1,2,0:0:0:0:
48,102,15780,1,2,0:0:0:0:
2,276,16530,6,0,B|90:302|87:235|188:275,1,180,2|2,0:0|0:0,0:0:0:0:
259,309,17655,1,2,0:0:0:0:
295,227,18030,2,0,L|293:132,1,90,2|0,0:0|0:0,0:0:0:0:
343,63,18780,2,0,P|385:50|434:62,1,90,2|0,0:0|0:0,0:0:0:0:
488,127,19530,6,0,B|471:209|471:209|494:309,1,180,2|2,0:0|0:0,0:0:0:0:
434,371,20655,1,2,0:0:0:0:
352,332,21030,2,0,P|299:323|247:342,1,90,2|0,0:0|0:0,0:0:0:0:
180,363,21780,2,0,L|126:364,1,45,2|0,0:0|0:0,0:0:0:0:
18,296,22530,6,0,B|10:243|42:215|42:215|10:180|23:127,1,180,2|2,0:0|0:0,0:0:0:0:
90,69,23655,1,2,0:0:0:0:
172,33,24030,2,0,P|215:21|280:44,1,90,2|0,0:0|0:0,0:0:0:0:
319,96,24780,2,0,L|319:194,1,90,2|0,0:0|0:0,0:0:0:0:
244,235,25530,6,0,P|197:246|155:231,2,90,2|2|2,0:0|0:0|0:0,0:0:0:0:
319,186,26655,2,0,P|358:153|377:293,1,270,2|0,0:0|0:0,0:0:0:0:
243,341,28530,6,0,L|142:340,2,90,2|2|2,0:0|0:0|0:0,0:0:0:0:
332,343,29655,1,2,0:0:0:0:
432,51,31530,6,0,B|339:78|347:9|241:40,1,180,4|0,1:2|1:0,0:0:0:0:
179,79,32655,1,0,0:0:0:0:
197,167,33030,2,0,P|210:209|198:274,2,90,0|0|0,1:0|0:0|1:0,0:0:0:0:
179,79,34155,1,0,0:0:0:0:
242,15,34530,6,0,L|345:14,1,90,0|0,1:0|0:0,0:0:0:0:
388,83,35280,2,0,P|407:131|399:179,1,90,0|0,1:0|0:0,0:0:0:0:
350,241,36030,2,0,P|331:289|339:337,1,90,0|0,1:0|0:0,0:0:0:0:
405,382,36780,1,0,1:0:0:0:
474,325,37155,1,0,0:0:0:0:
437,242,37530,6,0,B|437:186|437:186|429:172|429:172|426:59,1,180,0|0,1:0|1:0,0:0:0:0:
359,2,38655,1,0,0:0:0:0:
293,63,39030,2,0,P|248:73|200:60,1,90,0|0,1:0|0:0,0:0:0:0:
123,26,39780,2,0,P|78:16|30:29,1,90,0|0,1:0|0:0,0:0:0:0:
5,110,40530,6,0,B|37:200|-16:196|7:290,1,180,0|0,1:0|1:0,0:0:0:0:
63,356,41655,1,0,0:0:0:0:
138,306,42030,1,10,1:2:0:0:
212,357,42405,2,0,P|242:359|269:357,1,45,0|0,0:0|0:0,0:0:0:0:
453,244,43530,6,0,B|466:200|466:200|457:143,1,90,6|2,1:2|0:0,0:0:0:0:
386,102,44280,2,0,L|279:101,1,90,8|2,0:0|0:0,0:0:0:0:
218,146,45030,2,0,L|111:147,1,90,2|2,1:2|0:0,0:0:0:0:
66,81,45780,1,8,0:0:0:0:
117,7,46155,1,2,0:0:0:0:
196,49,46530,6,0,B|277:49|277:49|294:59|294:59|384:59,1,180,2|8,1:2|0:0,0:0:0:0:
459,34,47655,1,2,0:0:0:0:
498,114,48030,2,0,P|507:170|494:210,1,90,2|2,1:2|0:0,0:0:0:0:
446,275,48780,2,0,P|441:303|448:322,1,45,8|8,0:0|0:0,0:0:0:0:
321,370,49530,6,0,P|271:351|221:362,1,90,2|2,1:2|0:0,0:0:0:0:
160,306,50280,2,0,L|163:205,1,90,8|2,0:0|0:0,0:0:0:0:
216,143,51030,2,0,B|262:134|262:134|312:147,1,90,2|2,1:2|0:0,0:0:0:0:
390,170,51780,1,8,0:0:0:0:
446,100,52155,1,2,0:0:0:0:
403,20,52530,6,0,B|314:-6|316:60|201:31,1,180,2|8,1:2|0:0,0:0:0:0:
140,13,53655,1,2,0:0:0:0:
82,82,54030,2,0,L|83:203,1,90,2|2,1:2|0:0,0:0:0:0:
126,250,54780,1,8,1:2:0:0:
91,332,55155,1,0,1:0:0:0:
174,366,55530,6,0,L|281:365,1,90,4|2,1:2|0:0,0:0:0:0:
336,312,56280,2,0,L|443:313,1,90,8|2,0:0|0:0,0:0:0:0:
498,258,57030,2,0,P|512:209|500:152,1,90,6|2,0:0|0:0,0:0:0:0:
448,102,57780,1,8,1:2:0:0:
371,149,58155,1,0,1:0:0:0:
312,80,58530,6,0,P|267:70|208:90,1,90,4|2,1:2|0:0,0:0:0:0:
173,153,59280,2,0,L|176:262,1,90,12|2,0:0|0:0,0:0:0:0:
124,317,60030,2,0,P|101:321|79:318,1,45,8|8,1:2|1:2,0:0:0:0:
9,262,60592,1,8,1:2:0:0:
135,75,61530,6,0,B|223:45|222:106|320:73,1,180,4|8,1:2|0:0,0:0:0:0:
389,31,62655,1,2,0:0:0:0:
453,94,63030,2,0,P|466:150|453:206,1,90,2|2,1:2|1:2,0:0:0:0:
405,251,63780,2,0,P|389:305|405:363,1,90,8|2,0:0|0:0,0:0:0:0:
306,360,64530,6,0,B|239:359|239:359|219:368|219:368|123:368,1,180,4|8,1:2|0:0,0:0:0:0:
52,319,65655,1,2,0:0:0:0:
25,232,66030,2,0,L|29:136,1,90,2|2,1:2|1:2,0:0:0:0:
81,68,66780,2,0,B|126:57|126:57|178:70,1,90,8|2,0:0|0:0,0:0:0:0:
247,110,67530,6,0,B|226:159|226:159|232:294,1,180,4|8,1:2|0:0,0:0:0:0:
274,366,68655,1,2,0:0:0:0:
345,311,69030,2,0,P|388:299|437:318,1,90,2|2,1:2|1:2,0:0:0:0:
502,259,69780,2,0,L|501:151,1,90,8|2,0:0|0:0,0:0:0:0:
443,100,70530,2,0,P|392:90|340:111,1,90,8|0,0:0|1:0,0:0:0:0:
275,139,71280,5,8,1:2:0:0:
190,107,71655,1,8,0:0:0:0:
112,152,72030,2,0,L|116:263,1,90,0|0,0:0|1:0,0:0:0:0:
161,319,72780,1,8,0:0:0:0:
245,351,73155,1,0,1:0:0:0:
293,277,73530,6,0,B|365:273|365:273|388:284|388:284|474:285,1,180,4|8,1:2|0:0,0:0:0:0:
500,200,74655,1,2,0:0:0:0:
431,141,75030,2,0,P|385:129|343:145,1,90,2|2,1:2|1:2,0:0:0:0:
267,185,75780,1,8,0:0:0:0:
191,135,76155,1,2,0:0:0:0:
238,58,76530,6,0,L|350:56,1,90,4|0,1:2|1:0,0:0:0:0:
406,100,77280,2,0,P|428:146|422:193,1,90,8|2,0:0|0:0,0:0:0:0:
390,266,78030,1,2,1:2:0:0:
414,352,78405,1,2,1:2:0:0:
324,346,78780,2,0,B|281:335|281:335|220:352,1,90,8|2,0:0|0:0,0:0:0:0:
160,299,79530,6,8,B|188:206|119:212|139:120,1,180,4|8,1:2|0:0,0:0:0:0:
209,71,80655,1,2,0:0:0:0:
281,124,81030,2,0,L|372:122,1,90,2|2,1:2|1:2,0:0:0:0:
457,98,81780,1,8,0:0:0:0:
502,174,82155,1,8,0:0:0:0:
433,233,82530,6,0,B|371:231|371:231|349:246|349:246|233:244,1,180,2|2,0:0|0:0,0:0:0:0:
189,187,83655,2,0,P|179:136|197:88,1,90,2|2,0:0|0:0,0:0:0:0:
248,32,84405,1,2,0:0:0:0:
24,183,85530,6,0,B|62:277|-2:277|30:362,1,180,2|2,0:0|0:0,0:0:0:0:
109,319,86655,2,0,P|153:309|204:319,1,90,2|2,0:0|0:0,0:0:0:0:
280,348,87405,1,2,0:0:0:0:
