osu file format v14

[General]
AudioFilename: audio.mp3
AudioLeadIn: 0
PreviewTime: 117891
Countdown: 0
SampleSet: Soft
StackLeniency: 0.7
Mode: 0
LetterboxInBreaks: 0
WidescreenStoryboard: 1

[Editor]
Bookmarks: 117975,118058,118141,118225,118308,118391,118475,118558,118641,118725,118808,118891,118975,119058,119141,119225,119308,119391,119475,119558,119641,119725,119808,119891,119975,120058,120141,120225,120308,120391,120475,120558,120641,120725,120808,120891,120975,121058,121141,121225,121308,121391,121475,121558,121641,121725,121808,121891,121975,122058,122141,122225,122308,122391,122475,122558,122641,122725,122808,122891,122975,123058,123141,123225,123308,123391,123475,123558,123641,123725,123808,123891,123975,124058,124141,124225,124308,124391,124475,124558,124641,124725,124808,124891,124975,125058,125141,125225,125308,125391,125475,125558,125641,125725,125808,125891,125975,126058,126141,126225,126308,126391,126475,126558,126641,126725,126808,126891,126975,127058,127141,127225,127308,127391,127475,127558,127641,127725,127808,127891,127975,128058,128141,128225,128308,128391,128475,128558,154808
DistanceSpacing: 0.4
BeatDivisor: 4
GridSize: 16
TimelineZoom: 1.5

[Metadata]
Title:Hetakuso
TitleUnicode:へたくそ
Artist:Given
ArtistUnicode:ギヴン
Creator:Blitzifyyy
Version:TheBlank's Insane
Source:映画 ギヴン
Tags:WashedUp Player TheBlank arronchu1207 Eiga Movie Japanese Anime the seasons センチミリメンタル centimilli mental centimillimental anime japanese insert song yaoi bl boys love shounen ai Lerche Sato Satou Mafuyu 佐藤真冬 Yano Shougo 矢野奨吾 pop j-pop rock j-rock
BeatmapID:2680898
BeatmapSetID:1237078

[Difficulty]
HPDrainRate:6
CircleSize:3.6
OverallDifficulty:8.7
ApproachRate:9
SliderMultiplier:1.8
SliderTickRate:1

[Events]
//Background and Video events
0,0,"c8f3d3b420cd1cd48c2784ea30dde974.jpg",0,0
//Break Periods
2,27508,29375
2,70175,72041
2,112841,115308
2,120641,128041
//Storyboard Layer 0 (Background)
//Storyboard Layer 1 (Fail)
//Storyboard Layer 2 (Pass)
//Storyboard Layer 3 (Foreground)
//Storyboard Layer 4 (Overlay)
//Storyboard Sound Samples

[TimingPoints]
642,333.333333333333,4,2,1,75,1,0
892,-100,4,2,1,5,0,0
975,-100,4,2,1,75,0,0
3558,-100,4,2,1,5,0,0
3641,-100,4,2,1,75,0,0
4891,-100,4,2,1,5,0,0
4975,-100,4,2,1,75,0,0
5391,-100,4,2,1,5,0,0
5475,-100,4,2,1,75,0,0
8891,-100,4,2,1,5,0,0
8975,-100,4,2,1,75,0,0
11308,-111.111111111111,4,2,1,75,0,0
13975,-125,4,2,1,75,0,0
17308,-111.111111111111,4,2,1,75,0,0
27308,-111.111111111111,4,2,1,55,0,0
31058,-111.111111111111,4,2,1,5,0,0
31141,-111.111111111111,4,2,1,55,0,0
31308,-111.111111111111,4,2,1,65,0,0
31975,-200,4,2,1,65,0,0
32225,-200,4,2,1,5,0,0
32308,-200,4,2,1,65,0,0
32641,-83.3333333333333,4,2,1,85,0,1
37308,-142.857142857143,4,2,1,85,0,1
37641,-71.4285714285714,4,2,1,85,0,1
38641,-100,4,2,1,85,0,1
40641,-83.3333333333333,4,2,1,85,0,1
42308,-58.8235294117647,4,2,1,85,0,1
42558,-58.8235294117647,4,2,1,5,0,1
42641,-58.8235294117647,4,2,1,85,0,1
43225,-58.8235294117647,4,2,1,85,0,0
43308,-71.4285714285714,4,2,1,85,0,1
44308,-83.3333333333333,4,2,1,85,0,1
45141,-76.9230769230769,4,2,1,85,0,1
45641,-100,4,2,1,85,0,1
45975,-76.9230769230769,4,2,1,85,0,1
49141,-100,4,2,1,85,0,1
49641,-71.4285714285714,4,2,1,85,0,1
49891,-71.4285714285714,4,2,1,5,0,1
49975,-83.3333333333333,4,2,1,85,0,1
53975,-100,4,2,1,75,0,0
56225,-100,4,2,1,5,0,0
56308,-100,4,2,1,75,0,0
58975,-66.6666666666667,4,2,1,75,0,0
59308,-100,4,2,1,75,0,0
64641,-108.695652173913,4,2,1,75,0,0
69308,-65.7894736842105,4,2,1,75,0,0
69558,-65.7894736842105,4,2,1,5,0,0
69641,-62.5,4,2,1,75,0,0
69975,-43.4782608695652,4,2,1,55,0,0
74225,-43.4782608695652,4,2,1,5,0,0
74308,-181.818181818181,4,2,1,55,0,0
74975,-399.999999999997,4,2,1,55,0,0
75225,-399.999999999997,4,2,1,5,0,0
75308,-90.9090909090908,4,2,1,65,0,0
76808,-142.857142857143,4,2,1,65,0,0
77308,-100,4,2,1,65,0,0
79475,-125,4,2,1,65,0,0
80641,-100,4,2,1,65,0,0
84975,-125,4,2,1,65,0,0
85308,-76.9230769230769,4,2,1,65,0,0
85975,-100,4,2,1,65,0,0
101308,-76.9230769230769,4,2,1,65,0,0
101975,-100,4,2,1,65,0,0
103975,-76.9230769230769,4,2,1,65,0,0
104808,-100,4,2,1,65,0,0
106391,-100,4,2,1,5,0,0
106475,-100,4,2,1,65,0,0
106641,-62.5,4,2,1,65,0,0
106975,-100,4,2,1,65,0,0
111975,-65.7894736842105,4,2,1,65,0,0
112225,-65.7894736842105,4,2,1,5,0,0
112308,-58.8235294117647,4,2,1,65,0,0
112641,-43.4782608695652,4,2,1,55,0,0
116141,-181.818181818181,4,2,1,55,0,0
116641,-181.818181818181,4,2,1,65,0,0
116808,-111.111111111111,4,2,1,65,0,0
128641,-111.111111111111,4,2,1,75,0,0
128808,-142.857142857143,4,2,1,75,0,0
138308,-83.3333333333333,4,2,1,75,0,0
139308,-90.9090909090909,4,2,1,85,0,1
143558,-90.9090909090909,4,2,1,5,0,1
143641,-58.8235294117647,4,2,1,85,0,1
144308,-90.9090909090909,4,2,1,85,0,1
148891,-90.9090909090909,4,2,1,5,0,1
148975,-90.9090909090909,4,2,1,85,0,1
149891,-90.9090909090909,4,2,1,85,0,0
149975,-90.9090909090909,4,2,1,85,0,1
158975,-58.8235294117647,4,2,1,85,0,1
159225,-58.8235294117647,4,2,1,5,0,1
159308,-58.8235294117647,4,2,1,85,0,1
159475,-90.9090909090909,4,2,1,85,0,1
160641,-100,4,2,1,75,0,0
160891,-100,4,2,1,5,0,0
160975,-100,4,2,1,75,0,0
163558,-100,4,2,1,5,0,0
163641,-100,4,2,1,75,0,0
164891,-100,4,2,1,5,0,0
164975,-100,4,2,1,75,0,0
165391,-100,4,2,1,5,0,0
165475,-100,4,2,1,75,0,0
168891,-100,4,2,1,5,0,0
168975,-100,4,2,1,75,0,0
174225,-100,4,2,1,5,0,0
174308,-100,4,2,1,75,0,0
175558,-100,4,2,1,5,0,0
175641,-100,4,2,1,75,0,0
175808,-99.9999999999999,4,2,1,75,0,0
176641,-100,4,2,1,75,0,0
177725,-100,4,2,1,5,0,0
177808,-100,4,2,1,75,0,0
179558,-100,4,2,1,5,0,0
179641,-100,4,2,1,75,0,0
180308,-65.7894736842105,4,2,1,75,0,0
180641,-58.8235294117647,4,2,1,75,0,0
181475,-100,4,2,1,75,0,0
183808,-83.3333333333333,4,2,1,75,0,0

[Colours]
Combo1 : 83,169,255
Combo2 : 249,231,170
Combo3 : 193,132,255
Combo4 : 140,140,140

[HitObjects]
40,49,475,5,2,0:0:0:0:
40,49,558,1,2,0:0:0:0:
40,49,642,2,0,P|110:63|210:86,1,135,6|0,1:2|0:0,0:0:0:0:
250,57,975,2,0,B|237:15|237:15|194:0,1,90.3599999999999,10|10,0:0|0:0,0:0:0:0:
169,167,1308,1,2,0:0:0:0:
169,167,1475,6,0,B|227:130|274:178|274:178|275:221|322:240,1,180.18,2|2,1:2|0:0,0:0:0:0:
147,176,1975,2,0,P|135:132|123:88,2,90.0899999999999,0|2|8,1:0|0:0|0:0,0:0:0:0:
123,89,2475,1,10,0:0:0:0:
44,279,2641,5,0,0:0:0:0:
137,267,2808,1,2,1:2:0:0:
34,269,2975,1,8,0:0:0:0:
14,368,3141,1,10,0:0:0:0:
14,368,3225,1,10,0:0:0:0:
18,372,3308,6,0,B|160:340|13:379|166:343,1,135,2|0,1:2|0:0,0:0:0:0:
171,341,3641,1,8,0:0:0:0:
321,288,3808,1,10,0:0:0:0:
321,288,3891,1,2,0:0:0:0:
321,288,3975,6,0,P|291:313|301:369,1,90.3599999999999,2|0,0:0|1:0,0:0:0:0:
425,358,4308,1,8,0:0:0:0:
456,237,4475,1,2,1:2:0:0:
456,237,4558,1,2,0:0:0:0:
456,237,4641,6,0,P|443:163|436:85,1,135,2|0,1:2|0:0,0:0:0:0:
427,104,4975,2,0,P|428:138|436:185,1,45.18,10|0,0:0|0:0,0:0:0:0:
339,20,5141,2,0,P|272:16|162:-2,1,135,10|0,0:0|0:0,0:0:0:0:
182,0,5475,5,2,1:2:0:0:
179,9,5558,1,8,0:0:0:0:
176,18,5641,5,8,3:0:0:0:
126,84,5808,1,10,3:0:0:0:
0,4,5975,2,0,B|37:16|44:54|44:54|-5:100|31:172,1,180.18,6|10,1:2|0:0,0:0:0:0:
179,209,6475,5,10,0:0:0:0:
19,355,6641,1,2,0:0:0:0:
19,355,6808,2,0,B|34:320|23:283|23:283|87:274|106:335,1,180.18,2|2,1:2|0:0,0:0:0:0:
283,340,7308,2,0,P|239:350|196:364,2,90.0899999999999,0|2|8,1:0|0:0|0:0,0:0:0:0:
196,364,7808,1,10,0:0:0:0:
344,261,7975,5,0,0:0:0:0:
322,183,8141,1,2,1:2:0:0:
266,242,8308,1,8,0:0:0:0:
363,270,8475,1,10,0:2:0:0:
363,270,8558,1,10,0:2:0:0:
363,270,8641,2,0,P|419:297|413:372,1,135,2|0,1:2|0:0,0:0:0:0:
417,384,8975,1,8,0:0:0:0:
495,246,9141,1,10,0:0:0:0:
495,246,9225,1,2,0:0:0:0:
495,246,9308,2,0,P|502:201|512:157,1,90.3599999999999,2|0,0:0|1:0,0:0:0:0:
441,58,9641,1,8,0:0:0:0:
275,54,9808,5,2,1:2:0:0:
294,62,9891,1,2,0:2:0:0:
309,78,9975,1,2,1:2:0:0:
208,189,10141,5,8,0:0:0:0:
83,55,10308,1,10,0:0:0:0:
164,7,10475,1,2,1:2:0:0:
164,7,10558,1,0,1:0:0:0:
164,7,10641,5,0,1:0:0:0:
83,55,10808,1,10,0:0:0:0:
208,189,10975,1,8,0:0:0:0:
127,237,11141,1,10,0:0:0:0:
43,384,11308,6,0,B|104:369|104:369|119:328|119:328|200:307,1,162.161995056153,6|8,1:2|0:0,0:0:0:0:
172,314,11975,6,0,B|161:271|161:271|183:240,1,81.3239975280762,2|8,1:2|3:0,0:0:0:0:
172,314,12475,5,10,3:0:0:0:
190,243,12641,1,2,1:2:0:0:
338,299,12975,6,0,B|253:287|344:303|260:292,1,81.3239975280762,10|8,0:0|0:0,0:0:0:0:
260,292,13475,6,0,B|344:303|253:287|338:299,2,81.0809975280762,2|10|2,1:2|3:0|0:0,0:0:0:0:
376,207,13975,2,0,P|411:189|450:197,1,72.2879999999999,2|0,1:2|0:0,0:0:0:0:
455,110,14308,2,0,P|489:120|512:147,1,72.2879999999999,10|2,0:0|0:0,0:0:0:0:
370,216,14641,1,2,1:2:0:0:
370,216,14808,2,0,P|335:205|300:195,1,72.2879999999999,10|2,0:0|0:0,0:0:0:0:
199,118,15141,1,8,0:0:0:0:
199,118,15308,2,0,P|268:98|336:76,1,144.144,0|8,1:0|0:0,0:0:0:0:
333,69,15808,2,0,P|298:80|264:90,1,72.2879999999999,8|0,0:0|0:0,0:0:0:0:
106,14,16141,6,0,P|146:17|175:48,2,72.0719999999999,2|8|2,1:0|3:0|1:2,0:0:0:0:
16,87,16641,2,0,P|29:157|36:229,1,144.144,2|8,1:2|0:0,0:0:0:0:
47,228,17308,6,0,P|44:188|39:148,1,81.3239975280762,2|8,1:2|3:0,0:0:0:0:
47,229,17808,1,10,0:0:0:0:
35,139,17975,1,2,1:2:0:0:
117,303,18308,6,0,P|154:319|190:336,1,81.3239975280762,10|8,0:0|0:0,0:0:0:0:
190,336,18808,6,0,P|154:319|117:303,2,81.0809975280762,2|10|2,1:2|0:0|1:2,0:0:0:0:
301,225,19308,6,0,B|332:199|332:199|371:208,1,81.3239975280762,2|2,1:2|0:0,0:0:0:0:
400,355,19641,2,0,B|369:381|369:381|329:371,1,81.3239975280762,10|2,0:0|0:0,0:0:0:0:
353,290,19975,2,0,B|436:274|354:294|437:277,2,81.0809975280762,2|10|2,1:2|3:0|0:0,0:0:0:0:
329,295,20475,5,8,3:0:0:0:
333,299,20641,1,0,1:0:0:0:
147,103,20808,5,8,0:0:0:0:
270,104,20975,2,0,B|275:146|275:146|248:173,1,81.3239975280762,8|0,0:0|1:0,0:0:0:0:
461,39,21308,5,8,0:0:0:0:
399,145,21475,2,0,B|359:128|359:128|349:91,1,81.3239975280762,10|0,0:0|1:0,0:0:0:0:
300,236,21808,1,2,1:2:0:0:
330,211,21891,1,0,1:0:0:0:
370,219,21975,6,0,B|384:282|384:282|420:297|420:297|439:383,1,162.161995056153,6|8,1:2|0:0,0:0:0:0:
287,324,22475,1,2,1:2:0:0:
287,324,22641,6,0,P|254:346|242:384,1,81.3239975280762,2|0,0:0|1:0,0:0:0:0:
144,339,22975,2,0,P|136:299|154:264,1,81.3239975280762,8|2,0:0|0:0,0:0:0:0:
49,384,23308,2,0,P|7:324|47:243,1,161.999995056153,2|10,1:2|0:0,0:0:0:0:
38,248,23808,6,0,P|40:208|41:167,1,81.3239975280762,0|0,1:0|0:0,0:0:0:0:
126,111,24141,2,0,P|159:133|194:154,2,81.0809975280762,2|10|2,1:2|0:0|1:2,0:0:0:0:
31,54,24641,5,2,1:2:0:0:
43,77,24808,1,2,0:0:0:0:
161,22,24975,5,10,0:0:0:0:
173,0,25141,1,2,1:2:0:0:
249,76,25308,5,2,0:0:0:0:
261,99,25475,1,2,1:2:0:0:
337,22,25641,6,0,B|353:-12|353:-12|436:27|388:115,1,162.161995056153,10|0,0:0|1:0,0:0:0:0:
400,89,26308,6,0,P|443:111|466:166,1,81.3239975280762,10|2,0:0|1:2,0:0:0:0:
460,137,26641,1,0,0:0:0:0:
460,137,26808,1,2,1:2:0:0:
325,253,26975,5,8,0:0:0:0:
431,228,27141,1,2,1:2:0:0:
493,312,27308,1,2,1:2:0:0:
256,192,29975,12,0,31058,0:0:0:0:
485,36,31141,5,8,0:0:0:0:
485,36,31225,1,8,0:0:0:0:
484,35,31308,2,0,B|445:40|445:40|424:74,2,81.0809975280762,2|8|2,1:2|0:0|1:2,0:0:0:0:
500,126,31808,1,10,3:0:0:0:
330,85,31975,2,0,L|266:109,1,67.4999999999999,10|0,3:0|0:0,0:0:0:0:
266,109,32308,5,10,3:0:0:0:
161,21,32475,1,8,3:0:0:0:
23,89,32641,2,0,B|36:65|40:29|40:29|51:122|69:179,1,216.215993408203,6|8,1:2|0:0,0:0:0:0:
223,281,33141,2,0,B|175:254|79:292|174:324|73:367|16:330,1,216.215993408203,0|0,1:0|1:0,0:0:0:0:
237,287,33641,6,0,P|229:233|219:180,1,108.431996704102,8|0,0:0|0:0,0:0:0:0:
299,35,33975,2,0,P|405:19|512:0,1,216.215993408203,2|8,1:2|0:0,0:0:0:0:
442,196,34475,2,0,P|388:185|335:178,1,108.431996704102,0|0,1:0|0:0,0:0:0:0:
220,291,34808,5,0,1:0:0:0:
172,222,34975,1,8,0:0:0:0:
257,214,35141,1,0,0:0:0:0:
335,372,35308,6,0,P|234:332|132:296,1,216.215993408203,2|8,1:2|0:0,0:0:0:0:
39,35,35808,2,0,B|99:30|140:99|120:154|120:154|77:173,1,216.215993408203,0|0,1:0|1:0,0:0:0:0:
271,167,36308,2,0,P|295:119|287:66,1,108.431996704102,8|0,0:0|0:0,0:0:0:0:
456,196,36641,2,0,P|405:265|249:288,1,216.215993408203,2|8,1:2|0:0,0:0:0:0:
116,252,37141,1,0,1:0:0:0:
116,252,37308,2,0,P|87:264|76:293,1,63.2519980773925,2|8,0:0|3:0,0:0:0:0:
70,375,37558,1,0,0:0:0:0:
70,375,37641,6,0,P|43:268|12:162,1,189.755994232178,8|8,3:0|3:0,0:0:0:0:
128,46,37975,6,0,B|162:64|157:107|157:107|73:151|1:78|54:-15,1,252.251992309571,6|8,1:2|0:0,0:0:0:0:
241,29,38475,1,0,1:0:0:0:
241,29,38641,6,0,P|284:40|328:51,1,90.3599999999999,2|0,0:0|1:0,0:0:0:0:
469,136,38975,2,0,P|381:158|295:182,1,180.18,10|0,0:0|1:0,0:0:0:0:
297,189,39641,6,0,P|340:177|383:165,1,90.3599999999999,10|0,0:0|1:0,0:0:0:0:
383,165,40141,5,0,1:0:0:0:
289,192,40308,1,10,0:0:0:0:
265,286,40475,1,0,0:0:0:0:
453,356,40641,6,0,B|386:384|330:327|396:317|322:263|263:300,1,216.215993408203,0|10,1:0|0:0,0:0:0:0:
31,269,41141,2,0,B|58:223|58:223|128:234|162:330|69:377,1,216.215993408203,0|0,1:0|1:0,0:0:0:0:
225,183,41641,2,0,L|250:78,1,108.431996704102,10|0,0:0|0:0,0:0:0:0:
319,267,41975,5,0,1:0:0:0:
319,267,42141,1,0,0:0:0:0:
490,123,42308,2,0,B|477:90|486:55|486:55|467:-6|393:3|393:3|411:20|415:50,1,229.500004377365,8|0,0:0|0:0,0:0:0:0:
406,122,42641,5,10,0:0:0:0:
255,62,42808,1,10,0:0:0:0:
326,282,42975,5,2,1:2:0:0:
477,222,43141,1,8,0:0:0:0:
473,246,43225,1,8,0:0:0:0:
470,270,43308,6,0,B|425:235|368:245|349:301|349:301|349:373|268:378,1,252.251992309571,6|8,1:2|0:0,0:0:0:0:
94,239,43808,2,0,B|99:205|99:172|99:172|114:266|134:356,1,252.251992309571,0|0,1:0|1:0,0:0:0:0:
328,135,44308,2,0,P|259:155|208:173,1,108.431996704102,8|0,0:0|0:0,0:0:0:0:
40,9,44641,6,0,P|147:22|254:30,1,216.215993408203,2|8,1:2|0:0,0:0:0:0:
512,150,45141,2,0,B|505:86|437:69|437:69|385:132|438:200,1,234.233989288331,0|0,1:0|1:0,0:0:0:0:
286,366,45641,6,0,P|315:311|380:297,1,90,8|0,0:0|0:0,0:0:0:0:
276,377,45891,1,0,0:0:0:0:
276,377,45975,6,0,B|270:227|172:334|163:164,1,234.233989288331,2|8,1:2|0:0,0:0:0:0:
12,3,46475,2,0,B|-27:39|-27:39|22:112|116:100|158:13,1,234.233989288331,0|0,1:0|1:0,0:0:0:0:
369,38,46975,2,0,P|315:58|292:111,1,117.467994644165,8|0,0:0|0:0,0:0:0:0:
111,34,47308,2,0,P|157:186|171:300,1,234.233989288331,2|8,1:2|0:0,0:0:0:0:
167,260,47808,1,0,1:0:0:0:
319,306,47975,6,0,P|293:292|271:274,1,58.7339973220825,2|0,0:0|0:0,0:0:0:0:
219,351,48141,2,0,P|245:365|268:384,3,58.7339973220825,8|0|8|0,3:0|0:0|3:0|0:0,0:0:0:0:
335,309,48475,1,8,3:0:0:0:
335,309,48558,1,8,3:0:0:0:
335,309,48641,6,0,B|310:236|370:180|433:187|433:187|454:254,1,234.233989288331,2|8,0:0|0:0,0:0:0:0:
407,372,49141,2,0,P|451:372|486:346,1,90.3599999999999,0|2,1:0|0:0,0:0:0:0:
446,180,49475,1,0,1:0:0:0:
269,82,49641,6,0,B|312:112|381:88|379:27|379:27|358:7|343:-18,1,189.755994232178,10|0,0:0|0:0,0:0:0:0:
234,0,49975,2,0,P|254:113|275:263,1,216.215993408203,0|10,1:0|0:0,0:0:0:0:
40,247,50475,2,0,B|17:196|83:158|116:179|149:230|120:288,1,216.215993408203,0|0,1:0|1:0,0:0:0:0:
335,318,50975,2,0,P|384:334|395:384,1,108.431996704102,10|0,0:0|0:0,0:0:0:0:
146,348,51308,6,0,B|110:344|86:321|86:321|172:338|244:298,1,216.215993408203,0|10,1:0|0:0,0:0:0:0:
346,110,51808,2,0,B|321:85|324:47|324:47|229:89|280:184,1,216.215993408203,0|0,1:0|1:0,0:0:0:0:
469,228,52308,2,0,P|407:243|343:268,1,108.431996704102,10|0,0:0|0:0,0:0:0:0:
256,384,52641,5,0,1:0:0:0:
170,183,52808,1,8,0:0:0:0:
8,88,52975,5,8,0:0:0:0:
0,176,53141,1,8,0:0:0:0:
0,180,53225,1,8,3:0:0:0:
0,184,53308,5,8,3:0:0:0:
88,143,53475,1,0,1:0:0:0:
208,32,53641,5,8,0:0:0:0:
296,73,53808,1,0,0:0:0:0:
503,75,53975,6,0,P|463:104|458:158,1,90.3599999999999,6|8,1:2|0:0,0:0:0:0:
454,142,54225,1,0,0:0:0:0:
454,142,54308,2,0,P|402:150|338:163,1,90.3599999999999,2|8,0:0|0:0,0:0:0:0:
262,317,54641,5,2,1:2:0:0:
287,236,54808,1,8,0:0:0:0:
344,298,54975,1,2,1:2:0:0:
256,320,55141,5,10,0:0:0:0:
250,322,55225,1,0,0:0:0:0:
244,325,55308,2,0,P|173:313|141:313,1,90.3599999999999,0|10,1:0|0:0,0:0:0:0:
41,243,55641,1,0,1:0:0:0:
41,243,55725,1,0,1:0:0:0:
41,243,55808,1,10,0:0:0:0:
94,103,55975,2,0,P|31:92|0:147,1,135,0|10,1:0|0:0,0:0:0:0:
109,119,56308,5,0,1:0:0:0:
201,14,56475,1,10,0:0:0:0:
201,14,56558,1,0,0:0:0:0:
201,14,56641,2,0,P|205:58|215:102,1,90.3599999999999,2|10,1:2|0:0,0:0:0:0:
280,202,56975,1,0,1:0:0:0:
415,136,57141,1,10,0:0:0:0:
415,136,57225,1,0,0:0:0:0:
414,135,57308,6,0,P|380:106|336:110,1,90.3599999999999,8|10,3:0|0:0,0:0:0:0:
435,282,57641,2,0,P|468:253|512:257,1,90.3599999999999,0|10,1:0|0:0,0:0:0:0:
424,298,57891,1,0,0:0:0:0:
428,302,57975,2,0,L|345:323,2,45.18,0|0|10,1:0|0:0|0:0,0:0:0:0:
256,384,58308,5,2,0:0:0:0:
256,192,58475,1,8,0:0:0:0:
33,302,58641,2,0,B|23:260|-4:248|-4:248|-8:261|3:287|3:247,1,90.3599999999999,0|8,1:0|0:0,0:0:0:0:
45,383,58891,1,8,0:0:0:0:
45,383,58975,6,0,P|63:281|83:182,1,202.500007724762,0|8,1:0|0:0,0:0:0:0:
75,98,59308,2,0,P|30:100|11:156,1,90.3599999999999,6|8,1:2|0:0,0:0:0:0:
93,97,59558,1,0,0:0:0:0:
97,101,59641,2,0,P|139:81|184:62,1,90.3599999999999,2|10,0:0|0:0,0:0:0:0:
378,119,59975,5,0,1:0:0:0:
353,200,60141,1,10,0:0:0:0:
296,138,60308,1,0,1:0:0:0:
388,117,60475,5,10,0:0:0:0:
394,115,60558,1,0,0:0:0:0:
400,112,60641,2,0,P|471:124|503:124,1,90.8999999999999,0|8,1:0|0:0,0:0:0:0:
512,236,60975,1,2,0:0:0:0:
455,344,61141,2,0,P|384:332|352:332,1,90.3599999999999,10|0,0:0|1:0,0:0:0:0:
161,255,61475,5,8,0:0:0:0:
265,286,61641,1,2,1:2:0:0:
306,187,61808,1,8,0:0:0:0:
153,265,61975,6,0,P|136:306|117:347,1,90.3599999999999,2|8,1:2|0:0,0:0:0:0:
101,173,62308,2,0,P|57:180|12:185,1,90.3599999999999,2|8,1:2|0:0,0:0:0:0:
100,14,62641,2,0,P|127:50|155:86,1,90.3599999999999,2|8,1:2|0:0,0:0:0:0:
292,4,62975,2,0,P|273:45|257:87,1,90.3599999999999,2|8,1:2|0:0,0:0:0:0:
488,327,63308,6,0,P|473:286|430:278,1,90.3599999999999,10|8,1:2|0:0,0:0:0:0:
396,194,63558,1,8,0:0:0:0:
395,193,63641,2,0,P|404:236|413:280,1,90.3599999999999,8|10,1:2|0:0,0:0:0:0:
385,176,63891,1,8,0:0:0:0:
390,181,63975,2,0,P|380:136|371:93,1,90.3599999999999,10|0,1:2|0:0,0:0:0:0:
250,248,64308,5,10,1:3:0:0:
187,224,64391,1,8,3:0:0:0:
141,272,64475,1,8,3:0:0:0:
107,262,64558,1,8,3:0:0:0:
90,282,64641,6,0,B|57:279|57:279|31:296|31:296|2:295|2:295|-18:318,2,124.448395830689,6|0|0,1:2|0:0|1:0,0:0:0:0:
151,384,65308,2,0,P|95:241|90:139,1,248.896791661377,8|8,0:0|0:0,0:0:0:0:
93,151,65891,1,8,0:0:0:0:
89,147,65975,5,2,1:2:0:0:
155,36,66141,1,0,1:0:0:0:
155,36,66475,5,0,1:0:0:0:
97,145,66641,2,0,P|109:268|159:382,1,249.393591661377,8|8,0:0|0:0,0:0:0:0:
158,381,67225,1,8,0:0:0:0:
158,381,67308,1,2,1:2:0:0:
256,288,67475,2,0,B|296:253|350:304|312:315|345:347|393:343,1,165.765594440918,8|2,0:0|1:2,0:0:0:0:
243,293,67975,2,0,P|227:233|207:179,2,82.882797220459,8|2|2,0:0|0:0|0:0,0:0:0:0:
315,191,68475,1,8,0:0:0:0:
319,195,68558,1,8,0:0:0:0:
323,199,68641,5,0,1:0:0:0:
365,122,68808,1,0,1:0:0:0:
448,150,68975,2,0,P|457:89|471:33,1,83.131197220459,0|2,0:0|1:2,0:0:0:0:
199,137,69308,6,0,B|271:151|295:82|260:85|294:22|368:45,1,205.199997495117,10|0,0:0|0:0,0:0:0:0:
339,142,69641,2,0,L|213:44,1,144,8|10,0:0|0:0,0:0:0:0:
211,44,69891,1,8,0:0:0:0:
211,44,69975,1,2,1:2:0:0:
256,192,72641,12,0,74225,0:0:0:0:
469,44,74308,6,0,P|446:53|432:73,1,49.6980015106202,0|0,0:0|1:0,0:0:0:0:
431,90,74558,1,0,1:0:0:0:
435,94,74641,1,8,0:0:0:0:
339,112,74808,1,8,3:0:0:0:
322,206,74975,6,0,P|336:214|343:229,1,33.75,8|0,3:0|0:0,0:0:0:0:
435,229,75308,6,0,B|388:216|318:263|379:279|345:348|263:343,1,198.198006042481,4|0,1:2|0:0,0:0:0:0:
293,340,75808,1,0,1:0:0:0:
179,276,75975,2,0,B|162:253|155:226|155:226|179:406,1,198.198006042481,8|0,0:0|0:0,0:0:0:0:
174,368,76475,1,8,0:0:0:0:
174,368,76558,1,8,0:0:0:0:
174,368,76641,5,0,1:0:0:0:
133,289,76808,2,0,P|76:309|61:368,1,126.125996154785,0|0,1:0|1:0,0:0:0:0:
16,176,77308,6,0,B|30:161|30:161|167:182|167:182|181:167,1,180.18,8|0,0:0|0:0,0:0:0:0:
181,167,77808,1,8,0:0:0:0:
181,167,77891,1,8,0:0:0:0:
181,167,77975,6,0,B|160:162|160:162|110:32|110:32|91:27,1,180.18,0|0,1:0|0:0,0:0:0:0:
91,27,78475,1,0,1:0:0:0:
223,65,78641,6,0,B|259:50|328:87|274:107|308:161|365:159,1,180.18,8|0,0:0|0:0,0:0:0:0:
355,159,79141,1,8,0:0:0:0:
355,159,79225,1,8,0:0:0:0:
355,159,79308,1,0,1:0:0:0:
503,110,79475,2,0,P|471:174|452:243,1,144.144,0|0,1:0|1:0,0:0:0:0:
452,243,79975,5,8,0:0:0:0:
386,302,80141,2,0,P|363:274|348:233,2,72.0719999999999,0|0|8,1:0|0:0|0:0,0:0:0:0:
471,353,80558,1,8,0:0:0:0:
471,353,80641,6,0,L|256:322,1,180.18,4|0,1:2|0:0,0:0:0:0:
292,327,81141,1,0,1:0:0:0:
226,233,81308,2,0,B|163:249|163:249|135:285|135:285|67:303,1,180.18,8|0,0:0|0:0,0:0:0:0:
67,302,81808,1,8,0:0:0:0:
67,302,81891,1,8,0:0:0:0:
67,302,81975,5,0,1:0:0:0:
4,205,82141,2,0,B|48:217|48:217|97:172|71:118|22:103,1,180.18,0|0,1:0|1:0,0:0:0:0:
35,108,82641,5,8,0:0:0:0:
116,28,82808,2,0,P|150:56|194:58,1,90.3599999999999,0|0,1:0|0:0,0:0:0:0:
303,6,83141,1,8,0:0:0:0:
303,6,83225,1,8,0:0:0:0:
303,6,83308,2,0,P|292:49|284:94,2,90.0899999999999,0|8|8,1:0|0:0|0:0,0:0:0:0:
303,6,83808,5,0,1:0:0:0:
435,122,83975,2,0,B|372:138|372:138|344:174|344:174|276:192,1,180.18,8|0,0:0|0:0,0:0:0:0:
276,191,84475,1,8,0:0:0:0:
276,191,84558,1,8,0:0:0:0:
276,191,84641,5,0,1:0:0:0:
179,188,84808,1,0,1:0:0:0:
154,281,84975,2,0,P|120:271|84:265,1,72.2879999999999,0|0,0:0|1:0,0:0:0:0:
256,384,85308,6,0,B|316:400|333:353|339:327|318:342|345:344|324:328|332:353|339:327|331:285|391:261|442:296,1,234.233989288331,8|8,0:0|3:0,0:0:0:0:
438,293,85725,1,8,3:0:0:0:
438,293,85808,1,8,3:0:0:0:
438,293,85891,1,8,3:0:0:0:
438,293,85975,6,0,B|468:343|405:352|373:331|381:267|415:217|449:277|486:185|444:112,1,270,6|0,1:2|1:0,0:0:0:0:
498,23,86641,2,0,B|464:64|386:36|427:26|379:-3|325:27,1,180.18,8|0,0:0|0:0,0:0:0:0:
330,24,87141,1,8,0:0:0:0:
330,24,87225,1,8,0:0:0:0:
330,24,87308,5,0,1:0:0:0:
207,0,87475,2,0,P|239:29|241:73,1,90.3599999999999,0|0,1:0|0:0,0:0:0:0:
241,73,87808,1,0,1:0:0:0:
123,178,87975,2,0,P|118:133|110:88,2,90.0899999999999,8|0|0,0:0|1:0|0:0,0:0:0:0:
234,285,88475,5,8,0:0:0:0:
234,285,88558,1,8,0:0:0:0:
234,285,88641,1,2,1:2:0:0:
151,288,88808,1,8,0:0:0:0:
133,370,88975,1,0,0:0:0:0:
133,370,89141,1,0,1:0:0:0:
0,220,89308,6,0,B|67:233|67:233|82:268|82:268|154:280,1,180.18,8|0,0:0|0:0,0:0:0:0:
154,280,89808,1,8,0:0:0:0:
154,280,89891,1,8,0:0:0:0:
154,280,89975,5,2,1:2:0:0:
224,220,90141,1,0,1:0:0:0:
318,344,90308,2,0,P|330:290|302:245,1,90.3599999999999,0|0,0:0|1:0,0:0:0:0:
457,128,90641,6,0,B|403:99|350:137|397:142|329:183|282:155,1,180.18,8|0,0:0|0:0,0:0:0:0:
129,24,91141,1,8,0:0:0:0:
129,24,91225,1,8,0:0:0:0:
129,24,91308,2,0,B|72:29|52:102|86:133|86:133|135:144,1,180.18,4|0,1:2|0:0,0:0:0:0:
119,141,91808,5,0,1:0:0:0:
35,286,91975,2,0,B|26:269|3:260|3:260|106:239|125:346,1,180.18,8|0,0:0|0:0,0:0:0:0:
116,314,92475,1,8,0:0:0:0:
116,314,92558,1,8,0:0:0:0:
116,314,92641,5,0,1:0:0:0:
208,224,92808,2,0,P|295:245|383:265,1,180.18,0|0,1:0|1:0,0:0:0:0:
502,374,93308,6,0,P|489:330|476:287,1,90.3599999999999,8|0,0:0|1:0,0:0:0:0:
408,178,93641,2,0,P|395:221|382:264,1,90.3599999999999,0|8,0:0|0:0,0:0:0:0:
383,265,93891,1,8,0:0:0:0:
383,265,93975,1,0,1:0:0:0:
494,152,94141,6,0,P|413:147|418:66,1,180.18,8|0,0:0|1:0,0:0:0:0:
305,0,94641,2,0,B|261:-6|212:27|249:32|222:85|153:72,1,180.18,8|0,0:0|0:0,0:0:0:0:
155,73,95141,1,8,0:0:0:0:
69,170,95308,6,0,L|34:227,3,45,4|8|8|8,1:2|0:0|0:0|0:0,0:0:0:0:
39,249,95641,2,0,P|16:250|13:219,1,45.18,8|8,1:2|0:0,0:0:0:0:
171,320,95808,5,8,0:0:0:0:
171,320,95891,1,8,0:0:0:0:
171,320,95975,2,0,P|148:321|145:290,1,45.18,8|8,1:2|0:0,0:0:0:0:
312,365,96141,5,10,0:0:0:0:
299,384,96225,1,8,0:0:0:0:
278,376,96308,1,8,1:2:0:0:
277,351,96391,1,10,3:0:0:0:
306,332,96475,1,10,3:0:0:0:
348,335,96558,1,8,3:0:0:0:
377,370,96641,6,0,B|377:249|441:336|447:188,1,180.18,6|0,1:2|0:0,0:0:0:0:
440,47,97141,1,2,1:2:0:0:
440,47,97308,6,0,P|405:119|333:82,1,180.18,10|0,0:0|0:0,0:0:0:0:
215,21,97808,1,10,0:0:0:0:
215,21,97891,1,8,0:0:0:0:
214,20,97975,2,0,P|169:18|124:13,2,90.0899999999999,2|2|2,1:2|1:2|0:0,0:0:0:0:
241,110,98475,1,0,1:0:0:0:
48,208,98641,5,8,0:0:0:0:
48,208,98808,2,0,B|115:225|115:225|133:271|133:271|192:284,1,180.18,0|8,1:0|0:0,0:0:0:0:
192,284,99225,1,8,0:0:0:0:
192,284,99308,1,0,1:0:0:0:
361,336,99475,2,0,B|369:316|354:287|319:276|286:284|254:346|309:401,1,180.18,8|0,0:0|1:0,0:0:0:0:
492,205,99975,2,0,P|460:120|433:35,1,180.18,8|0,0:0|0:0,0:0:0:0:
433,35,100475,1,8,0:0:0:0:
433,35,100558,1,8,0:0:0:0:
433,35,100641,6,0,P|390:50|348:64,2,90.0899999999999,0|0|0,1:0|1:0|0:0,0:0:0:0:
381,143,101141,1,0,1:0:0:0:
172,61,101308,2,0,B|194:44|203:17|203:17|279:74|238:178,1,233.999989288331,8|2,0:0|0:0,0:0:0:0:
48,208,101808,1,8,0:0:0:0:
48,208,101891,1,8,0:0:0:0:
48,208,101975,6,0,B|84:220|115:225|115:225|133:271|133:271|161:276|192:284,1,180.18,6|0,1:2|0:0,0:0:0:0:
192,284,102475,1,2,1:2:0:0:
397,312,102641,6,0,B|325:276|282:336|282:336|291:374|262:402,1,180.18,10|0,0:0|0:0,0:0:0:0:
409,322,103141,1,10,0:0:0:0:
409,322,103225,1,8,0:0:0:0:
409,321,103308,6,0,P|418:278|434:236,2,90.0899999999999,2|2|2,1:2|1:2|0:0,0:0:0:0:
352,213,103808,1,0,1:0:0:0:
426,37,103975,2,0,B|460:37|482:69|482:69|386:47|310:93,1,234.233989288331,8|0,0:0|0:0,0:0:0:0:
320,87,104475,1,8,0:0:0:0:
320,87,104558,1,8,0:0:0:0:
320,87,104641,5,0,1:0:0:0:
169,51,104808,2,0,P|203:77|204:121,1,90.3599999999999,8|0,0:0|0:0,0:0:0:0:
61,248,105141,1,0,1:0:0:0:
61,248,105308,2,0,B|128:265|128:265|146:311|146:311|205:324,1,180.18,8|0,0:0|0:0,0:0:0:0:
206,324,105808,1,8,0:0:0:0:
206,324,105891,1,8,0:0:0:0:
206,324,105975,5,0,1:0:0:0:
376,273,106141,2,0,P|315:288|315:351,1,135,0|0,1:0|0:0,0:0:0:0:
327,366,106475,1,0,1:0:0:0:
473,237,106641,2,0,B|508:147|437:182|492:77,1,144.576,8|10,0:0|0:3,0:0:0:0:
488,88,106891,1,8,3:0:0:0:
487,88,106975,6,0,P|509:80|531:79,1,45.18,10|8,1:3|3:0,0:0:0:0:
390,55,107141,2,0,P|394:32|404:12,1,45.18,8|8,0:0|0:0,0:0:0:0:
288,192,107308,6,0,B|228:212|192:148|236:154|173:93|113:136,1,180.18,6|0,1:2|0:0,0:0:0:0:
6,38,107808,1,2,1:2:0:0:
6,38,107975,2,0,P|22:126|32:215,1,180.18,10|0,0:0|0:0,0:0:0:0:
32,215,108475,1,10,0:0:0:0:
32,215,108558,1,8,0:0:0:0:
32,215,108641,6,0,P|76:206|120:201,2,90.0899999999999,2|2|2,1:2|1:2|0:0,0:0:0:0:
107,121,109141,1,0,1:0:0:0:
272,32,109308,2,0,P|230:45|214:85,2,90.0899999999999,8|2|2,0:0|1:2|0:0,0:0:0:0:
298,117,109808,1,8,0:0:0:0:
298,117,109891,1,8,0:0:0:0:
298,117,109975,5,0,1:0:0:0:
388,38,110141,2,0,P|430:20|472:4,2,90.0899999999999,8|0|0,0:0|0:0|1:0,0:0:0:0:
496,192,110641,2,0,B|418:173|392:243|392:243|410:282|384:312,1,180.18,8|0,0:0|0:0,0:0:0:0:
396,292,111141,1,8,0:0:0:0:
396,292,111225,1,8,0:0:0:0:
396,292,111308,6,0,P|439:299|462:336,2,90.0899999999999,0|0|0,1:0|1:0|0:0,0:0:0:0:
297,360,111808,1,0,1:0:0:0:
147,244,111975,6,0,B|215:236|243:299|208:296|242:359|318:364,1,206.020797495117,10|0,0:0|0:0,0:0:0:0:
295,262,112308,2,0,B|157:331,1,153.000002918243,8|2,0:0|0:0,0:0:0:0:
145,343,112558,1,0,0:0:0:0:
145,343,112641,1,2,1:2:0:0:
461,58,116141,6,0,P|475:32|504:16,2,49.5495015106201
461,58,116641,1,2,1:2:0:0:
346,116,116808,6,0,L|276:99,1,40.6619987640381,8|0,0:0|0:0,0:0:0:0:
473,219,116975,2,0,L|543:202,1,40.6619987640381,10|0,0:0|0:0,0:0:0:0:
511,293,117141,1,2,1:2:0:0:
511,293,117308,5,10,0:0:0:0:
456,255,117391,1,8,0:0:0:0:
396,265,117475,1,10,0:0:0:0:
360,297,117558,1,8,0:0:0:0:
340,338,117641,1,10,0:0:0:0:
310,367,117725,1,8,3:0:0:0:
268,361,117808,1,8,3:0:0:0:
255,337,117891,1,8,3:0:0:0:
28,347,128641,5,6,1:2:0:0:
108,276,128808,2,0,L|139:270,2,31.6259990386963,8|8|8,0:0|0:0|0:0,0:0:0:0:
140,271,129308,2,0,L|160:146,1,126.125996154785,8|0,0:0|0:0,0:0:0:0:
103,70,129808,1,8,0:0:0:0:
103,70,129891,1,8,0:0:0:0:
103,70,129975,2,0,L|43:49,2,63.0629980773925,2|8|0,1:2|0:0|1:0,0:0:0:0:
103,70,130641,6,0,L|227:49,1,126.125996154785,8|0,0:0|0:0,0:0:0:0:
227,49,131141,1,8,0:0:0:0:
227,49,131225,1,8,0:0:0:0:
227,49,131308,1,2,1:2:0:0:
323,123,131475,2,0,L|352:111,2,31.6259990386963,8|8|8,0:0|0:0|0:0,0:0:0:0:
352,111,131975,6,0,L|398:230,1,125.747996154785,8|0,0:0|0:0,0:0:0:0:
397,228,132475,1,8,0:0:0:0:
397,228,132558,1,8,0:0:0:0:
397,228,132641,2,0,L|455:250,2,63.0629980773925,2|8|0,1:2|0:0|1:0,0:0:0:0:
397,228,133308,6,0,P|366:224|339:240,1,63.2519980773925,10|0,0:0|0:0,0:0:0:0:
273,332,133641,2,0,P|242:335|215:319,1,63.2519980773925,0|8,0:0|0:0,0:0:0:0:
207,312,133891,1,8,0:0:0:0:
207,312,133975,2,0,B|157:298|114:315|114:362|134:384,1,126.125996154785,6|8,1:2|0:0,0:0:0:0:
125,369,134641,6,0,P|105:309|84:249,1,126.125996154785,10|2,0:0|0:0,0:0:0:0:
84,249,135141,1,8,0:0:0:0:
84,249,135225,1,8,0:0:0:0:
84,249,135308,2,0,P|113:237|142:224,2,63.0629980773925,0|8|2,1:2|0:0|1:2,0:0:0:0:
49,177,135975,6,0,B|99:154|131:191|131:191|132:215|151:235,1,126.125996154785,8|2,0:0|0:0,0:0:0:0:
142,223,136475,1,8,0:0:0:0:
142,223,136558,1,8,0:0:0:0:
142,223,136641,2,0,L|279:250,2,126.125996154785,0|10|8,1:2|0:0|0:0,0:0:0:0:
266,247,137475,6,0,P|286:224|317:216,2,63.0629980773925,2|2|10,0:0|0:0|0:0,0:0:0:0:
338,314,137975,5,2,1:2:0:0:
338,314,138141,2,0,L|346:365,1,31.6259990386963,8|0,0:0|0:0,0:0:0:0:
479,358,138308,2,0,L|462:251,1,108.431996704102,8|10,3:0|3:0,0:0:0:0:
461,237,138558,1,8,0:0:0:0:
461,237,138641,5,10,3:0:0:0:
381,75,138808,1,2,1:2:0:0:
256,244,138975,5,10,3:0:0:0:
273,149,139141,1,8,3:0:0:0:
148,37,139308,6,0,B|76:3|40:79|40:79|64:116|46:169,1,198.198006042481,6|8,1:2|0:0,0:0:0:0:
0,304,139808,2,0,B|62:272|118:332|61:327|127:388|198:354,1,198.198006042481,0|0,1:0|1:0,0:0:0:0:
234,224,140308,2,0,P|223:175|218:126,1,99.3960030212402,8|0,0:0|0:0,0:0:0:0:
416,48,140641,6,0,B|423:19|398:-16|342:-21|297:51|343:117,1,198.198006042481,2|8,1:2|0:0,0:0:0:0:
123,154,141141,2,0,P|169:137|217:126,1,99.3960030212402,0|0,1:0|0:0,0:0:0:0:
206,333,141475,5,0,1:0:0:0:
279,274,141641,1,8,0:0:0:0:
294,365,141808,1,0,0:0:0:0:
458,197,141975,6,0,B|405:178|354:221|387:224|348:279|265:251,1,198.198006042481,2|8,1:2|0:0,0:0:0:0:
53,327,142475,2,0,P|111:380|121:290,1,198.198006042481,0|0,1:0|1:0,0:0:0:0:
8,95,142975,2,0,P|56:102|87:139,1,99.3960030212402,8|0,0:0|0:0,0:0:0:0:
200,239,143308,2,0,P|172:171|196:103,1,148.50000453186,2|0,1:2|0:0,0:0:0:0:
196,103,143641,6,0,B|182:65|182:65|304:22|373:158|319:263,1,306.306005836487,8|2,0:0|0:0,0:0:0:0:
432,345,144141,1,8,3:0:0:0:
432,345,144225,1,0,0:0:0:0:
432,345,144308,2,0,P|429:385|443:351,1,99.3960030212402,8|8,3:0|3:0,0:0:0:0:
497,295,144558,1,8,3:0:0:0:
497,295,144641,6,0,P|420:329|297:300,1,198.198006042481,6|8,1:2|0:0,0:0:0:0:
92,241,145141,2,0,B|98:292|157:306|157:306|198:253|159:199,1,198.198006042481,0|0,1:0|1:0,0:0:0:0:
36,32,145641,2,0,B|105:14|146:71|95:90|155:134|229:130,1,198.198006042481,10|0,0:0|1:0,0:0:0:0:
195,122,146308,6,0,P|135:82|122:49,1,99.3960030212402,10|0,0:0|1:0,0:0:0:0:
124,59,146808,5,0,1:0:0:0:
194,119,146975,1,10,0:0:0:0:
211,29,147141,1,0,0:0:0:0:
389,176,147308,6,0,P|292:151|196:130,1,198.198006042481,0|10,1:0|0:0,0:0:0:0:
468,138,147808,2,0,B|491:122|523:123|523:123|563:38|470:-17,1,198.198006042481,0|0,1:0|1:0,0:0:0:0:
195,142,148308,2,0,P|238:162|258:206,1,99.3960030212402,10|0,0:0|0:0,0:0:0:0:
48,44,148641,6,0,P|66:116|81:188,1,148.50000453186,0|0,1:0|0:0,0:0:0:0:
84,208,148975,1,8,0:0:0:0:
84,208,149141,1,2,1:2:0:0:
189,126,149308,1,10,0:0:0:0:
170,378,149475,1,10,0:0:0:0:
73,204,149641,2,0,L|8:186,1,49.6980015106201,2|0,1:2|0:0,0:0:0:0:
270,293,149808,1,8,0:0:0:0:
277,317,149891,1,8,0:0:0:0:
284,341,149975,6,0,B|351:281|413:331|413:331|420:376|475:387,1,198.198006042481,6|8,1:2|0:0,0:0:0:0:
512,108,150475,2,0,B|529:167|482:197|482:197|420:176|423:103,1,198.198006042481,0|0,1:0|1:0,0:0:0:0:
206,13,150975,2,0,P|255:28|272:74,1,99.3960030212402,8|0,0:0|0:0,0:0:0:0:
71,248,151308,6,0,B|52:240|24:241|24:241|189:205,1,198.198006042481,2|8,1:2|0:0,0:0:0:0:
315,135,151808,2,0,B|270:130|270:130|229:86|248:0|331:-8,1,198.198006042481,0|0,1:0|1:0,0:0:0:0:
452,198,152308,5,8,0:0:0:0:
420,100,152475,1,0,0:0:0:0:
246,278,152641,2,0,B|274:241|338:240|367:286|367:286|355:339|417:367,1,198.198006042481,2|8,1:2|0:0,0:0:0:0:
83,324,153141,2,0,P|61:227|35:131,1,198.198006042481,0|0,1:0|1:0,0:0:0:0:
256,0,153641,2,0,P|243:47|233:96,1,99.3960030212402,8|0,0:0|0:0,0:0:0:0:
155,183,153975,5,2,1:2:0:0:
155,183,154141,1,0,0:0:0:0:
249,97,154308,5,8,0:0:0:0:
302,280,154475,1,0,1:0:0:0:
383,69,154641,6,0,L|409:6,1,49.6980015106201,2|0,0:0|0:0,0:0:0:0:
486,53,154808,2,0,L|467:98,3,49.5000015106202,8|0|8|0,3:0|0:0|3:0|0:0,0:0:0:0:
385,157,155141,1,8,3:0:0:0:
385,157,155225,1,8,3:0:0:0:
385,157,155308,6,0,B|471:179|444:284|444:284|374:295,1,198.198006042481,2|8,0:0|0:0,0:0:0:0:
96,307,155808,2,0,P|190:335|285:365,1,198.198006042481,0|0,1:0|1:0,0:0:0:0:
341,79,156308,6,0,P|293:86|269:128,1,99.3960030212402,10|0,0:0|0:0,0:0:0:0:
23,26,156641,6,0,B|101:1|125:86|125:86|110:128|132:165,1,198.198006042481,0|10,1:0|0:0,0:0:0:0:
293,254,157141,2,0,P|245:238|198:224,2,99.0990030212402,0|0|0,1:0|0:0|1:0,0:0:0:0:
442,316,157641,5,10,0:0:0:0:
338,371,157808,1,0,0:0:0:0:
483,194,157975,2,0,B|474:72|410:159|400:6,1,198.198006042481,0|10,1:0|0:0,0:0:0:0:
147,132,158475,2,0,B|134:112|107:103|107:103|193:65|247:148,1,198.198006042481,0|0,1:0|1:0,0:0:0:0:
429,359,158975,6,0,B|443:375|443:375|424:299|424:299|359:279|359:279|333:164,1,229.500004377365,10|0,0:0|0:0,0:0:0:0:
342,204,159308,5,0,1:0:0:0:
312,62,159475,2,0,L|297:-3,1,49.6980015106201,8|0,0:0|0:0,0:0:0:0:
348,197,159641,5,8,0:0:0:0:
226,117,159808,2,0,L|169:81,1,49.6980015106201,8|8,0:0|3:0,0:0:0:0:
356,192,159975,5,8,3:0:0:0:
213,221,160141,2,0,L|148:236,1,50.2920015106201,0|8,1:0|0:0,0:0:0:0:
36,296,160308,1,8,0:0:0:0:
59,292,160391,1,8,3:0:0:0:
82,301,160475,1,8,3:0:0:0:
97,321,160558,1,8,3:0:0:0:
97,345,160641,6,0,P|161:364|226:384,1,135,6|0,1:2|0:0,0:0:0:0:
308,368,160975,2,0,B|299:324|299:324|256:308,1,90.3599999999999,10|10,0:0|0:0,0:0:0:0:
160,219,161308,1,2,0:0:0:0:
160,219,161475,2,0,B|274:220|207:148|338:152,1,180.18,2|2,1:2|0:0,0:0:0:0:
422,7,161975,6,0,P|372:56|389:94,2,90.0899999999999,0|2|8,1:0|0:0|0:0,0:0:0:0:
373,68,162475,1,10,0:0:0:0:
480,210,162641,5,0,0:0:0:0:
388,196,162808,1,2,1:2:0:0:
357,280,162975,1,8,0:0:0:0:
480,341,163141,1,10,0:0:0:0:
480,341,163225,1,10,0:0:0:0:
480,341,163308,6,0,P|414:357|349:375,1,135,2|0,1:2|0:0,0:0:0:0:
329,384,163641,1,8,0:0:0:0:
186,287,163808,1,10,0:0:0:0:
186,287,163891,1,2,0:0:0:0:
185,286,163975,6,0,P|224:305|234:347,1,90.3599999999999,2|0,0:0|1:0,0:0:0:0:
112,383,164308,1,8,0:0:0:0:
35,278,164475,1,2,1:2:0:0:
35,278,164558,1,2,0:0:0:0:
35,277,164641,6,0,P|17:211|0:146,1,135,2|0,1:2|0:0,0:0:0:0:
8,146,164975,2,0,P|14:167|24:211,1,45.18,10|0,0:0|0:0,0:0:0:0:
116,23,165141,2,0,P|181:40|246:57,1,135,10|0,0:0|0:0,0:0:0:0:
269,71,165475,1,2,1:2:0:0:
269,71,165558,1,8,0:0:0:0:
269,71,165641,1,8,3:0:0:0:
347,0,165808,1,10,3:0:0:0:
469,145,165975,6,0,B|403:109|358:164|358:164|373:203|354:234,1,180.18,6|10,1:2|0:0,0:0:0:0:
262,253,166475,1,10,0:0:0:0:
408,363,166641,1,2,0:0:0:0:
408,363,166808,2,0,B|346:286|284:353|284:353|302:394,1,180.18,2|2,1:2|0:0,0:0:0:0:
179,330,167308,6,0,L|90:315,2,90.0899999999999,0|2|8,1:0|0:0|0:0,0:0:0:0:
90,315,167808,1,10,0:0:0:0:
24,154,167975,5,0,0:0:0:0:
87,205,168141,1,2,1:2:0:0:
11,234,168308,1,8,0:0:0:0:
105,210,168475,1,10,0:2:0:0:
105,210,168558,1,10,0:2:0:0:
105,210,168641,6,0,P|167:218|179:296,1,135,2|0,1:2|0:0,0:0:0:0:
183,299,168975,1,8,0:0:0:0:
308,239,169141,1,10,0:0:0:0:
308,239,169225,1,2,0:0:0:0:
308,239,169308,6,0,P|317:195|330:152,1,90.3599999999999,2|0,0:0|1:0,0:0:0:0:
403,326,169641,5,8,0:0:0:0:
293,370,169808,1,2,1:2:0:0:
293,370,169891,1,2,0:2:0:0:
293,370,169975,1,2,1:2:0:0:
327,165,170141,5,8,0:0:0:0:
435,209,170308,1,10,0:0:0:0:
420,94,170475,1,2,1:2:0:0:
420,94,170558,1,0,1:0:0:0:
420,94,170641,1,0,1:0:0:0:
316,175,170808,5,10,0:0:0:0:
190,0,170975,1,8,0:0:0:0:
168,5,171058,1,8,0:0:0:0:
150,17,171141,1,10,3:0:0:0:
138,36,171225,1,10,3:0:0:0:
133,58,171308,6,0,B|60:127|-3:82|-3:82|29:83|65:67,1,180.18,6|10,1:2|0:0,0:0:0:0:
198,193,171808,1,10,0:0:0:0:
58,292,171975,1,2,0:0:0:0:
58,292,172141,6,0,B|105:279|161:321|106:329|153:384|212:377,1,180.18,2|2,1:2|0:0,0:0:0:0:
38,297,172641,2,0,P|22:255|5:214,2,90.0899999999999,0|2|8,1:0|0:0|0:0,0:0:0:0:
5,214,173141,1,10,0:0:0:0:
114,101,173308,5,0,0:0:0:0:
83,12,173475,1,2,1:2:0:0:
0,48,173641,1,8,0:0:0:0:
130,113,173808,1,10,0:0:0:0:
130,113,173891,1,10,0:0:0:0:
130,113,173975,6,0,P|197:126|263:139,1,135,2|0,1:2|0:0,0:0:0:0:
287,146,174308,1,8,0:0:0:0:
422,23,174475,1,10,0:0:0:0:
422,23,174558,1,2,0:0:0:0:
422,23,174641,6,0,P|377:31|333:40,1,90.3599999999999,2|0,0:0|1:0,0:0:0:0:
216,0,174975,1,8,0:0:0:0:
271,134,175141,1,2,1:2:0:0:
271,134,175225,1,2,0:0:0:0:
271,134,175308,6,0,P|319:174|286:257,1,135,2|0,1:2|0:0,0:0:0:0:
313,243,175641,2,0,P|326:225|331:203,1,45.18,10|0,0:0|0:0,0:0:0:0:
135,301,175808,2,0,P|230:323|323:350,1,180,10|2,0:0|1:2,0:0:0:0:
334,357,176225,1,8,0:0:0:0:
334,357,176308,1,8,3:0:0:0:
199,212,176475,1,10,3:0:0:0:
86,384,176641,6,0,B|51:267|148:329|83:181,1,180.18,6|10,1:2|0:0,0:0:0:0:
26,120,177141,1,10,0:0:0:0:
191,27,177308,1,2,0:0:0:0:
191,27,177475,6,0,P|149:32|127:111,1,135,2|0,1:2|0:0,0:0:0:0:
137,126,177808,1,2,0:0:0:0:
256,192,177975,2,0,P|297:175|341:164,2,90.0899999999999,0|2|8,1:0|0:0|0:0,0:0:0:0:
341,164,178475,1,10,0:0:0:0:
452,83,178641,5,0,0:0:0:0:
424,7,178808,1,2,1:2:0:0:
367,68,178975,1,8,0:0:0:0:
466,97,179141,1,10,0:2:0:0:
466,97,179225,1,10,0:2:0:0:
466,97,179308,6,0,P|482:162|500:227,1,135,2|0,1:2|0:0,0:0:0:0:
504,239,179641,1,8,0:0:0:0:
399,342,179808,1,10,0:0:0:0:
399,342,179891,1,2,0:0:0:0:
399,342,179975,2,0,P|355:329|312:318,1,90.3599999999999,2|0,0:0|1:0,0:0:0:0:
79,349,180308,6,0,B|151:363|175:294|140:297|174:234|248:257,1,205.199997495117,8|2,0:0|0:2,0:0:0:0:
222,344,180641,2,0,B|89:261|225:340|93:257,1,153.000002918243,4|8,1:2|0:0,0:0:0:0:
79,251,180891,1,0,0:0:0:0:
79,251,180975,1,8,0:0:0:0:
64,124,181141,1,0,1:0:0:0:
64,124,181225,1,0,1:0:0:0:
64,124,181308,1,0,1:0:0:0:
186,168,181475,2,0,L|196:124,1,45.18,8|0,0:0|0:0,0:0:0:0:
233,0,181641,1,8,0:0:0:0:
233,0,181725,1,8,0:0:0:0:
233,0,181808,1,8,0:0:0:0:
233,0,181891,1,8,0:0:0:0:
233,0,183808,6,0,L|336:29,1,108.431996704102,12|0,1:2|0:0,0:0:0:0:
336,355,184141,2,0,L|233:384,1,107.999996704102,12|0,1:2|0:0,0:0:0:0:
