osu file format v14

[General]
AudioFilename: audio.mp3
AudioLeadIn: 0
PreviewTime: 117891
Countdown: 0
SampleSet: Soft
StackLeniency: 0.7
Mode: 0
LetterboxInBreaks: 0
WidescreenStoryboard: 1

[Editor]
Bookmarks: 117975,118058,118141,118225,118308,118391,118475,118558,118641,118725,118808,118891,118975,119058,119141,119225,119308,119391,119475,119558,119641,119725,119808,119891,119975,120058,120141,120225,120308,120391,120475,120558,120641,120725,120808,120891,120975,121058,121141,121225,121308,121391,121475,121558,121641,121725,121808,121891,121975,122058,122141,122225,122308,122391,122475,122558,122641,122725,122808,122891,122975,123058,123141,123225,123308,123391,123475,123558,123641,123725,123808,123891,123975,124058,124141,124225,124308,124391,124475,124558,124641,124725,124808,124891,124975,125058,125141,125225,125308,125391,125475,125558,125641,125725,125808,125891,125975,126058,126141,126225,126308,126391,126475,126558,126641,126725,126808,126891,126975,127058,127141,127225,127308,127391,127475,127558,127641,127725,127808,127891,127975,128058,128141,128225,128308,128391,128475,128558
DistanceSpacing: 1
BeatDivisor: 2
GridSize: 4
TimelineZoom: 1

[Metadata]
Title:Hetakuso
TitleUnicode:へたくそ
Artist:Given
ArtistUnicode:ギヴン
Creator:Blitzifyyy
Version:Chu's Normal
Source:映画 ギヴン
Tags:WashedUp Player TheBlank arronchu1207 Eiga Movie Japanese Anime the seasons センチミリメンタル centimilli mental centimillimental anime japanese insert song yaoi bl boys love shounen ai Lerche Sato Satou Mafuyu 佐藤真冬 Yano Shougo 矢野奨吾 pop j-pop rock j-rock
BeatmapID:2680897
BeatmapSetID:1237078

[Difficulty]
HPDrainRate:3.5
CircleSize:3.5
OverallDifficulty:4
ApproachRate:5.5
SliderMultiplier:1.1
SliderTickRate:1

[Events]
//Background and Video events
0,0,"c8f3d3b420cd1cd48c2784ea30dde974.jpg",0,0
//Break Periods
2,27508,28850
2,70175,71516
2,75508,84850
2,112841,114183
2,120641,127516
//Storyboard Layer 0 (Background)
//Storyboard Layer 1 (Fail)
//Storyboard Layer 2 (Pass)
//Storyboard Layer 3 (Foreground)
//Storyboard Layer 4 (Overlay)
//Storyboard Sound Samples

[TimingPoints]
642,333.333333333333,4,2,1,75,1,0
11308,-111.111111111111,4,2,1,75,0,0
27308,-111.111111111111,4,2,1,55,0,0
31308,-100,4,2,1,65,0,0
32641,-100,4,2,1,85,0,1
43225,-100,4,2,1,85,0,0
43308,-100,4,2,1,85,0,1
53975,-100,4,2,1,75,0,0
64641,-105.263157894737,4,2,1,75,0,0
69975,-100,4,2,1,55,0,0
75308,-105.263157894737,4,2,1,65,0,0
112641,-100,4,2,1,55,0,0
116641,-100,4,2,1,65,0,0
128641,-111.111111111111,4,2,1,75,0,0
137975,-100,4,2,1,75,0,0
139308,-100,4,2,1,85,0,1
149891,-100,4,2,1,85,0,0
149975,-100,4,2,1,85,0,1
160641,-100,4,2,1,75,0,0
181975,-100,4,2,1,65,0,0
183808,-100,4,2,1,75,0,0
183975,-100,4,2,1,75,0,0
184141,-100,4,2,1,75,0,0
184308,-100,4,2,1,75,0,0

[Colours]
Combo1 : 83,169,255
Combo2 : 249,231,170
Combo3 : 193,132,255
Combo4 : 140,140,140

[HitObjects]
125,88,642,6,0,P|147:111|235:119,1,110,6|10,1:2|0:0,0:0:0:0:
272,105,1141,1,10,0:0:0:0:
272,105,1308,2,0,L|263:178,1,55,2|2,0:0|1:2,0:0:0:0:
343,236,1808,2,0,L|452:246,1,110,2|2,0:0|0:0,0:0:0:0:
492,208,2308,1,8,0:0:0:0:
492,208,2475,2,0,B|509:164|509:164|494:98,1,110,10|2,0:0|1:2,0:0:0:0:
476,50,2975,1,8,0:0:0:0:
368,25,3308,6,0,L|245:16,1,110,2|8,1:2|0:0,0:0:0:0:
221,58,3808,1,10,0:0:0:0:
221,58,3975,2,0,P|212:115|236:171,1,110,2|8,0:0|0:0,0:0:0:0:
270,207,4474,1,2,1:2:0:0:
270,207,4641,2,0,P|279:264|255:320,1,110,2|10,1:2|0:0,0:0:0:0:
214,341,5141,2,0,L|101:325,1,110,10|2,0:0|1:2,0:0:0:0:
33,241,5808,1,10,3:0:0:0:
33,241,5975,6,0,B|28:193|28:193|33:169|33:169|28:119,1,110,6|10,1:2|0:0,0:0:0:0:
63,88,6475,1,10,0:0:0:0:
63,88,6641,2,0,L|70:31,1,55,2|2,0:0|1:2,0:0:0:0:
176,5,7141,2,0,P|230:9|275:46,1,110,2|2,0:0|0:0,0:0:0:0:
276,97,7641,1,8,0:0:0:0:
276,97,7808,2,0,L|263:213,1,110,10|2,0:0|1:2,0:0:0:0:
232,251,8308,1,8,0:0:0:0:
305,332,8641,6,0,B|343:305|343:305|421:327,1,110,2|8,1:2|0:0,0:0:0:0:
458,328,9141,1,10,0:0:0:0:
458,328,9308,2,0,L|437:209,1,110,2|8,0:0|0:0,0:0:0:0:
404,183,9808,1,2,1:2:0:0:
404,183,9975,2,0,L|425:64,1,110,2|10,1:2|0:0,0:0:0:0:
396,26,10475,1,2,1:2:0:0:
297,75,10808,1,10,0:0:0:0:
297,75,10975,2,0,P|245:83|225:78,1,55,8|10,0:0|0:0,0:0:0:0:
197,64,11308,6,0,L|212:175,1,98.9999969787599,6|8,1:2|0:0,0:0:0:0:
290,220,11975,1,2,1:2:0:0:
290,220,12141,2,0,L|275:331,1,98.9999969787599,8|10,3:0|3:0,0:0:0:0:
263,366,12641,2,0,P|219:342|169:346,1,98.9999969787599,2|10,1:2|0:0,0:0:0:0:
126,366,13141,1,8,0:0:0:0:
28,347,13475,2,0,L|20:287,1,49.4999984893799,2|10,1:2|3:0,0:0:0:0:
79,217,13975,6,0,L|89:106,1,98.9999969787599,2|10,1:2|0:0,0:0:0:0:
130,90,14475,1,2,0:0:0:0:
130,90,14641,2,0,L|122:34,2,49.4999984893799,2|10|2,1:2|0:0|0:0,0:0:0:0:
213,143,15308,2,0,P|263:147|314:114,1,98.9999969787599,0|8,1:0|0:0,0:0:0:0:
325,79,15808,2,0,L|428:86,1,98.9999969787599,8|2,0:0|1:0,0:0:0:0:
484,164,16475,1,2,1:2:0:0:
484,164,16641,6,0,P|475:218|499:273,1,98.9999969787599,2|8,1:2|0:0,0:0:0:0:
421,332,17308,1,2,1:2:0:0:
421,332,17475,2,0,L|310:320,1,98.9999969787599,8|10,3:0|0:0,0:0:0:0:
283,290,17975,2,0,B|272:239|272:239|298:188,1,98.9999969787599,2|10,1:2|0:0,0:0:0:0:
328,162,18475,1,8,0:0:0:0:
266,84,18808,2,0,L|205:91,1,49.4999984893799,2|10,1:2|0:0,0:0:0:0:
149,159,19308,6,0,L|50:150,1,98.9999969787599,2|10,1:2|0:0,0:0:0:0:
24,193,19808,1,2,0:0:0:0:
24,193,19975,2,0,L|32:242,1,49.4999984893799,2|10,1:2|3:0,0:0:0:0:
30,291,20308,2,0,L|22:340,1,49.4999984893799,2|8,0:0|3:0,0:0:0:0:
115,373,20808,6,0,P|120:332|111:306,1,49.4999984893799,8|8,0:0|0:0,0:0:0:0:
188,254,21308,2,0,P|185:229|191:205,1,49.4999984893799,8|10,0:0|0:0,0:0:0:0:
284,238,21808,1,2,1:2:0:0:
284,238,21975,6,0,L|395:256,1,98.9999969787599,6|8,1:2|0:0,0:0:0:0:
430,234,22475,1,2,1:2:0:0:
430,234,22641,2,0,P|450:191|439:137,1,98.9999969787599,2|8,0:0|0:0,0:0:0:0:
400,113,23141,1,2,0:0:0:0:
400,113,23308,2,0,B|356:97|356:97|307:117,1,98.9999969787599,2|10,1:2|0:0,0:0:0:0:
215,153,23975,1,0,0:0:0:0:
181,59,24308,1,10,0:0:0:0:
91,100,24641,6,0,L|101:211,1,98.9999969787599,2|10,1:2|0:0,0:0:0:0:
77,243,25141,1,2,1:2:0:0:
77,243,25308,2,0,L|72:308,1,49.4999984893799,2|2,0:0|1:2,0:0:0:0:
98,335,25641,1,10,0:0:0:0:
189,296,25975,1,0,1:0:0:0:
275,354,26308,1,10,0:0:0:0:
275,354,26475,2,0,P|293:305|285:256,1,98.9999969787599,2|2,1:2|1:2,0:0:0:0:
235,174,27141,1,2,1:2:0:0:
235,174,27308,5,2,1:2:0:0:
256,192,29975,12,2,31308,1:2:0:0:
291,66,31975,6,0,L|285:128,1,55,10|2,3:0|1:2,0:0:0:0:
332,149,32308,2,0,L|338:211,1,55,10|8,3:0|3:0,0:0:0:0:
310,251,32641,6,0,B|254:238|254:238|195:264,1,110,6|8,1:2|0:0,0:0:0:0:
157,286,33141,1,0,1:0:0:0:
59,247,33475,1,0,1:0:0:0:
59,247,33641,2,0,L|68:187,1,55,8|0,0:0|0:0,0:0:0:0:
107,154,33975,2,0,L|95:41,1,110,2|8,1:2|0:0,0:0:0:0:
138,9,34475,1,0,1:0:0:0:
225,76,34808,1,0,1:0:0:0:
225,76,34975,2,0,P|263:86|296:81,1,55,8|0,0:0|0:0,0:0:0:0:
328,63,35308,6,0,L|321:177,1,110,2|8,1:2|0:0,0:0:0:0:
282,211,35808,1,0,1:0:0:0:
378,262,36141,1,0,1:0:0:0:
378,262,36308,2,0,L|433:257,1,55,8|0,0:0|0:0,0:0:0:0:
473,219,36641,2,0,B|492:167|492:167|474:108,1,110,2|8,1:2|0:0,0:0:0:0:
431,13,37308,2,0,L|367:20,1,55,2|8,0:0|3:0,0:0:0:0:
334,55,37641,2,0,L|270:48,1,55,8|8,3:0|3:0,0:0:0:0:
230,23,37975,6,0,P|248:86|235:138,1,110,6|8,1:2|0:0,0:0:0:0:
206,172,38475,1,0,1:0:0:0:
206,172,38641,2,0,L|148:166,1,55,2|0,0:0|1:0,0:0:0:0:
111,204,38975,2,0,L|123:325,1,110,10|0,0:0|1:0,0:0:0:0:
221,359,39641,2,0,L|228:300,1,55,10|0,0:0|1:0,0:0:0:0:
267,265,39975,2,0,L|260:206,1,55,0|0,0:0|1:0,0:0:0:0:
295,167,40308,6,0,L|408:152,1,110,10|0,0:0|1:0,0:0:0:0:
349,56,40975,2,0,L|239:70,1,110,10|0,0:0|0:0,0:0:0:0:
193,100,41475,1,0,1:0:0:0:
193,100,41641,2,0,P|174:151|182:209,1,110,10|0,0:0|1:0,0:0:0:0:
261,280,42308,1,8,0:0:0:0:
261,280,42475,2,0,L|370:289,1,110,2|10,1:2|0:0,0:0:0:0:
425,292,42975,2,0,P|436:251|435:237,1,55,2|8,1:2|0:0,0:0:0:0:
408,190,43308,6,0,P|397:145|413:78,1,110,6|8,1:2|0:0,0:0:0:0:
436,35,43808,1,0,1:0:0:0:
330,5,44141,1,0,1:0:0:0:
330,5,44308,2,0,L|265:13,1,55,8|0,0:0|0:0,0:0:0:0:
221,0,44641,2,0,L|233:112,1,110,2|8,1:2|0:0,0:0:0:0:
268,151,45141,1,0,1:0:0:0:
168,198,45475,1,0,1:0:0:0:
168,198,45641,2,0,L|112:192,1,55,8|0,0:0|0:0,0:0:0:0:
62,168,45975,6,0,B|75:223|75:223|52:286,1,110,2|8,1:2|0:0,0:0:0:0:
28,320,46475,1,0,1:0:0:0:
119,381,46808,1,0,1:0:0:0:
119,381,46975,2,0,L|181:375,1,55,8|0,0:0|0:0,0:0:0:0:
213,337,47308,2,0,L|326:347,1,110,2|8,1:2|0:0,0:0:0:0:
410,280,47975,2,0,P|421:236|418:211,1,55,2|8,0:0|3:0,0:0:0:0:
378,190,48308,2,0,P|367:146|370:121,1,55,8|8,3:0|3:0,0:0:0:0:
392,87,48641,6,0,L|277:97,1,110,2|8,0:0|0:0,0:0:0:0:
242,58,49141,1,0,1:0:0:0:
242,58,49308,2,0,L|179:51,1,55,2|0,0:0|1:0,0:0:0:0:
146,88,49641,2,0,B|124:119|124:119|141:200,1,110,10|0,0:0|1:0,0:0:0:0:
210,273,50308,2,0,L|270:268,1,55,10|0,0:0|1:0,0:0:0:0:
302,228,50641,2,0,L|356:232,1,55,0|0,0:0|1:0,0:0:0:0:
395,271,50975,6,0,L|387:380,1,110,10|0,0:0|1:0,0:0:0:0:
494,356,51641,2,0,L|502:247,1,110,10|0,0:0|0:0,0:0:0:0:
479,195,52141,1,0,1:0:0:0:
479,195,52308,2,0,P|443:163|381:158,1,110,10|0,0:0|1:0,0:0:0:0:
335,184,52808,1,8,0:0:0:0:
335,184,52975,1,8,0:0:0:0:
261,102,53308,2,0,P|219:101|186:114,1,55,8|0,3:0|1:0,0:0:0:0:
167,142,53641,2,0,P|166:184|179:217,1,55,8|0,0:0|0:0,0:0:0:0:
199,242,53975,5,6,1:2:0:0:
140,335,54308,2,0,L|81:326,1,55,2|8,0:0|0:0,0:0:0:0:
33,345,54641,2,0,L|45:233,1,110,2|2,1:2|1:2,0:0:0:0:
26,183,55141,2,0,P|65:199|130:186,1,110,10|10,0:0|0:0,0:0:0:0:
171,150,55641,1,0,1:0:0:0:
171,150,55808,2,0,L|159:30,1,110,10|10,0:0|0:0,0:0:0:0:
269,28,56475,1,10,0:0:0:0:
269,28,56641,6,0,L|279:137,1,110,2|0,1:2|1:0,0:0:0:0:
317,177,57141,2,0,L|313:246,1,55,10|8,0:0|3:0,0:0:0:0:
280,276,57475,1,10,0:0:0:0:
343,365,57808,2,0,P|385:342|447:352,1,110,10|10,0:0|0:0,0:0:0:0:
498,362,58308,1,2,0:0:0:0:
498,362,58475,2,0,L|484:246,1,110,8|8,0:0|0:0,0:0:0:0:
410,171,59141,1,10,0:0:0:0:
410,171,59308,6,0,B|423:112|423:112|408:59,1,110,6|2,1:2|0:0,0:0:0:0:
368,27,59808,2,0,L|306:35,1,55,10|0,0:0|1:0,0:0:0:0:
279,77,60141,1,10,0:0:0:0:
173,44,60475,2,0,P|185:98|161:157,1,110,10|8,0:0|0:0,0:0:0:0:
119,175,60975,1,2,0:0:0:0:
119,175,61141,2,0,L|134:291,1,110,10|8,0:0|0:0,0:0:0:0:
174,320,61641,2,0,P|205:324|240:311,1,55,2|8,1:2|0:0,0:0:0:0:
272,285,61975,6,0,P|316:277|377:305,1,110,2|2,1:2|1:2,0:0:0:0:
480,276,62641,1,2,1:2:0:0:
499,167,62975,1,2,1:2:0:0:
407,106,63308,6,0,L|288:116,1,110,10|8,1:2|1:2,0:0:0:0:
246,93,63808,1,10,0:0:0:0:
246,93,63975,2,0,P|261:149|250:206,1,110,10|10,1:2|1:3,0:0:0:0:
209,233,64475,1,8,3:0:0:0:
209,233,64641,5,6,1:2:0:0:
111,194,64975,2,0,B|98:87|98:87|122:36,1,156.749995814324,2|0,0:0|0:0,0:0:0:0:
156,6,65641,1,2,0:0:0:0:
226,83,65975,1,2,1:2:0:0:
310,21,66308,2,0,P|370:23|420:101,1,156.749995814324,2|0,0:0|1:0,0:0:0:0:
405,148,66975,1,2,0:0:0:0:
321,210,67308,6,0,L|202:196,1,104.499997209549,2|2,1:2|0:0,0:0:0:0:
169,175,67808,2,0,P|185:240|168:287,1,104.499997209549,2|2,1:2|0:0,0:0:0:0:
142,315,68308,1,2,0:0:0:0:
42,284,68641,2,0,P|26:219|43:172,1,104.499997209549,0|0,1:0|0:0,0:0:0:0:
74,149,69141,1,2,1:2:0:0:
74,149,69308,2,0,L|60:43,1,104.499997209549,10|8,0:0|0:0,0:0:0:0:
23,17,69808,1,10,0:0:0:0:
23,17,69975,5,2,1:2:0:0:
256,192,72641,12,4,75308,1:2:0:0:
423,131,85975,6,0,L|411:239,1,104.499997209549,6|0,1:2|0:0,0:0:0:0:
308,216,86641,2,0,L|319:112,1,104.499997209549,8|0,0:0|0:0,0:0:0:0:
236,47,87308,2,0,P|181:40|137:74,1,104.499997209549,0|0,1:0|0:0,0:0:0:0:
129,169,87975,2,0,L|144:289,1,104.499997209549,8|0,0:0|0:0,0:0:0:0:
130,326,88475,1,8,0:0:0:0:
130,326,88641,6,0,B|177:306|177:306|246:327,1,104.499997209549,2|0,1:2|0:0,0:0:0:0:
329,293,89308,2,0,B|376:313|376:313|445:292,1,104.499997209549,8|0,0:0|0:0,0:0:0:0:
505,227,89975,2,0,L|494:116,1,104.499997209549,2|0,1:2|0:0,0:0:0:0:
416,54,90641,2,0,B|363:67|363:67|307:42,1,104.499997209549,8|0,0:0|0:0,0:0:0:0:
268,27,91141,1,8,0:0:0:0:
268,27,91308,6,0,P|284:85|268:142,1,104.499997209549,4|0,1:2|0:0,0:0:0:0:
229,221,91975,2,0,L|125:213,1,104.499997209549,8|0,0:0|0:0,0:0:0:0:
31,167,92641,2,0,B|20:115|20:115|39:65,1,104.499997209549,0|0,1:0|0:0,0:0:0:0:
134,24,93308,2,0,L|238:32,1,104.499997209549,8|0,0:0|0:0,0:0:0:0:
283,67,93808,1,8,0:0:0:0:
283,67,93975,6,0,L|342:62,2,52.2499986047745,0|8|0,1:0|0:0|0:0,0:0:0:0:
206,137,94641,2,0,P|197:205|213:246,1,104.499997209549,8|0,0:0|0:0,0:0:0:0:
257,267,95141,1,8,0:0:0:0:
257,267,95308,2,0,P|266:335|250:376,1,104.499997209549,4|8,1:2|1:2,0:0:0:0:
150,381,95975,1,8,1:2:0:0:
77,306,96308,2,0,P|65:269|68:244,1,52.2499986047745,8|10,1:2|3:0,0:0:0:0:
102,218,96641,6,0,P|124:168|93:69,1,156.749995814324,6|2,1:2|1:2,0:0:0:0:
66,31,97308,2,0,L|179:25,1,104.499997209549,10|0,0:0|0:0,0:0:0:0:
226,25,97808,1,10,0:0:0:0:
226,25,97975,2,0,P|208:87|221:131,1,104.499997209549,2|2,1:2|0:0,0:0:0:0:
313,83,98641,2,0,L|426:70,1,104.499997209549,8|0,0:0|0:0,0:0:0:0:
457,111,99141,1,8,0:0:0:0:
457,111,99308,6,0,B|508:120,2,52.2499986047745,0|8|0,1:0|0:0|0:0,0:0:0:0:
382,184,99975,2,0,P|364:247|378:294,1,104.499997209549,8|0,0:0|0:0,0:0:0:0:
394,336,100475,1,8,0:0:0:0:
394,336,100641,2,0,L|275:318,1,104.499997209549,0|0,1:0|0:0,0:0:0:0:
235,231,101308,2,0,L|253:112,1,104.499997209549,8|2,0:0|0:0,0:0:0:0:
233,78,101808,1,8,0:0:0:0:
233,78,101975,6,0,B|156:64|156:64|79:116,1,156.749995814324,6|2,1:2|1:2,0:0:0:0:
52,143,102641,2,0,L|70:262,1,104.499997209549,10|0,0:0|0:0,0:0:0:0:
79,301,103141,1,10,0:0:0:0:
79,301,103308,2,0,P|126:280|180:293,1,104.499997209549,2|2,1:2|0:0,0:0:0:0:
267,342,103975,2,0,P|314:363|368:350,1,104.499997209549,8|0,0:0|0:0,0:0:0:0:
404,318,104475,1,8,0:0:0:0:
404,318,104641,6,0,L|401:250,2,52.2499986047745,0|8|0,1:0|0:0|0:0,0:0:0:0:
508,310,105308,2,0,L|504:192,1,104.499997209549,8|0,0:0|0:0,0:0:0:0:
473,170,105808,1,8,0:0:0:0:
473,170,105975,2,0,L|476:111,2,52.2499986047745,0|0|0,1:0|1:0|0:0,0:0:0:0:
381,220,106641,1,8,0:0:0:0:
381,220,106808,2,0,P|326:217|285:241,1,104.499997209549,10|8,0:3|0:0,0:0:0:0:
246,276,107308,6,0,L|227:111,1,156.749995814324,6|2,1:2|1:2,0:0:0:0:
199,76,107975,2,0,P|145:65|95:86,1,104.499997209549,10|0,0:0|0:0,0:0:0:0:
75,129,108475,1,10,0:0:0:0:
75,129,108641,2,0,L|86:234,1,104.499997209549,2|2,1:2|0:0,0:0:0:0:
146,318,109308,2,0,P|136:353|139:382,2,52.2499986047745,8|2|2,0:0|1:2|0:0,0:0:0:0:
229,254,109975,6,0,L|346:261,1,104.499997209549,0|0,1:0|0:0,0:0:0:0:
403,182,110641,2,0,L|410:65,1,104.499997209549,8|0,0:0|0:0,0:0:0:0:
371,42,111141,1,8,0:0:0:0:
371,42,111308,2,0,B|320:30|320:30|260:52,1,104.499997209549,0|0,1:0|0:0,0:0:0:0:
187,111,111975,2,0,P|168:70|169:26,2,78.3749979071618,10|0|2,0:0|0:0|0:0,0:0:0:0:
230,144,112641,5,2,1:2:0:0:
256,192,115308,12,2,116641,1:2:0:0:
348,255,117308,6,0,L|340:196,1,55,10|10,0:0|0:0,0:0:0:0:
380,162,117641,2,0,L|388:103,1,55,10|8,0:0|3:0,0:0:0:0:
152,169,128641,6,0,L|256:178,1,98.9999969787599,6|8,1:2|0:0,0:0:0:0:
346,153,129308,2,0,P|337:213|354:252,1,98.9999969787599,8|0,0:0|0:0,0:0:0:0:
388,279,129808,1,8,0:0:0:0:
388,279,129975,2,0,P|397:319|394:343,2,49.4999984893799,2|8|0,1:2|0:0|1:0,0:0:0:0:
300,325,130641,2,0,L|196:321,1,98.9999969787599,8|0,0:0|0:0,0:0:0:0:
158,341,131141,1,8,0:0:0:0:
158,341,131308,6,0,P|166:292|148:241,1,98.9999969787599,2|8,1:2|0:0,0:0:0:0:
66,194,131975,2,0,P|51:147|59:98,1,98.9999969787599,8|0,0:0|0:0,0:0:0:0:
100,70,132475,1,8,0:0:0:0:
100,70,132641,2,0,L|94:11,2,49.4999984893799,2|8|0,1:2|0:0|1:0,0:0:0:0:
193,104,133308,2,0,L|300:96,1,98.9999969787599,10|0,0:0|0:0,0:0:0:0:
336,75,133808,1,8,0:0:0:0:
336,75,133975,6,0,B|325:125|325:125|347:182,1,98.9999969787599,6|8,1:2|0:0,0:0:0:0:
433,206,134641,2,0,P|439:258|414:305,1,98.9999969787599,10|2,0:0|0:0,0:0:0:0:
378,324,135141,1,8,0:0:0:0:
378,324,135308,2,0,L|385:379,2,49.4999984893799,0|8|2,1:2|0:0|1:2,0:0:0:0:
290,277,135975,2,0,L|189:287,1,98.9999969787599,8|2,0:0|0:0,0:0:0:0:
152,315,136475,1,8,0:0:0:0:
152,315,136641,6,0,B|155:264|155:264|129:212,1,98.9999969787599,0|10,1:2|0:0,0:0:0:0:
166,127,137308,2,0,L|268:138,1,98.9999969787599,8|2,0:0|0:0,0:0:0:0:
303,106,137808,1,10,0:0:0:0:
303,106,137975,6,0,L|414:98,1,110,2|8,1:2|3:0,0:0:0:0:
507,154,138641,2,0,P|513:196|507:228,1,55,10|2,3:0|1:2,0:0:0:0:
473,247,138975,2,0,P|467:289|473:321,1,55,10|8,3:0|3:0,0:0:0:0:
486,353,139308,6,0,B|430:340|430:340|371:366,1,110,6|8,1:2|0:0,0:0:0:0:
330,381,139808,1,0,1:0:0:0:
266,298,140142,1,0,1:0:0:0:
266,298,140308,2,0,L|275:238,1,55,8|0,0:0|0:0,0:0:0:0:
247,195,140642,2,0,L|235:82,1,110,2|8,1:2|0:0,0:0:0:0:
198,44,141142,1,0,1:0:0:0:
106,101,141475,1,0,1:0:0:0:
106,101,141642,2,0,P|96:139|101:172,1,55,8|0,0:0|0:0,0:0:0:0:
137,188,141975,6,0,L|251:195,1,110,2|8,1:2|0:0,0:0:0:0:
297,172,142475,1,0,1:0:0:0:
396,229,142808,1,0,1:0:0:0:
396,229,142975,2,0,L|401:284,1,55,8|0,0:0|0:0,0:0:0:0:
367,327,143308,2,0,B|314:342|314:342|262:323,1,110,2|8,1:2|0:0,0:0:0:0:
200,232,143975,2,0,L|207:168,1,55,2|8,0:0|3:0,0:0:0:0:
242,135,144308,2,0,L|235:71,1,55,8|8,3:0|3:0,0:0:0:0:
205,34,144642,6,0,P|151:25|99:43,1,110,6|8,1:2|0:0,0:0:0:0:
71,92,145142,1,0,1:0:0:0:
71,92,145308,2,0,L|65:150,1,55,2|0,0:0|1:0,0:0:0:0:
42,197,145642,2,0,L|54:318,1,110,10|0,0:0|1:0,0:0:0:0:
140,373,146308,2,0,L|199:366,1,55,10|0,0:0|1:0,0:0:0:0:
234,327,146642,2,0,L|293:334,1,55,0|0,0:0|1:0,0:0:0:0:
334,302,146975,6,0,P|351:242|336:189,1,110,10|0,0:0|1:0,0:0:0:0:
234,165,147642,2,0,L|124:179,1,110,10|0,0:0|0:0,0:0:0:0:
74,193,148142,1,0,1:0:0:0:
74,193,148308,2,0,P|55:142|63:84,1,110,10|0,0:0|1:0,0:0:0:0:
171,62,148975,1,8,0:0:0:0:
171,62,149142,2,0,L|280:71,1,110,2|10,1:2|0:0,0:0:0:0:
316,113,149642,2,0,P|315:140|305:166,1,55,2|8,1:2|0:0,0:0:0:0:
276,212,149975,6,0,P|273:266|304:319,1,110,6|8,1:2|0:0,0:0:0:0:
346,341,150475,1,0,1:0:0:0:
432,272,150808,1,0,1:0:0:0:
432,272,150975,2,0,L|424:207,1,55,8|0,0:0|0:0,0:0:0:0:
455,171,151308,2,0,L|466:61,1,110,2|8,1:2|0:0,0:0:0:0:
436,15,151808,1,0,1:0:0:0:
354,88,152142,1,0,1:0:0:0:
354,88,152308,2,0,L|298:82,1,55,8|0,0:0|0:0,0:0:0:0:
248,58,152642,6,0,B|261:113|261:113|238:176,1,110,2|8,1:2|0:0,0:0:0:0:
214,210,153142,1,0,1:0:0:0:
120,265,153475,1,0,1:0:0:0:
120,265,153642,2,0,L|126:327,1,55,8|0,0:0|0:0,0:0:0:0:
165,356,153975,2,0,L|278:346,1,110,2|8,1:2|0:0,0:0:0:0:
312,242,154642,2,0,P|323:198|320:173,1,55,2|8,0:0|3:0,0:0:0:0:
288,145,154975,2,0,P|277:101|280:76,1,55,8|8,3:0|3:0,0:0:0:0:
308,46,155308,6,0,L|417:55,1,110,2|8,0:0|0:0,0:0:0:0:
461,97,155808,1,0,1:0:0:0:
461,97,155975,2,0,L|454:160,1,55,2|0,0:0|1:0,0:0:0:0:
420,194,156308,2,0,B|398:225|398:225|415:306,1,110,10|0,0:0|1:0,0:0:0:0:
326,364,156975,2,0,L|266:359,1,55,10|0,0:0|1:0,0:0:0:0:
234,319,157308,2,0,L|180:323,1,55,0|0,0:0|1:0,0:0:0:0:
137,286,157642,6,0,L|129:177,1,110,10|0,0:0|1:0,0:0:0:0:
235,148,158308,2,0,L|243:39,1,110,10|0,0:0|0:0,0:0:0:0:
290,9,158808,1,0,1:0:0:0:
290,9,158975,2,0,P|337:0|393:25,1,110,10|0,0:0|1:0,0:0:0:0:
420,71,159475,1,8,0:0:0:0:
420,71,159642,1,8,0:0:0:0:
361,163,159975,2,0,L|370:227,1,55,8|0,3:0|1:0,0:0:0:0:
402,260,160308,2,0,L|393:324,1,55,8|8,0:0|3:0,0:0:0:0:
358,356,160641,6,0,P|336:333|248:325,1,110,6|10,1:2|0:0,0:0:0:0:
212,335,161140,1,10,0:0:0:0:
212,335,161308,2,0,L|203:262,1,55,2|2,0:0|1:2,0:0:0:0:
127,201,161807,2,0,L|137:92,1,110,2|2,0:0|0:0,0:0:0:0:
145,40,162307,1,8,0:0:0:0:
145,40,162474,2,0,B|189:57|189:57|255:42,1,110,10|2,0:0|1:2,0:0:0:0:
303,27,162974,1,8,0:0:0:0:
407,61,163307,6,0,L|416:184,1,110,2|8,1:2|0:0,0:0:0:0:
374,208,163807,1,10,0:0:0:0:
374,208,163974,2,0,P|317:217|261:193,1,110,2|8,0:0|0:0,0:0:0:0:
225,159,164475,1,2,1:2:0:0:
225,159,164641,2,0,P|168:150|112:174,1,110,2|10,1:2|0:0,0:0:0:0:
80,205,165141,2,0,L|96:318,1,110,10|2,0:0|1:2,0:0:0:0:
194,373,165807,1,10,3:0:0:0:
194,373,165974,6,0,B|242:378|242:378|266:373|266:373|316:378,1,110,6|10,1:2|0:0,0:0:0:0:
347,343,166474,1,10,0:0:0:0:
347,343,166641,2,0,L|404:336,1,55,2|2,0:0|1:2,0:0:0:0:
469,249,167141,2,0,P|465:195|428:150,1,110,2|2,0:0|0:0,0:0:0:0:
377,149,167640,1,8,0:0:0:0:
377,149,167807,2,0,L|261:162,1,110,10|2,0:0|1:2,0:0:0:0:
223,193,168307,1,8,0:0:0:0:
116,164,168641,6,0,B|143:126|143:126|121:48,1,110,2|8,1:2|0:0,0:0:0:0:
120,11,169140,1,10,0:0:0:0:
120,11,169307,2,0,L|239:32,1,110,2|8,0:0|0:0,0:0:0:0:
265,65,169807,1,2,1:2:0:0:
265,65,169974,2,0,L|384:44,1,110,2|10,1:2|0:0,0:0:0:0:
422,73,170474,1,2,1:2:0:0:
497,160,170807,1,10,0:0:0:0:
497,160,170974,2,0,P|505:212|500:232,1,55,8|10,0:0|3:0,0:0:0:0:
476,261,171308,6,0,L|365:251,1,110,6|10,1:2|0:0,0:0:0:0:
325,288,171808,1,10,0:0:0:0:
325,288,171975,2,0,L|319:358,1,55,2|2,0:0|1:2,0:0:0:0:
216,378,172475,2,0,P|155:372|115:335,1,110,2|2,0:0|0:0,0:0:0:0:
92,293,172975,1,8,0:0:0:0:
92,293,173141,2,0,L|101:179,1,110,10|2,0:0|1:2,0:0:0:0:
107,128,173641,1,8,0:0:0:0:
192,58,173975,6,0,B|235:73|235:73|298:53,1,110,2|8,1:2|0:0,0:0:0:0:
348,35,174475,1,10,0:0:0:0:
348,35,174641,2,0,P|338:94|334:150,1,110,2|8,0:0|0:0,0:0:0:0:
296,183,175141,1,2,1:2:0:0:
296,183,175307,2,0,P|306:242|310:298,1,110,2|10,1:2|0:0,0:0:0:0:
282,340,175808,2,0,L|401:325,1,110,10|2,0:0|1:2,0:0:0:0:
477,257,176475,1,10,3:0:0:0:
477,257,176641,6,0,B|481:209|481:209|475:189|475:189|479:145,1,110,6|10,1:2|0:0,0:0:0:0:
444,104,177141,1,10,0:0:0:0:
444,104,177308,2,0,L|437:46,1,55,2|2,0:0|1:2,0:0:0:0:
332,16,177808,2,0,P|269:17|234:51,1,110,2|2,0:0|0:0,0:0:0:0:
225,101,178308,1,8,0:0:0:0:
225,101,178475,2,0,P|240:163|248:215,1,110,10|2,0:0|1:2,0:0:0:0:
234,262,178975,1,8,0:0:0:0:
156,340,179308,6,0,L|43:333,1,110,2|8,1:2|0:0,0:0:0:0:
12,289,179808,1,10,0:0:0:0:
12,289,179975,2,0,B|1:238|1:238|26:171,1,110,2|8,0:0|0:0,0:0:0:0:
53,139,180475,1,2,1:2:0:0:
53,139,180641,1,4,1:2:0:0:
147,195,180975,5,8,0:0:0:0:
195,219,181141,1,0,1:0:0:0:
246,199,181308,2,0,P|282:199|306:207,1,55,0|8,1:0|0:0,0:0:0:0:
345,235,181641,2,0,P|381:235|405:227,1,55,8|8,0:0|0:0,0:0:0:0:
443,196,181975,1,0,0:0:0:0:
443,196,183808,6,0,L|432:138,1,55,12|0,1:2|0:0,0:0:0:0:
400,97,184141,2,0,L|411:39,1,55,12|0,1:2|0:0,0:0:0:0:
