osu file format v14

[General]
AudioFilename: audio.mp3
AudioLeadIn: 0
PreviewTime: 130070
Countdown: 0
SampleSet: Soft
StackLeniency: 0.7
Mode: 0
LetterboxInBreaks: 0
WidescreenStoryboard: 1

[Editor]
DistanceSpacing: 1
BeatDivisor: 4
GridSize: 32
TimelineZoom: 1

[Metadata]
Title:Fuyu no Hanashi
TitleUnicode:冬のはなし
Artist:Given
ArtistUnicode:ギヴン
Creator:Blitzifyyy
Version:Mocaotic's Normal
Source:ギヴン
Tags:mocaotic baar_vendel fuyunohanashi marutsuke the seasons センチミリメンタル centimilli mental centimillimental anime japanese insert song yaoi bl boys love shounen ai Lerche Sato Satou Mafuyu 佐藤真冬 Yano Shougo 矢野奨吾 pop j-pop rock j-rock
BeatmapID:2520689
BeatmapSetID:1188243

[Difficulty]
HPDrainRate:4
CircleSize:3.8
OverallDifficulty:4.5
ApproachRate:5
SliderMultiplier:1.2
SliderTickRate:1

[Events]
//Background and Video events
0,0,"bg.jpg",0,0
//Break Periods
2,131360,137294
//Storyboard Layer 0 (Background)
//Storyboard Layer 1 (Fail)
//Storyboard Layer 2 (Pass)
//Storyboard Layer 3 (Foreground)
//Storyboard Layer 4 (Overlay)
//Storyboard Sound Samples

[TimingPoints]
-172,444.444444444444,4,2,1,70,1,0
14050,-105.263157894737,4,2,1,60,0,0
21161,-100,4,2,1,70,0,0
35383,-105.263157894737,4,2,1,65,0,0
49605,-95.2380952380952,4,2,1,80,0,1
74494,-100,4,2,1,65,0,0
81605,-105.263157894737,4,2,1,60,0,0
88716,-100,4,2,1,70,0,0
102939,-105.263157894737,4,2,1,65,0,0
117161,-100,4,2,1,80,0,1
131383,-100,4,2,1,50,0,0
138494,-105.263157894737,4,2,1,60,0,0
145605,-105.263157894737,4,2,1,65,0,0
159827,-105.263157894737,4,2,1,50,0,0
163383,-95.2380952380952,4,2,1,80,0,1
184716,-100,4,2,1,70,0,0
197827,-100,4,2,1,65,0,0
200716,-100,4,2,1,55,0,0
202494,-100,4,2,1,45,0,0
204272,-100,4,2,1,35,0,0
205383,-100,4,2,1,5,0,0

[Colours]
Combo1 : 201,201,201
Combo2 : 243,188,148
Combo3 : 140,158,242

[HitObjects]
233,66,716,6,0,P|279:66|338:41,2,90,4|4|4,1:2|1:2|1:2,0:0:0:0:
135,31,1827,1,8,0:0:0:0:
135,31,2050,2,0,P|89:31|30:56,2,90,4|4|4,1:2|1:2|1:2,0:0:0:0:
210,108,3161,1,4,1:2:0:0:
295,245,3827,6,0,P|341:245|400:270,2,90,4|4|4,1:2|1:2|1:2,0:0:0:0:
195,281,4939,1,8,0:0:0:0:
195,281,5161,2,0,P|149:281|90:256,2,90,4|0|4,1:2|1:2|1:2,0:0:0:0:
181,178,6272,1,0,1:0:0:0:
181,178,6494,1,4,1:2:0:0:
284,146,6939,6,0,L|278:265,1,120,4|10,1:2|0:0,0:0:0:0:
274,319,7605,1,0,0:0:0:0:
181,372,8050,1,0,1:0:0:0:
181,372,8272,2,0,P|139:362|106:367,1,60,10|0,0:0|0:0,0:0:0:0:
69,374,8716,2,0,P|27:352|8:275,1,120,2|10,1:2|0:0,0:0:0:0:
36,241,9383,1,0,0:0:0:0:
115,167,9827,2,0,L|108:90,2,60,0|10|8,1:0|0:0|0:0,0:0:0:0:
143,213,10494,6,0,P|196:205|262:225,1,120,2|10,1:2|0:0,0:0:0:0:
303,254,11161,1,0,0:0:0:0:
386,187,11605,1,0,1:0:0:0:
386,187,11827,2,0,L|390:115,1,60,10|0,0:0|0:0,0:0:0:0:
397,76,12272,1,8,1:2:0:0:
397,76,12494,1,8,1:2:0:0:
302,22,12939,2,0,B|239:22|250:57|178:46,1,120,4|8,1:2|0:0,0:0:0:0:
138,24,13605,2,0,L|75:29,1,60,8|8,0:0|0:0,0:0:0:0:
27,38,14050,6,0,P|12:98|35:152,1,113.999996955872,4|2,1:2|0:0,0:0:0:0:
115,200,14939,2,0,P|177:190|236:183,1,113.999996955872,2|2,0:0|0:0,0:0:0:0:
269,153,15605,1,0,1:0:0:0:
269,153,15827,2,0,P|331:162|390:169,1,113.999996955872,2|2,1:2|0:0,0:0:0:0:
479,135,16716,2,0,P|493:90|466:28,1,113.999996955872,2|2,0:0|0:0,0:0:0:0:
367,13,17605,6,0,P|310:17|247:22,1,113.999996955872,2|2,1:2|0:0,0:0:0:0:
169,80,18494,2,0,P|161:128|205:192,1,113.999996955872,2|2,0:0|0:0,0:0:0:0:
241,210,19161,1,0,1:0:0:0:
241,210,19383,2,0,P|302:201|349:243,1,113.999996955872,2|0,1:2|0:0,0:0:0:0:
378,273,20050,1,0,1:0:0:0:
378,273,20272,1,10,0:0:0:0:
301,341,20716,2,0,L|224:334,1,56.9999984779358,10|8,0:0|0:0,0:0:0:0:
191,324,21161,6,0,B|187:273|187:273|174:255|174:255|169:193,1,120,4|10,1:2|0:0,0:0:0:0:
167,154,21827,1,0,0:0:0:0:
262,100,22272,1,0,1:0:0:0:
262,100,22494,2,0,P|299:109|335:107,1,60,10|0,0:0|0:0,0:0:0:0:
372,93,22939,1,2,1:2:0:0:
463,160,23383,1,10,0:0:0:0:
463,160,23605,2,0,L|458:304,1,120,0|0,0:0|1:0,0:0:0:0:
456,334,24272,1,10,0:0:0:0:
360,380,24716,6,0,P|322:344|254:338,1,120,2|10,1:2|0:0,0:0:0:0:
212,365,25383,1,0,0:0:0:0:
212,365,25605,1,2,0:0:0:0:
118,321,26050,2,0,L|112:251,1,60,10|0,0:0|0:0,0:0:0:0:
130,210,26494,2,0,P|194:196|243:228,1,120,4|10,1:2|0:0,0:0:0:0:
305,306,27383,2,0,P|338:308|366:302,1,60,2|8,1:2|0:0,0:0:0:0:
408,271,27827,2,0,P|426:243|435:216,1,60,8|8,1:2|0:0,0:0:0:0:
434,163,28272,6,0,L|298:150,1,120,4|10,1:2|0:0,0:0:0:0:
260,147,28939,1,0,0:0:0:0:
172,94,29383,1,0,1:0:0:0:
172,94,29605,2,0,P|168:58|181:24,1,60,10|0,0:0|0:0,0:0:0:0:
216,1,30050,1,2,1:2:0:0:
315,55,30494,1,10,0:0:0:0:
315,55,30716,2,0,P|366:39|441:59,1,120,0|0,0:0|1:0,0:0:0:0:
476,80,31383,1,10,0:0:0:0:
508,182,31827,6,0,L|500:317,1,120,2|10,1:2|0:0,0:0:0:0:
497,359,32494,1,0,0:0:0:0:
497,359,32716,1,2,0:0:0:0:
394,324,33161,2,0,P|364:315|329:325,1,60,10|0,0:0|0:0,0:0:0:0:
294,354,33605,2,0,L|159:346,1,120,4|10,1:2|0:0,0:0:0:0:
72,382,34494,2,0,P|50:354|44:320,1,60,2|8,1:2|0:0,0:0:0:0:
38,276,34939,2,0,P|51:242|77:220,1,60,8|8,1:2|0:0,0:0:0:0:
119,209,35383,6,0,P|161:235|247:230,1,113.999996955872,4|2,1:2|1:2,0:0:0:0:
321,204,36272,2,0,L|327:85,1,113.999996955872,8|2,0:0|1:2,0:0:0:0:
297,47,36939,2,0,P|269:42|240:45,1,56.9999984779358,12|2,0:0|1:2,0:0:0:0:
199,74,37383,1,12,0:0:0:0:
199,74,37605,1,0,1:0:0:0:
97,55,38050,2,0,L|85:-12,2,56.9999984779358,8|8|0,0:0|0:0|1:0,0:0:0:0:
63,93,38716,1,0,1:0:0:0:
63,93,38939,6,0,L|53:219,1,113.999996955872,4|2,1:2|1:2,0:0:0:0:
106,294,39827,2,0,P|151:304|218:278,1,113.999996955872,8|2,0:0|1:2,0:0:0:0:
253,249,40494,1,12,0:0:0:0:
253,249,40716,2,0,P|280:243|308:249,1,56.9999984779358,2|12,1:2|0:0,0:0:0:0:
355,273,41161,1,0,1:0:0:0:
405,183,41605,2,0,L|401:108,2,56.9999984779358,8|0|8,1:2|1:0|1:2,0:0:0:0:
484,247,42494,6,0,L|473:364,1,113.999996955872,4|2,1:2|1:2,0:0:0:0:
372,381,43383,2,0,P|330:372|293:297,1,113.999996955872,8|2,0:0|1:2,0:0:0:0:
281,265,44050,2,0,L|289:192,1,56.9999984779358,12|2,0:0|1:2,0:0:0:0:
296,161,44494,1,12,0:0:0:0:
296,161,44716,1,0,1:0:0:0:
218,93,45161,1,8,0:0:0:0:
128,143,45605,1,8,1:2:0:0:
170,236,46050,6,0,L|246:238,1,56.9999984779358,12|0,1:2|1:0,0:0:0:0:
277,263,46494,1,0,1:0:0:0:
277,263,46716,2,0,P|282:308|271:340,2,56.9999984779358,12|0|0,1:2|1:0|1:0,0:0:0:0:
310,224,47383,1,12,1:2:0:0:
310,224,47605,1,12,1:2:0:0:
259,134,48050,2,0,L|187:127,1,56.9999984779358,8|8,1:2|1:2,0:0:0:0:
151,123,48494,1,8,1:2:0:0:
0,352,49605,6,0,B|53:346|53:346|77:356|77:356|140:347,1,125.999996154785,4|10,1:2|0:0,0:0:0:0:
179,344,50272,1,0,0:0:0:0:
224,309,50494,2,0,P|242:245|216:185,1,125.999996154785,2|10,0:0|0:0,0:0:0:0:
114,152,51383,2,0,P|96:88|122:28,1,125.999996154785,4|10,1:2|0:0,0:0:0:0:
166,6,52050,1,0,0:0:0:0:
217,30,52272,2,0,P|253:36|298:28,1,62.9999980773926,2|0,0:0|1:0,0:0:0:0:
331,12,52716,1,10,0:0:0:0:
431,65,53161,6,0,B|447:112|447:112|440:214,1,125.999996154785,4|10,1:2|0:0,0:0:0:0:
434,244,53827,1,0,0:0:0:0:
395,285,54050,2,0,P|348:298|269:265,1,125.999996154785,2|10,0:0|0:0,0:0:0:0:
218,175,54939,2,0,L|208:49,1,125.999996154785,4|10,1:2|0:0,0:0:0:0:
175,3,55605,1,0,0:0:0:0:
119,12,55827,2,0,P|88:39|73:67,1,62.9999980773926,2|0,1:2|1:0,0:0:0:0:
65,113,56272,1,8,1:2:0:0:
153,183,56716,6,0,B|188:151|188:151|286:144,1,125.999996154785,4|10,1:2|0:0,0:0:0:0:
323,146,57383,1,0,0:0:0:0:
369,178,57605,2,0,P|387:222|359:301,1,125.999996154785,2|10,0:0|0:0,0:0:0:0:
274,362,58494,2,0,B|239:330|239:330|141:323,1,125.999996154785,4|10,1:2|0:0,0:0:0:0:
103,320,59161,1,0,0:0:0:0:
50,297,59383,2,0,P|33:247|59:174,1,125.999996154785,2|10,0:0|0:0,0:0:0:0:
160,138,60272,6,0,B|195:152|195:152|297:135,1,125.999996154785,4|10,1:2|0:0,0:0:0:0:
332,112,60939,1,0,0:0:0:0:
382,137,61161,2,0,L|373:283,1,125.999996154785,2|10,0:0|0:0,0:0:0:0:
372,319,61827,1,0,0:0:0:0:
412,359,62050,2,0,B|452:366|452:366|506:355|503:295,1,125.999996154785,4|14,1:2|0:0,0:0:0:0:
496,254,62716,1,12,1:2:0:0:
496,254,62939,1,2,1:2:0:0:
493,140,63383,2,0,L|425:134,1,62.9999980773926,8|8,1:2|0:0,0:0:0:0:
403,84,63827,6,0,B|344:87|344:87|327:95|327:95|252:100,1,125.999996154785,4|10,1:2|0:0,0:0:0:0:
227,73,64494,1,0,0:0:0:0:
173,91,64716,2,0,P|158:154|202:223,1,125.999996154785,2|10,0:0|0:0,0:0:0:0:
288,248,65605,2,0,L|424:233,1,125.999996154785,4|10,1:2|0:0,0:0:0:0:
469,226,66272,1,0,0:0:0:0:
495,276,66494,2,0,P|502:318|491:354,1,62.9999980773926,2|0,0:0|1:0,0:0:0:0:
460,379,66939,1,10,0:0:0:0:
348,361,67383,6,0,B|323:323|323:323|317:214,1,125.999996154785,4|10,1:2|0:0,0:0:0:0:
317,185,68050,1,0,0:0:0:0:
269,154,68272,2,0,B|213:160|213:197|130:198,1,125.999996154785,2|10,0:0|0:0,0:0:0:0:
39,178,69161,2,0,L|29:36,1,125.999996154785,4|10,1:2|0:0,0:0:0:0:
59,3,69827,1,0,1:0:0:0:
114,13,70050,2,0,P|150:35|167:84,1,62.9999980773926,2|0,1:2|1:0,0:0:0:0:
171,107,70494,1,10,0:0:0:0:
244,193,70939,6,0,B|287:164|287:164|390:160,2,125.999996154785,4|10|2,1:2|0:0|0:0,0:0:0:0:
220,304,72272,2,0,L|142:299,1,62.9999980773926,10|0,0:0|0:0,0:0:0:0:
116,259,72716,2,0,L|38:264,1,62.9999980773926,4|0,1:2|1:0,0:0:0:0:
6,293,73161,1,14,0:0:0:0:
6,293,73383,1,12,1:2:0:0:
89,376,73827,1,8,0:0:0:0:
89,376,74050,2,0,L|151:371,1,62.9999980773926,8|8,1:2|0:0,0:0:0:0:
196,341,74494,6,0,L|191:259,2,60,4|0|2,1:2|1:0|1:2,0:0:0:0:
245,361,75161,1,12,0:0:0:0:
336,302,75605,1,0,1:0:0:0:
336,302,75827,2,0,L|405:309,1,60,8|0,0:0|1:0,0:0:0:0:
447,324,76272,2,0,L|450:383,2,60,12|2|0,1:2|1:2|1:0,0:0:0:0:
482,282,76939,1,12,0:0:0:0:
438,188,77383,1,8,1:2:0:0:
438,188,77605,2,0,L|345:182,1,60,8|0,1:2|1:0,0:0:0:0:
332,154,78050,6,0,L|335:94,2,60,12|2|0,1:2|1:2|1:0,0:0:0:0:
285,180,78716,1,12,0:0:0:0:
183,209,79161,1,2,1:2:0:0:
183,209,79383,2,0,L|187:270,2,60,12|2|2,0:0|1:2|1:2,0:0:0:0:
144,171,80050,2,0,L|148:110,1,60,8|8,1:2|1:2,0:0:0:0:
152,61,80494,1,8,0:0:0:0:
152,61,80716,1,8,1:2:0:0:
254,35,81161,2,0,L|263:111,1,60,8|0,1:2|1:0,0:0:0:0:
263,145,81605,6,0,P|203:138|153:157,1,113.999996955872,4|2,1:2|0:0,0:0:0:0:
115,190,82272,1,2,1:2:0:0:
17,157,82716,2,0,L|11:86,2,56.9999984779358,4|8|0,1:2|0:0|1:0,0:0:0:0:
35,205,83383,2,0,L|26:331,1,113.999996955872,2|2,1:2|0:0,0:0:0:0:
22,370,84050,1,2,1:2:0:0:
121,344,84494,6,0,B|147:325|147:325|222:317,2,85.4999977169037,12|12|12,1:2|1:2|1:2,0:0:0:0:
62,206,85827,1,2,1:2:0:0:
62,206,86050,2,0,P|97:200|159:253,1,113.999996955872,0|8,0:0|0:0,0:0:0:0:
223,322,86939,2,0,L|337:308,1,113.999996955872,2|2,1:2|0:0,0:0:0:0:
390,301,87605,1,2,1:2:0:0:
390,301,87827,1,2,0:0:0:0:
422,203,88272,2,0,L|428:127,1,56.9999984779358,8|8,0:0|0:0,0:0:0:0:
406,96,88716,6,0,B|354:98|354:98|336:110|336:110|274:113,1,120,4|10,1:2|0:0,0:0:0:0:
236,116,89383,1,0,0:0:0:0:
200,220,89827,1,0,1:0:0:0:
200,220,90050,2,0,L|137:217,1,60,10|0,0:0|0:0,0:0:0:0:
85,215,90494,1,2,1:2:0:0:
8,146,90939,1,10,0:0:0:0:
8,146,91161,2,0,P|-9:78|28:21,1,120,0|0,0:0|1:0,0:0:0:0:
56,5,91827,1,10,0:0:0:0:
142,69,92272,6,0,P|201:86|261:57,1,120,2|10,1:2|0:0,0:0:0:0:
287,23,92939,1,0,0:0:0:0:
287,23,93161,1,2,0:0:0:0:
391,52,93605,2,0,L|397:122,1,60,10|0,0:0|0:0,0:0:0:0:
438,145,94050,2,0,P|434:213|431:281,1,120,4|10,1:2|0:0,0:0:0:0:
369,353,94939,2,0,P|340:358|304:350,1,60,2|8,1:2|0:0,0:0:0:0:
263,324,95383,2,0,P|234:319|198:327,1,60,8|8,1:2|0:0,0:0:0:0:
152,339,95827,6,0,L|158:201,1,120,4|10,1:2|0:0,0:0:0:0:
157,164,96494,1,0,0:0:0:0:
101,77,96939,1,0,1:0:0:0:
101,77,97161,2,0,P|65:77|34:89,1,60,10|0,0:0|0:0,0:0:0:0:
1,119,97605,1,2,1:2:0:0:
29,227,98050,1,10,0:0:0:0:
29,227,98272,2,0,P|80:243|155:223,1,120,0|0,0:0|1:0,0:0:0:0:
191,204,98939,1,10,0:0:0:0:
258,288,99383,6,0,L|393:296,1,120,2|10,1:2|0:0,0:0:0:0:
435,304,100050,1,0,0:0:0:0:
435,304,100272,1,2,0:0:0:0:
474,203,100716,2,0,L|479:138,1,60,10|0,0:0|0:0,0:0:0:0:
469,90,101161,2,0,P|403:73|339:96,1,120,4|10,1:2|0:0,0:0:0:0:
266,148,102050,2,0,P|263:186|273:221,1,60,2|8,1:2|0:0,0:0:0:0:
307,243,102494,2,0,P|310:281|300:316,1,60,8|8,1:2|0:0,0:0:0:0:
268,337,102939,6,0,P|231:319|167:319,2,85.4999977169037,4|8|2,1:2|0:0|1:2,0:0:0:0:
294,380,103827,2,0,L|409:372,1,113.999996955872,8|2,0:0|1:2,0:0:0:0:
459,368,104494,1,10,0:0:0:0:
512,282,104939,1,2,1:2:0:0:
512,282,105161,2,0,L|504:217,1,56.9999984779358,8|0,0:0|1:0,0:0:0:0:
496,174,105605,2,0,P|445:168|399:217,1,113.999996955872,8|8,1:2|1:2,0:0:0:0:
321,271,106494,6,0,L|328:369,2,85.4999977169037,4|8|2,1:2|0:0|1:2,0:0:0:0:
290,229,107383,2,0,P|239:217|177:246,1,113.999996955872,8|2,0:0|1:2,0:0:0:0:
147,276,108050,1,10,0:0:0:0:
46,256,108494,2,0,L|44:187,1,56.9999984779358,2|8,1:2|0:0,0:0:0:0:
46,151,108939,1,0,1:0:0:0:
46,151,109161,2,0,P|106:134|164:152,1,113.999996955872,8|8,1:2|1:2,0:0:0:0:
225,220,110050,6,0,L|348:209,1,113.999996955872,4|2,1:2|0:0,0:0:0:0:
393,207,110716,1,2,1:2:0:0:
393,207,110939,2,0,P|405:137|377:85,1,113.999996955872,8|2,0:0|1:2,0:0:0:0:
361,55,111605,1,12,0:0:0:0:
266,87,112050,1,2,1:2:0:0:
266,87,112272,2,0,L|189:81,1,56.9999984779358,8|0,0:0|1:0,0:0:0:0:
158,78,112716,1,8,1:2:0:0:
55,88,113161,1,8,1:2:0:0:
70,190,113605,6,0,B|150:178,1,56.9999984779358,12|0,1:2|1:0,0:0:0:0:
179,198,114050,1,0,1:0:0:0:
179,198,114272,2,0,B|175:323,1,113.999996955872,12|0,1:2|1:0,0:0:0:0:
173,366,114939,1,12,1:2:0:0:
173,366,115161,1,12,1:2:0:0:
273,347,115605,2,0,P|310:342|351:353,1,56.9999984779358,8|8,1:2|1:2,0:0:0:0:
380,368,116050,1,8,1:2:0:0:
380,368,116272,2,0,P|417:373|458:362,1,56.9999984779358,12|8,1:2|0:0,0:0:0:0:
482,348,116716,1,8,1:2:0:0:
488,240,117161,6,0,B|436:243|436:243|417:258|417:258|358:264,1,120,4|10,1:2|0:0,0:0:0:0:
319,268,117827,1,0,0:0:0:0:
238,204,118272,1,0,1:2:0:0:
238,204,118494,2,0,P|232:153|239:130,1,60,10|0,0:0|0:0,0:0:0:0:
263,100,118939,2,0,L|395:93,1,120,2|10,1:2|0:0,0:0:0:0:
436,91,119605,1,0,1:0:0:0:
485,192,120050,1,0,1:0:0:0:
485,192,120272,2,0,L|478:259,1,60,10|0,0:0|0:0,0:0:0:0:
471,305,120716,6,0,B|425:292|425:292|341:302,1,120,4|10,1:2|0:0,0:0:0:0:
316,338,121383,1,0,1:0:0:0:
246,262,121827,1,0,1:0:0:0:
246,262,122050,2,0,L|242:181,1,60,10|0,0:0|0:0,0:0:0:0:
240,148,122494,1,4,1:2:0:0:
180,64,122939,1,10,0:0:0:0:
180,64,123161,2,0,P|132:59|75:104,1,120,0|0,1:0|1:0,0:0:0:0:
57,150,123827,1,10,1:2:0:0:
149,206,124272,6,0,B|199:201|199:201|218:210|218:210|282:205,1,120,4|10,1:2|0:0,0:0:0:0:
320,205,124939,1,0,1:0:0:0:
423,250,125383,1,0,1:0:0:0:
423,250,125605,2,0,P|432:294|420:329,1,60,10|0,0:0|0:0,0:0:0:0:
397,352,126050,2,0,B|362:328|362:328|277:321,1,120,4|10,1:2|0:0,0:0:0:0:
230,318,126716,1,0,1:0:0:0:
145,384,127161,1,0,1:0:0:0:
145,384,127383,2,0,L|61:379,1,60,10|0,0:0|1:0,0:0:0:0:
40,349,127827,6,0,B|23:316|23:316|30:219,1,120,4|10,1:2|0:0,0:0:0:0:
34,179,128494,1,0,1:0:0:0:
137,141,128939,1,0,1:0:0:0:
137,141,129161,2,0,L|131:57,1,60,10|0,0:0|1:0,0:0:0:0:
103,35,129605,2,0,P|63:33|38:44,2,60,4|0|0,1:2|1:0|1:2,0:0:0:0:
145,69,130272,5,12,0:0:0:0:
145,69,130494,2,0,L|149:181,2,90,0|0|0,1:0|1:0|1:0,0:0:0:0:
6,39,138494,6,0,P|65:30|113:60,1,113.999996955872,12|0,1:2|1:0,0:0:0:0:
168,140,139383,2,0,L|286:129,1,113.999996955872,0|0,1:0|1:0,0:0:0:0:
326,101,140050,1,0,1:0:0:0:
326,101,140272,2,0,L|444:112,1,113.999996955872,0|0,1:0|1:0,0:0:0:0:
503,191,141161,2,0,P|510:244|478:306,1,113.999996955872,0|0,1:0|1:0,0:0:0:0:
446,328,141827,1,0,1:0:0:0:
446,328,142050,6,0,L|332:317,1,113.999996955872,10|0,1:2|1:0,0:0:0:0:
246,260,142939,2,0,P|243:222|257:184,1,56.9999984779358,2|8,1:2|1:2,0:0:0:0:
277,162,143383,2,0,P|280:124|266:86,1,56.9999984779358,8|0,1:2|1:0,0:0:0:0:
255,58,143827,2,0,B|221:72|221:72|136:65,1,113.999996955872,12|0,1:2|0:0,0:0:0:0:
92,59,144494,1,12,0:0:0:0:
15,127,144939,1,8,0:0:0:0:
15,127,145161,2,0,L|22:203,1,56.9999984779358,8|8,1:2|0:0,0:0:0:0:
58,218,145605,6,0,B|77:204|77:204|159:193,2,85.4999977169037,4|0|2,1:2|1:0|1:2,0:0:0:0:
23,256,146494,1,10,0:0:0:0:
72,346,146939,2,0,L|136:355,1,56.9999984779358,2|8,1:2|0:0,0:0:0:0:
178,344,147383,2,0,B|184:269|184:269|173:240,2,85.4999977169037,4|0|2,1:2|1:0|1:2,0:0:0:0:
221,371,148272,1,10,0:0:0:0:
294,299,148716,2,0,P|341:288|362:290,1,56.9999984779358,2|8,1:2|0:0,0:0:0:0:
399,300,149161,6,0,B|406:367|406:367|395:392,2,85.4999977169037,4|0|2,1:2|1:0|1:2,0:0:0:0:
430,259,150050,1,10,0:0:0:0:
359,184,150494,2,0,L|280:179,1,56.9999984779358,2|8,1:2|0:0,0:0:0:0:
258,153,150939,2,0,B|245:132|245:132|240:56,2,85.4999977169037,4|0|2,1:2|1:0|1:2,0:0:0:0:
224,191,151827,1,10,0:0:0:0:
129,150,152272,1,2,1:2:0:0:
40,201,152716,6,0,B|27:222|27:222|22:298,2,85.4999977169037,4|0|2,1:2|1:0|1:2,0:0:0:0:
21,152,153605,1,10,0:0:0:0:
69,61,154050,2,0,P|100:53|138:60,1,56.9999984779358,2|8,1:2|0:0,0:0:0:0:
166,85,154494,2,0,B|235:96|235:96|261:85,2,85.4999977169037,4|0|2,1:2|1:0|1:2,0:0:0:0:
136,127,155383,1,10,0:0:0:0:
210,197,155827,1,2,1:2:0:0:
144,276,156272,6,0,L|72:273,1,56.9999984779358,4|0,1:2|1:0,0:0:0:0:
50,246,156716,1,0,1:0:0:0:
50,246,156939,2,0,P|43:211|54:172,2,56.9999984779358,12|0|0,1:2|1:0|1:0,0:0:0:0:
12,279,157605,1,8,1:2:0:0:
12,279,157827,1,12,1:2:0:0:
70,363,158272,2,0,L|142:359,1,56.9999984779358,8|8,1:2|1:2,0:0:0:0:
177,354,158716,1,8,1:2:0:0:
356,170,159827,5,4,1:2:0:0:
156,170,161605,1,0,0:0:0:0:
256,192,162939,1,0,0:0:0:0:
231,302,163383,6,0,B|176:312|176:312|161:326|161:326|107:337,1,125.999996154785,4|10,1:2|0:0,0:0:0:0:
56,344,164050,1,0,0:0:0:0:
10,309,164272,2,0,P|0:259|40:188,1,125.999996154785,2|10,0:0|0:0,0:0:0:0:
136,239,165161,2,0,L|262:227,1,125.999996154785,4|10,1:2|0:0,0:0:0:0:
317,221,165827,1,0,0:0:0:0:
352,177,166050,2,0,P|351:138|335:106,1,62.9999980773926,2|0,1:2|1:0,0:0:0:0:
299,77,166494,1,8,1:2:0:0:
236,171,166939,6,0,B|204:194|204:194|108:198,1,125.999996154785,4|10,1:2|0:0,0:0:0:0:
60,201,167605,1,0,0:0:0:0:
10,173,167827,2,0,P|-8:129|20:50,1,125.999996154785,2|10,0:0|0:0,0:0:0:0:
117,10,168716,2,0,B|151:40|151:40|251:42,1,125.999996154785,4|10,1:2|0:0,0:0:0:0:
288,43,169383,1,0,0:0:0:0:
335,74,169605,2,0,P|356:132|331:200,1,125.999996154785,2|10,0:0|0:0,0:0:0:0:
325,304,170494,6,0,B|362:323|362:323|462:314,1,125.999996154785,4|10,1:2|0:0,0:0:0:0:
501,301,171161,1,0,0:0:0:0:
512,247,171383,2,0,L|501:121,1,125.999996154785,2|10,0:0|0:0,0:0:0:0:
478,69,172050,1,0,0:0:0:0:
422,82,172272,2,0,B|390:81|365:63|365:63|325:56|287:85,1,125.999996154785,4|14,1:2|0:0,0:0:0:0:
262,114,172939,1,12,1:2:0:0:
262,114,173161,1,2,1:2:0:0:
148,121,173605,2,0,L|80:115,1,62.9999980773926,8|8,1:2|0:0,0:0:0:0:
29,127,174050,6,0,B|36:188|36:188|31:205|31:205|39:275,1,125.999996154785,4|10,1:2|0:0,0:0:0:0:
43,308,174716,1,0,0:0:0:0:
87,343,174939,2,0,P|150:358|219:314,1,125.999996154785,2|10,0:0|0:0,0:0:0:0:
268,240,175827,2,0,P|331:225|400:269,1,125.999996154785,4|10,1:2|0:0,0:0:0:0:
429,287,176494,1,0,0:0:0:0:
482,268,176716,2,0,P|489:226|478:190,1,62.9999980773926,2|0,0:0|1:0,0:0:0:0:
463,153,177161,1,10,0:0:0:0:
351,174,177605,6,0,B|313:199|313:199|204:205,1,125.999996154785,4|10,1:2|0:0,0:0:0:0:
175,202,178272,1,0,0:0:0:0:
126,231,178494,2,0,P|111:280|141:354,1,125.999996154785,2|10,0:0|0:0,0:0:0:0:
246,373,179383,2,0,L|388:363,1,125.999996154785,4|10,1:2|0:0,0:0:0:0:
428,360,180050,1,0,1:0:0:0:
466,318,180272,2,0,P|470:283|452:237,1,62.9999980773926,2|0,1:2|1:0,0:0:0:0:
425,214,180716,1,10,0:0:0:0:
312,228,181161,6,0,B|269:199|269:199|166:195,2,125.999996154785,4|10|2,1:2|0:0|0:0,0:0:0:0:
371,131,182494,2,0,P|368:102|378:70,1,62.9999980773926,10|0,0:0|0:0,0:0:0:0:
429,46,182939,2,0,P|455:57|478:82,1,62.9999980773926,4|0,1:2|1:0,0:0:0:0:
486,142,183383,1,14,0:0:0:0:
486,142,183605,1,12,1:2:0:0:
399,214,184050,1,8,0:0:0:0:
399,214,184272,2,0,L|337:209,1,62.9999980773926,8|8,1:2|0:0,0:0:0:0:
282,213,184716,6,0,P|273:259|283:317,2,90,4|4|4,1:2|1:2|1:2,0:0:0:0:
339,123,185827,1,8,0:0:0:0:
339,123,186050,2,0,P|348:77|338:19,2,90,4|4|4,1:2|1:2|1:2,0:0:0:0:
232,106,187161,1,4,1:2:0:0:
101,201,187827,6,0,P|55:192|-3:202,2,90,4|4|4,1:2|1:2|1:2,0:0:0:0:
191,258,188939,1,8,0:0:0:0:
191,258,189161,2,0,P|237:267|295:257,2,90,4|0|4,1:2|1:2|1:2,0:0:0:0:
88,282,190272,1,0,1:0:0:0:
88,282,190494,1,4,1:2:0:0:
30,189,190939,6,0,L|36:70,1,120,4|10,1:2|0:0,0:0:0:0:
37,15,191605,1,0,0:0:0:0:
140,61,192050,1,0,1:0:0:0:
140,61,192272,2,0,P|182:65|220:51,1,60,10|0,0:0|0:0,0:0:0:0:
246,35,192716,2,0,P|293:34|357:68,1,120,2|10,1:2|0:0,0:0:0:0:
387,111,193383,1,0,0:0:0:0:
431,209,193827,2,0,L|508:202,2,60,0|10|8,1:0|0:0|0:0,0:0:0:0:
385,237,194494,6,0,L|263:227,1,120,2|10,1:2|0:0,0:0:0:0:
211,222,195161,1,0,0:0:0:0:
115,268,195605,1,0,1:0:0:0:
115,268,195827,2,0,P|106:303|116:339,1,60,10|0,0:0|0:0,0:0:0:0:
140,376,196272,1,8,1:2:0:0:
140,376,196494,2,0,L|210:372,1,60,8|8,1:2|1:2,0:0:0:0:
254,371,196939,1,0,1:2:0:0:
324,289,197383,2,0,B|322:257|322:257|324:251|324:251|321:204,1,60,0|0,1:0|1:0,0:0:0:0:
320,175,197827,5,12,1:2:0:0:
256,192,198050,12,0,205383,0:0:0:0:
