osu file format v14

[General]
AudioFilename: audio.mp3
AudioLeadIn: 0
PreviewTime: 130070
Countdown: 0
SampleSet: Soft
StackLeniency: 0.7
Mode: 0
LetterboxInBreaks: 0
WidescreenStoryboard: 0

[Editor]
DistanceSpacing: 1
BeatDivisor: 12
GridSize: 32
TimelineZoom: 2

[Metadata]
Title:Fuyu no Hanashi
TitleUnicode:冬のはなし
Artist:Given
ArtistUnicode:ギヴン
Creator:Blitzifyyy
Version:I miss you...
Source:ギヴン
Tags:mocaotic baar_vendel fuyunohanashi marutsuke the seasons センチミリメンタル centimilli mental centimillimental anime japanese insert song yaoi bl boys love shounen ai Lerche Sato Satou Mafuyu 佐藤真冬 Yano Shougo 矢野奨吾 pop j-pop rock j-rock
BeatmapID:2476151
BeatmapSetID:1188243

[Difficulty]
HPDrainRate:6
CircleSize:4.3
OverallDifficulty:8
ApproachRate:9.3
SliderMultiplier:2
SliderTickRate:1

[Events]
//Background and Video events
0,0,"bg.jpg",0,0
//Break Periods
2,131472,134385
2,160027,162599
//Storyboard Layer 0 (Background)
//Storyboard Layer 1 (Fail)
//Storyboard Layer 2 (Pass)
//Storyboard Layer 3 (Foreground)
//Storyboard Layer 4 (Overlay)
//Storyboard Sound Samples

[TimingPoints]
-172,444.444444444444,4,2,1,70,1,0
14050,-125,4,2,1,60,0,0
21161,-100,4,2,1,70,0,0
35383,-111.111111111111,4,2,1,65,0,0
48716,-111.111111111111,4,2,1,45,0,0
49605,-90.9090909090909,4,2,1,80,0,1
74494,-111.111111111111,4,2,1,65,0,0
81605,-125,4,2,1,60,0,0
84494,-133.333333333333,4,2,1,60,0,0
84716,-133.333333333333,4,2,1,5,0,0
84827,-111.111111111111,4,2,1,60,0,0
85050,-111.111111111111,4,2,1,5,0,0
85161,-125,4,2,1,60,0,0
88716,-100,4,2,1,70,0,0
102939,-111.111111111111,4,2,1,65,0,0
117161,-90.9090909090909,4,2,1,80,0,1
131383,-285.714285714284,4,2,1,50,0,0
136494,-285.714285714284,4,2,1,5,0,0
136716,-222.222222222221,4,2,1,50,0,0
138494,-111.111111111111,4,2,1,60,0,0
145605,-125,4,2,1,65,0,0
158939,-111.111111111111,4,2,1,45,0,0
159827,-100,4,2,1,50,0,0
163383,-90.9090909090909,4,2,1,80,0,1
184716,-100,4,2,1,70,0,0
197827,-166.666666666667,4,2,1,65,0,0
200716,-166.666666666667,4,2,1,55,0,0
202494,-166.666666666667,4,2,1,45,0,0
204272,-166.666666666667,4,2,1,35,0,0
205272,-166.666666666667,4,2,1,5,0,0
205383,-166.666666666667,4,2,1,30,0,0
205939,-166.666666666667,4,2,1,5,0,0

[Colours]
Combo1 : 201,201,201
Combo2 : 243,188,148
Combo3 : 140,158,242

[HitObjects]
92,279,494,5,0,0:0:0:0:
82,254,605,1,0,0:0:0:0:
72,225,716,6,0,P|120:206|172:230,1,100,4|8,1:2|0:0,0:0:0:0:
310,148,1050,2,0,P|262:167|210:143,1,100,4|8,1:2|0:0,0:0:0:0:
366,62,1383,2,0,P|399:53|430:63,1,50,4|8,1:2|0:0,0:0:0:0:
505,145,1605,1,8,0:0:0:0:
486,191,1716,1,8,0:0:0:0:
496,239,1827,1,8,0:0:0:0:
512,286,1939,1,8,0:0:0:0:
505,335,2050,6,0,B|455:322|455:322|395:337,1,100,4|8,1:2|0:0,0:0:0:0:
256,260,2383,2,0,B|306:273|306:273|366:258,1,100,4|8,1:2|0:0,0:0:0:0:
171,152,2716,2,0,B|203:224|139:224|179:313,1,150,4|0,1:2|0:0,0:0:0:0:
296,384,3161,2,0,P|272:372|246:369,1,50,4|0,1:2|0:0,0:0:0:0:
103,378,3383,1,8,0:0:0:0:
54,384,3494,1,8,0:0:0:0:
12,359,3605,1,8,0:0:0:0:
0,313,3716,1,8,0:0:0:0:
12,266,3827,6,0,L|118:266,1,100,4|8,1:2|0:0,0:0:0:0:
235,165,4161,2,0,L|129:165,1,100,4|8,1:2|0:0,0:0:0:0:
280,263,4494,2,0,L|332:262,1,50,4|8,1:2|0:0,0:0:0:0:
512,335,4716,1,8,0:0:0:0:
465,320,4827,1,8,0:0:0:0:
439,278,4939,1,8,0:0:0:0:
446,230,5050,1,8,0:0:0:0:
483,198,5161,6,0,P|502:153|482:104,1,100,4|8,1:2|0:0,0:0:0:0:
352,106,5494,2,0,P|333:151|353:200,1,100,0|0,1:2|0:0,0:0:0:0:
465,320,5827,2,0,P|445:314|413:319,1,50,4|0,1:2|0:0,0:0:0:0:
282,365,6050,1,8,0:0:0:0:
237,383,6161,1,0,1:0:0:0:
194,360,6272,1,0,1:0:0:0:
184,313,6383,1,0,1:0:0:0:
214,275,6494,1,4,1:2:0:0:
54,171,6716,1,8,0:0:0:0:
67,214,6827,1,8,0:0:0:0:
80,257,6939,5,4,1:2:0:0:
195,152,7161,1,0,0:0:0:0:
255,321,7383,2,0,P|304:343|355:324,1,100,10|0,0:0|0:0,0:0:0:0:
435,259,7716,1,8,0:0:0:0:
425,282,7827,2,0,B|408:230|408:230|417:183,1,100,2|0,0:0|1:0,0:0:0:0:
475,89,8161,1,0,0:0:0:0:
489,65,8272,2,0,B|443:49|443:49|385:62,1,100,10|0,0:0|0:0,0:0:0:0:
234,102,8605,1,0,0:0:0:0:
223,75,8716,6,0,P|255:68|283:75,1,50,2|0,1:2|0:0,0:0:0:0:
125,53,8939,2,0,P|102:28|95:1,1,50,0|0,0:0|1:0,0:0:0:0:
150,156,9161,2,0,P|140:187|119:207,1,50,10|0,0:0|0:0,0:0:0:0:
22,320,9383,6,0,B|71:304|71:304|121:322,1,100,0|2,0:0|0:0,0:0:0:0:
211,364,9716,1,0,0:0:0:0:
229,378,9827,2,0,L|227:325,1,50,0|0,1:0|0:0,0:0:0:0:
151,179,10050,2,0,L|153:232,1,50,10|0,0:0|0:0,0:0:0:0:
249,94,10272,1,8,0:0:0:0:
249,94,10383,1,8,0:0:0:0:
249,94,10494,6,0,P|298:75|347:94,1,100,2|0,1:2|0:0,0:0:0:0:
426,164,10827,1,0,1:0:0:0:
445,178,10939,2,0,P|479:186|512:177,1,50,10|0,0:0|0:0,0:0:0:0:
329,234,11161,1,0,0:0:0:0:
310,220,11272,2,0,P|276:212|243:221,1,50,8|2,0:0|0:0,0:0:0:0:
172,268,11494,1,0,0:0:0:0:
172,292,11605,1,0,1:0:0:0:
81,101,11827,6,0,B|164:83|140:160|236:138,1,150,10|0,0:0|0:0,0:0:0:0:
281,79,12272,2,0,L|278:20,1,50,8|0,1:2|0:0,0:0:0:0:
358,201,12494,2,0,L|355:260,1,50,8|0,1:2|0:0,0:0:0:0:
348,338,12716,1,0,1:0:0:0:
234,254,12939,2,0,P|208:255|180:266,1,50,4|0,1:2|0:0,0:0:0:0:
25,356,13161,1,8,0:0:0:0:
57,333,13272,1,8,0:0:0:0:
76,292,13383,1,8,0:0:0:0:
61,244,13494,1,8,0:0:0:0:
21,199,13605,1,8,0:0:0:0:
29,135,13716,1,8,0:0:0:0:
91,102,13827,1,8,0:0:0:0:
149,147,13939,1,8,0:0:0:0:
137,222,14050,5,4,1:2:0:0:
140,244,14494,1,2,0:0:0:0:
146,271,14939,1,2,0:0:0:0:
149,293,15383,1,2,0:0:0:0:
239,228,15605,1,0,1:0:0:0:
331,361,15827,5,2,1:2:0:0:
334,339,16272,1,2,0:0:0:0:
340,312,16716,1,2,0:0:0:0:
343,290,17161,1,2,0:0:0:0:
433,355,17383,1,0,0:0:0:0:
385,208,17605,6,0,B|304:178|304:235|226:201,1,160,2|2,1:2|0:0,0:0:0:0:
273,107,18272,1,0,0:0:0:0:
406,222,18494,2,0,B|443:239|471:223|471:223|496:180|461:125,1,160,2|2,0:0|0:0,0:0:0:0:
390,42,19161,1,0,1:0:0:0:
251,135,19383,5,2,1:2:0:0:
202,49,19605,2,0,P|240:34|286:42,1,80,2|0,0:0|0:0,0:0:0:0:
144,151,20050,1,0,1:0:0:0:
86,42,20272,2,0,P|48:27|2:35,1,80,10|0,0:0|1:0,0:0:0:0:
144,151,20716,2,0,P|182:166|228:158,1,80,10|8,0:0|0:0,0:0:0:0:
287,118,21050,1,8,0:0:0:0:
287,118,21161,6,0,L|287:18,1,100,4|0,1:2|0:0,0:0:0:0:
379,44,21494,1,0,1:0:0:0:
379,44,21605,2,0,B|409:51|409:51|441:43,1,50,10|0,0:0|0:0,0:0:0:0:
512,142,21827,1,0,0:0:0:0:
512,142,21939,2,0,B|482:135|482:135|450:143,1,50,8|2,0:0|0:0,0:0:0:0:
330,233,22161,1,0,0:0:0:0:
330,233,22272,2,0,P|338:206|332:176,1,50,0|0,1:0|0:0,0:0:0:0:
254,105,22494,2,0,B|184:88|184:143|106:117,1,150,10|0,0:0|0:0,0:0:0:0:
42,68,22939,6,0,B|63:115|63:115|50:163,1,100,2|0,1:2|0:0,0:0:0:0:
2,245,23272,1,0,1:0:0:0:
2,245,23383,2,0,P|-3:282|4:307,1,50,10|0,0:0|0:0,0:0:0:0:
111,380,23605,1,0,0:0:0:0:
111,380,23716,2,0,P|123:340|102:283,1,100,8|0,0:0|0:0,0:0:0:0:
148,200,24050,2,0,L|216:200,1,50,0|0,1:0|0:0,0:0:0:0:
333,295,24272,2,0,L|265:295,1,50,10|0,0:0|0:0,0:0:0:0:
404,167,24494,1,8,0:0:0:0:
404,167,24605,1,8,0:0:0:0:
404,167,24716,6,0,P|412:196|406:225,1,50,2|0,1:2|0:0,0:0:0:0:
293,114,24939,2,0,P|285:85|291:56,1,50,0|0,0:0|1:0,0:0:0:0:
229,238,25161,2,0,L|121:238,1,100,10|0,0:0|0:0,0:0:0:0:
55,182,25494,1,8,0:0:0:0:
55,182,25605,2,0,B|50:155|50:155|54:126,1,50,2|0,0:0|0:0,0:0:0:0:
161,25,25827,2,0,B|166:52|166:52|162:81,1,50,0|0,1:0|0:0,0:0:0:0:
36,209,26050,2,0,B|36:263|36:263|41:270|41:270|41:359,1,150,10|0,0:0|0:0,0:0:0:0:
113,382,26494,6,0,P|139:373|167:378,1,50,4|0,1:2|0:0,0:0:0:0:
306,315,26716,2,0,P|280:324|252:319,1,50,0|0,0:0|1:0,0:0:0:0:
174,252,26939,2,0,L|174:145,1,100,10|0,0:0|0:0,0:0:0:0:
208,71,27272,1,8,0:0:0:0:
208,71,27383,2,0,P|236:61|273:67,1,50,2|0,1:2|0:0,0:0:0:0:
398,130,27605,1,8,0:0:0:0:
425,173,27716,1,8,0:0:0:0:
413,221,27827,1,8,1:2:0:0:
370,247,27939,1,8,0:0:0:0:
322,236,28050,1,8,0:0:0:0:
296,193,28161,1,8,0:0:0:0:
307,144,28272,6,0,P|319:96|292:49,1,100,4|0,1:2|0:0,0:0:0:0:
219,22,28605,1,0,1:0:0:0:
219,22,28716,2,0,L|156:22,1,50,10|0,0:0|0:0,0:0:0:0:
57,120,28939,1,0,0:0:0:0:
57,120,29050,2,0,L|161:120,1,100,8|0,0:0|0:0,0:0:0:0:
253,158,29383,2,0,L|329:158,1,50,0|0,1:0|0:0,0:0:0:0:
450,102,29605,2,0,B|419:175|482:175|438:257,1,150,10|0,0:0|0:0,0:0:0:0:
376,301,30050,6,0,B|347:295|347:295|321:303,1,50,2|0,1:2|0:0,0:0:0:0:
218,368,30272,1,0,0:0:0:0:
218,368,30383,1,0,1:0:0:0:
218,368,30494,2,0,P|205:338|203:313,1,50,10|0,0:0|0:0,0:0:0:0:
281,186,30716,1,0,0:0:0:0:
281,186,30827,2,0,P|235:205|189:188,1,100,8|0,0:0|0:0,0:0:0:0:
138,115,31161,2,0,L|138:59,1,50,0|0,1:0|0:0,0:0:0:0:
45,197,31383,2,0,L|45:253,1,50,10|0,0:0|0:0,0:0:0:0:
116,355,31605,1,8,0:0:0:0:
116,355,31716,1,8,0:0:0:0:
116,355,31827,6,0,L|221:355,1,100,2|0,1:2|0:0,0:0:0:0:
297,306,32161,1,0,1:0:0:0:
297,306,32272,2,0,B|303:280|303:280|297:246,1,50,10|0,0:0|0:0,0:0:0:0:
240,150,32494,1,0,0:0:0:0:
240,150,32605,2,0,B|234:124|234:124|250:50,1,100,8|0,0:0|0:0,0:0:0:0:
315,5,32939,2,0,P|342:-1|375:5,1,50,0|0,1:0|0:0,0:0:0:0:
490,109,33161,2,0,P|462:69|480:6,1,100,10|0,0:0|0:0,0:0:0:0:
398,171,33605,6,0,P|426:211|408:274,1,100,4|0,1:2|0:0,0:0:0:0:
341,316,33939,1,0,1:0:0:0:
341,316,34050,2,0,L|283:316,1,50,10|0,0:0|0:0,0:0:0:0:
160,220,34272,1,0,0:0:0:0:
160,220,34383,2,0,L|263:220,1,100,8|0,0:0|0:0,0:0:0:0:
422,335,34716,1,8,0:0:0:0:
387,299,34827,1,8,0:0:0:0:
381,251,34939,1,8,1:2:0:0:
406,209,35050,1,8,0:0:0:0:
440,173,35161,1,8,0:0:0:0:
446,125,35272,1,8,0:0:0:0:
421,83,35383,5,4,1:2:0:0:
326,177,35605,1,0,0:0:0:0:
326,177,35827,1,2,1:2:0:0:
236,66,36050,2,0,P|189:53|146:69,1,89.9999972534181,0|8,0:0|0:0,0:0:0:0:
68,140,36494,1,0,0:0:0:0:
68,140,36716,1,2,1:2:0:0:
194,221,36939,6,0,L|194:119,1,89.9999972534181,12|2,0:0|1:2,0:0:0:0:
64,220,37383,2,0,L|64:322,1,89.9999972534181,12|0,0:0|1:0,0:0:0:0:
62,384,37716,1,0,1:0:0:0:
62,384,37827,1,0,1:0:0:0:
155,336,38050,2,0,P|180:327|206:329,1,44.999998626709,8|0,0:0|0:0,0:0:0:0:
352,382,38272,1,8,0:0:0:0:
307,372,38383,1,8,0:0:0:0:
287,330,38494,1,0,1:0:0:0:
306,290,38605,1,0,1:0:0:0:
351,280,38716,1,0,1:0:0:0:
386,307,38827,1,0,1:0:0:0:
386,352,38939,5,4,1:2:0:0:
473,290,39161,1,0,0:0:0:0:
473,290,39383,1,2,1:2:0:0:
394,191,39605,2,0,P|384:145|401:98,1,89.9999972534181,0|8,0:0|0:0,0:0:0:0:
465,8,40050,1,0,0:0:0:0:
465,8,40272,1,2,1:2:0:0:
335,44,40494,6,0,P|290:57|247:45,1,89.9999972534181,12|2,0:0|1:2,0:0:0:0:
104,131,40939,2,0,P|149:118|192:130,1,89.9999972534181,12|0,0:0|1:0,0:0:0:0:
339,254,41383,1,0,1:0:0:0:
254,169,41605,1,8,1:2:0:0:
169,254,41827,1,0,1:0:0:0:
254,339,42050,1,8,1:2:0:0:
254,339,42272,1,0,0:0:0:0:
63,246,42494,5,4,1:2:0:0:
145,159,42716,1,0,0:0:0:0:
145,159,42939,1,2,1:2:0:0:
255,243,43161,2,0,L|349:243,1,89.9999972534181,0|8,0:0|0:0,0:0:0:0:
442,181,43605,1,0,0:0:0:0:
442,181,43827,1,2,1:2:0:0:
507,293,44050,6,0,B|517:342|517:342|506:389,1,89.9999972534181,12|2,0:0|1:2,0:0:0:0:
351,384,44494,2,0,B|341:335|341:335|352:288,1,89.9999972534181,12|0,0:0|1:0,0:0:0:0:
398,196,44939,1,2,1:2:0:0:
398,196,45161,2,0,P|350:182|306:196,1,89.9999972534181,8|0,0:0|0:0,0:0:0:0:
176,107,45605,2,0,P|224:121|268:107,1,89.9999972534181,8|0,1:2|1:0,0:0:0:0:
421,66,46050,6,0,B|426:92|426:92|421:126,1,44.999998626709,12|0,1:2|0:0,0:0:0:0:
343,276,46272,1,0,1:0:0:0:
371,240,46383,1,0,1:0:0:0:
413,225,46494,1,0,1:0:0:0:
459,231,46605,1,0,1:0:0:0:
497,255,46716,2,0,P|487:225|489:196,1,44.999998626709,12|0,1:2|0:0,0:0:0:0:
512,74,46939,1,0,1:0:0:0:
512,74,47050,1,0,1:0:0:0:
512,74,47161,1,0,1:0:0:0:
398,153,47383,1,12,1:2:0:0:
341,5,47605,6,0,L|229:6,1,89.9999972534181,12|0,1:2|0:0,0:0:0:0:
115,8,48050,1,8,1:2:0:0:
207,163,48272,1,8,1:2:0:0:
270,0,48494,1,8,1:2:0:0:
67,183,48716,2,0,P|61:168|64:144,15,22.4999993133545,2|2|2|2|2|2|2|2|2|2|2|2|2|2|2|2,0:0|0:0|0:0|0:0|0:0|0:0|0:0|0:0|0:0|0:0|0:0|0:0|0:0|0:0|0:0|0:0,0:0:0:0:
96,215,49605,6,0,P|147:198|202:218,1,110.000003356934,4|0,1:2|0:0,0:0:0:0:
270,338,49939,1,0,1:0:0:0:
288,371,50050,2,0,P|237:388|182:368,1,110.000003356934,10|0,0:0|0:0,0:0:0:0:
375,303,50383,1,8,0:0:0:0:
392,330,50494,2,0,P|395:363|385:399,1,55.0000016784668,2|0,0:0|0:0,0:0:0:0:
284,245,50716,2,0,P|280:211|290:175,1,55.0000016784668,0|0,1:0|0:0,0:0:0:0:
411,74,50939,2,0,B|329:98|335:26|244:66,1,165.000005035401,10|0,0:0|0:0,0:0:0:0:
181,130,51383,6,0,B|195:182|195:182|182:240,1,110.000003356934,4|0,1:2|0:0,0:0:0:0:
21,202,51716,1,0,1:0:0:0:
1,168,51827,2,0,B|-13:116|-13:116|0:58,1,110.000003356934,10|0,0:0|0:0,0:0:0:0:
80,10,52161,1,8,0:0:0:0:
117,0,52272,2,0,P|150:-4|174:0,1,55.0000016784668,2|0,0:0|0:0,0:0:0:0:
256,141,52494,2,0,P|223:145|199:141,1,55.0000016784668,0|0,1:0|0:0,0:0:0:0:
363,16,52716,2,0,B|316:99|392:95|349:189,1,165.000005035401,10|8,0:0|0:0,0:0:0:0:
299,242,53161,6,0,P|346:222|399:244,1,110.000003356934,4|0,1:2|0:0,0:0:0:0:
263,352,53494,1,0,1:0:0:0:
232,375,53605,2,0,P|185:355|132:377,1,110.000003356934,10|0,0:0|0:0,0:0:0:0:
38,332,53939,1,8,0:0:0:0:
13,301,54050,2,0,B|5:273|5:273|11:245,1,55.0000016784668,2|0,0:0|0:0,0:0:0:0:
130,159,54272,2,0,B|138:187|138:187|132:215,1,55.0000016784668,0|0,1:0|0:0,0:0:0:0:
9,51,54494,2,0,B|88:51|88:51|103:59|103:59|177:59,1,165.000005035401,10|0,0:0|0:0,0:0:0:0:
267,7,54939,6,0,B|285:64|285:64|268:116,1,110.000003356934,4|0,1:2|0:0,0:0:0:0:
155,203,55272,1,0,1:0:0:0:
123,224,55383,2,0,B|105:167|105:167|122:115,1,110.000003356934,10|0,0:0|0:0,0:0:0:0:
169,28,55716,1,8,0:0:0:0:
139,2,55827,2,0,P|104:-4|73:2,1,55.0000016784668,2|0,1:2|0:0,0:0:0:0:
236,132,56050,2,0,P|271:138|302:132,1,55.0000016784668,0|0,1:0|0:0,0:0:0:0:
481,55,56272,2,0,B|454:43|423:57|423:57|394:111|433:188,1,165.000005035401,8|8,1:2|0:0,0:0:0:0:
459,245,56716,6,0,L|343:245,1,110.000003356934,4|0,1:2|0:0,0:0:0:0:
241,348,57050,1,0,1:0:0:0:
216,377,57161,2,0,L|326:377,1,110.000003356934,10|0,0:0|0:0,0:0:0:0:
448,336,57494,1,8,0:0:0:0:
470,304,57605,2,0,B|477:273|477:273|470:239,1,55.0000016784668,2|0,0:0|0:0,0:0:0:0:
360,144,57827,2,0,B|353:175|353:175|360:209,1,55.0000016784668,0|0,1:0|0:0,0:0:0:0:
435,76,58050,2,0,P|360:40|280:78,1,165.000005035401,10|0,0:0|0:0,0:0:0:0:
197,153,58494,6,0,B|150:153|150:153|141:157|141:157|78:157,1,110.000003356934,4|0,1:2|0:0,0:0:0:0:
228,48,58827,1,0,1:0:0:0:
259,25,58939,2,0,B|306:25|306:25|315:29|315:29|378:29,1,110.000003356934,10|0,0:0|0:0,0:0:0:0:
468,79,59272,1,8,0:0:0:0:
495,106,59383,2,0,L|495:174,1,55.0000016784668,2|0,0:0|0:0,0:0:0:0:
367,251,59605,2,0,L|367:183,1,55.0000016784668,0|0,1:0|0:0,0:0:0:0:
492,367,59827,2,0,P|432:322|346:350,1,165.000005035401,10|8,0:0|0:0,0:0:0:0:
250,377,60272,6,0,B|195:360|195:360|138:376,1,110.000003356934,4|0,1:2|0:0,0:0:0:0:
10,302,60605,1,0,1:0:0:0:
0,264,60716,2,0,B|55:247|55:247|112:263,1,110.000003356934,10|0,0:0|0:0,0:0:0:0:
200,219,61050,1,8,0:0:0:0:
223,188,61161,2,0,P|231:157|223:124,1,55.0000016784668,2|0,0:0|0:0,0:0:0:0:
89,50,61383,2,0,P|81:81|89:114,1,55.0000016784668,0|0,1:0|0:0,0:0:0:0:
236,225,61605,2,0,B|295:201|287:242|346:230,1,110.000003356934,10|0,0:0|0:0,0:0:0:0:
442,182,61939,1,0,0:0:0:0:
472,158,62050,6,0,L|472:94,1,55.0000016784668,4|0,1:2|0:0,0:0:0:0:
313,13,62272,1,0,1:0:0:0:
287,59,62383,1,0,1:0:0:0:
334,57,62494,2,0,L|392:57,1,55.0000016784668,14|0,0:0|0:0,0:0:0:0:
267,149,62716,2,0,L|209:149,1,55.0000016784668,12|0,1:2|0:0,0:0:0:0:
358,236,62939,2,0,L|416:236,1,55.0000016784668,2|0,1:2|0:0,0:0:0:0:
235,384,63161,1,8,0:0:0:0:
267,341,63272,1,8,0:0:0:0:
263,287,63383,1,8,1:2:0:0:
225,249,63494,1,8,0:0:0:0:
192,206,63605,1,8,0:0:0:0:
196,152,63716,1,8,0:0:0:0:
234,114,63827,6,0,L|352:114,1,110.000003356934,4|0,1:2|0:0,0:0:0:0:
232,8,64161,1,0,1:0:0:0:
193,8,64272,2,0,L|75:8,1,110.000003356934,10|0,0:0|0:0,0:0:0:0:
6,89,64605,1,8,0:0:0:0:
0,127,64716,2,0,L|0:195,1,55.0000016784668,2|0,0:0|0:0,0:0:0:0:
129,274,64939,2,0,L|129:206,1,55.0000016784668,0|0,1:0|0:0,0:0:0:0:
0,364,65161,2,0,B|74:327|62:401|162:379,1,165.000005035401,10|0,0:0|0:0,0:0:0:0:
227,324,65605,6,0,B|213:269|213:269|227:217,1,110.000003356934,4|0,1:2|0:0,0:0:0:0:
354,99,65939,1,0,1:0:0:0:
373,132,66050,2,0,B|387:187|387:187|373:239,1,110.000003356934,10|0,0:0|0:0,0:0:0:0:
280,344,66383,1,8,0:0:0:0:
249,367,66494,2,0,L|187:367,1,55.0000016784668,2|0,0:0|0:0,0:0:0:0:
62,251,66716,2,0,L|124:251,1,55.0000016784668,0|0,1:0|0:0,0:0:0:0:
300,378,66939,2,0,B|335:361|369:378|369:378|378:366|378:366|420:389|468:364,1,165.000005035401,10|8,0:0|0:0,0:0:0:0:
421,287,67383,6,0,P|401:235|421:184,1,110.000003356934,4|0,1:2|0:0,0:0:0:0:
340,81,67716,1,0,1:0:0:0:
306,61,67827,2,0,P|326:113|306:164,1,110.000003356934,10|0,0:0|0:0,0:0:0:0:
228,263,68161,1,8,0:0:0:0:
198,288,68272,2,0,P|166:280|131:290,1,55.0000016784668,2|0,0:0|0:0,0:0:0:0:
5,179,68494,2,0,P|37:187|72:177,1,55.0000016784668,0|0,1:0|0:0,0:0:0:0:
260,124,68716,2,0,B|233:112|202:126|202:126|173:180|212:257,1,165.000005035401,10|0,0:0|0:0,0:0:0:0:
260,294,69161,6,0,B|314:280|314:280|372:298,1,110.000003356934,4|0,1:2|0:0,0:0:0:0:
261,164,69494,1,0,1:0:0:0:
231,138,69605,2,0,B|177:124|177:124|119:142,1,110.000003356934,10|0,0:0|1:0,0:0:0:0:
22,232,69939,1,8,0:0:0:0:
3,198,70050,2,0,P|-3:164|2:135,1,55.0000016784668,2|0,1:2|0:0,0:0:0:0:
106,299,70272,2,0,P|112:333|107:362,1,55.0000016784668,0|0,1:0|0:0,0:0:0:0:
184,180,70494,2,0,B|246:180|246:180|272:186|272:186|339:186,1,110.000003356934,10|8,0:0|0:0,0:0:0:0:
416,173,70827,1,8,0:0:0:0:
439,141,70939,6,0,B|422:101|422:101|428:31,1,110.000003356934,4|0,1:2|0:0,0:0:0:0:
332,206,71272,1,0,1:0:0:0:
352,238,71383,2,0,B|369:278|369:278|363:348,1,110.000003356934,10|0,0:0|0:0,0:0:0:0:
268,375,71716,1,8,0:0:0:0:
234,355,71827,2,0,P|201:349|172:357,1,55.0000016784668,2|0,0:0|0:0,0:0:0:0:
13,298,72050,2,0,P|46:304|75:296,1,55.0000016784668,0|0,1:0|0:0,0:0:0:0:
227,232,72272,2,0,B|200:244|169:230|169:230|140:176|179:99,1,165.000005035401,10|0,0:0|0:0,0:0:0:0:
219,44,72716,6,0,L|279:44,1,55.0000016784668,4|0,1:2|0:0,0:0:0:0:
452,105,72939,1,0,1:0:0:0:
483,149,73050,1,0,1:0:0:0:
428,150,73161,2,0,P|399:143|363:153,1,55.0000016784668,14|0,0:0|0:0,0:0:0:0:
246,263,73383,2,0,P|275:256|311:266,1,55.0000016784668,12|0,1:2|0:0,0:0:0:0:
430,369,73605,2,0,P|401:376|365:366,1,55.0000016784668,2|0,1:2|0:0,0:0:0:0:
230,246,73827,1,8,0:0:0:0:
194,205,73939,1,8,0:0:0:0:
141,194,74050,1,8,1:2:0:0:
92,218,74161,1,8,0:0:0:0:
68,266,74272,1,8,0:0:0:0:
78,319,74383,1,8,0:0:0:0:
118,356,74494,6,0,P|161:367|217:353,2,89.9999972534181,4|0|2,1:2|1:0|1:2,0:0:0:0:
26,281,75161,1,12,0:0:0:0:
87,181,75383,1,2,1:2:0:0:
28,79,75605,1,0,1:0:0:0:
123,11,75827,2,0,L|228:11,1,89.9999972534181,8|0,0:0|1:0,0:0:0:0:
362,0,76272,5,12,1:2:0:0:
404,110,76494,2,0,P|358:117|315:109,1,89.9999972534181,2|0,1:2|1:0,0:0:0:0:
221,39,76939,1,12,0:0:0:0:
118,137,77161,2,0,P|87:141|63:135,1,44.999998626709,2|8,1:2|0:0,0:0:0:0:
243,24,77383,1,8,1:2:0:0:
283,6,77494,1,8,0:0:0:0:
327,6,77605,1,8,1:2:0:0:
367,26,77716,1,0,1:0:0:0:
407,44,77827,1,0,1:0:0:0:
451,44,77939,1,0,1:0:0:0:
491,24,78050,5,12,1:2:0:0:
420,152,78272,1,2,1:2:0:0:
420,152,78494,1,0,1:0:0:0:
241,111,78716,1,12,0:0:0:0:
318,243,78939,1,2,1:2:0:0:
318,243,79161,1,2,1:2:0:0:
186,315,79383,2,0,P|141:328|92:310,1,89.9999972534181,12|2,0:0|1:2,0:0:0:0:
33,225,79827,5,2,1:2:0:0:
33,225,79939,1,0,1:0:0:0:
33,225,80050,2,0,L|33:175,1,44.999998626709,8|8,1:2|0:0,0:0:0:0:
132,35,80272,2,0,L|132:85,1,44.999998626709,8|0,1:2|0:0,0:0:0:0:
29,241,80494,1,8,0:0:0:0:
20,261,80605,1,8,0:0:0:0:
21,283,80716,1,8,1:2:0:0:
61,265,80827,1,8,0:0:0:0:
105,265,80939,1,8,1:2:0:0:
145,285,81050,1,8,0:0:0:0:
193,308,81161,1,8,1:2:0:0:
249,298,81272,1,0,1:0:0:0:
283,243,81383,1,0,1:0:0:0:
247,186,81494,1,0,1:0:0:0:
178,193,81605,5,4,1:2:0:0:
237,81,81827,1,0,0:0:0:0:
237,81,82050,1,2,0:0:0:0:
322,221,82272,2,0,P|363:234|402:222,1,80,2|2,1:2|0:0,0:0:0:0:
262,91,82716,1,4,1:2:0:0:
169,207,82939,1,8,0:0:0:0:
145,238,83050,1,2,0:0:0:0:
140,278,83161,1,0,1:0:0:0:
156,314,83272,1,2,0:0:0:0:
187,338,83383,5,2,1:2:0:0:
265,243,83605,1,2,0:0:0:0:
265,243,83716,1,2,0:0:0:0:
265,243,83827,1,2,0:0:0:0:
358,384,84050,2,0,L|358:301,1,80,2|2,1:2|0:0,0:0:0:0:
311,172,84494,6,0,P|350:181|397:169,1,75.0000028610231,12|0,1:2|0:0,0:0:0:0:
350,75,84827,6,0,P|310:65|257:83,1,89.9999972534181,12|0,1:2|0:0,0:0:0:0:
198,160,85161,6,0,P|158:169|110:157,1,80,12|0,1:2|0:0,0:0:0:0:
55,90,85494,2,0,L|55:36,1,40,8|0,0:0|0:0,0:0:0:0:
0,189,85827,1,2,1:2:0:0:
75,270,86050,1,0,0:0:0:0:
0,384,86272,1,4,1:2:0:0:
144,275,86494,1,8,0:0:0:0:
181,263,86605,1,8,0:0:0:0:
219,276,86716,1,0,1:0:0:0:
255,292,86827,1,0,1:0:0:0:
295,289,86939,5,2,1:2:0:0:
253,153,87161,1,2,0:0:0:0:
253,153,87272,1,2,0:0:0:0:
253,153,87383,1,2,0:0:0:0:
157,276,87605,2,0,L|74:276,1,80,2|2,1:2|0:0,0:0:0:0:
237,369,88050,1,2,1:2:0:0:
325,214,88272,1,8,0:0:0:0:
346,180,88383,1,8,0:0:0:0:
354,141,88494,1,8,0:0:0:0:
348,101,88605,1,8,0:0:0:0:
329,67,88716,6,0,L|219:67,1,100,4|0,1:2|0:0,0:0:0:0:
100,103,89050,1,0,1:0:0:0:
84,70,89161,2,0,P|81:36|93:6,1,50,10|0,0:0|0:0,0:0:0:0:
191,163,89383,1,0,0:0:0:0:
206,195,89494,2,0,P|208:228|196:258,1,50,8|2,0:0|0:0,0:0:0:0:
70,369,89716,1,0,0:0:0:0:
55,337,89827,2,0,P|52:303|64:273,1,50,0|0,1:0|0:0,0:0:0:0:
177,142,90050,2,0,B|226:129|226:129|286:142,1,100,10|0,0:0|0:0,0:0:0:0:
136,266,90494,6,0,B|87:276|87:276|38:263,1,100,2|0,1:2|0:0,0:0:0:0:
0,168,90827,1,0,1:0:0:0:
0,132,90939,2,0,L|0:65,1,50,10|0,0:0|0:0,0:0:0:0:
146,0,91161,1,0,0:0:0:0:
146,35,91272,2,0,L|146:102,1,50,8|2,0:0|0:0,0:0:0:0:
195,215,91494,1,0,0:0:0:0:
222,236,91605,2,0,P|246:240|275:235,1,50,0|0,1:0|0:0,0:0:0:0:
365,92,91827,2,0,P|341:88|312:93,1,50,10|0,0:0|0:0,0:0:0:0:
185,240,92050,1,8,0:0:0:0:
185,240,92161,1,8,0:0:0:0:
185,240,92272,6,0,P|168:291|181:337,1,100,2|0,1:2|0:0,0:0:0:0:
317,271,92605,1,0,1:0:0:0:
336,241,92716,2,0,P|353:190|340:144,1,100,10|0,0:0|0:0,0:0:0:0:
243,56,93050,1,8,0:0:0:0:
215,75,93161,2,0,B|182:79|182:79|155:71,1,50,2|0,0:0|0:0,0:0:0:0:
43,146,93383,2,0,B|76:142|76:142|103:150,1,50,0|0,1:0|0:0,0:0:0:0:
241,266,93605,2,0,B|298:266|298:266|318:273|318:273|410:273,1,150,10|0,0:0|0:0,0:0:0:0:
465,325,94050,6,0,P|484:274|460:223,1,100,4|0,1:2|0:0,0:0:0:0:
373,140,94383,1,0,1:0:0:0:
349,113,94494,2,0,P|330:62|353:11,1,100,10|0,0:0|0:0,0:0:0:0:
200,96,94827,1,8,0:0:0:0:
164,113,94939,2,0,L|99:113,1,50,2|0,1:2|0:0,0:0:0:0:
373,140,95161,1,8,0:0:0:0:
409,172,95272,1,8,0:0:0:0:
416,221,95383,1,8,1:2:0:0:
390,261,95494,1,8,0:0:0:0:
364,303,95605,1,8,0:0:0:0:
372,351,95716,1,8,0:0:0:0:
411,382,95827,6,0,L|514:382,1,100,4|0,1:2|0:0,0:0:0:0:
308,285,96161,1,0,1:0:0:0:
287,312,96272,2,0,P|260:318|234:311,1,50,10|0,0:0|0:0,0:0:0:0:
104,218,96494,1,0,0:0:0:0:
125,191,96605,2,0,P|152:185|178:192,1,50,8|2,0:0|0:0,0:0:0:0:
327,260,96827,1,0,0:0:0:0:
361,279,96939,2,0,P|392:286|435:279,1,50,0|0,1:0|0:0,0:0:0:0:
494,210,97161,2,0,B|449:138|521:137|481:62,1,150,10|0,0:0|0:0,0:0:0:0:
408,11,97605,6,0,L|287:11,1,100,2|0,1:2|0:0,0:0:0:0:
200,69,97939,1,0,1:0:0:0:
190,103,98050,2,0,P|185:138|191:164,1,50,10|0,0:0|0:0,0:0:0:0:
310,283,98272,1,0,0:0:0:0:
320,249,98383,2,0,P|325:214|319:188,1,50,8|2,0:0|0:0,0:0:0:0:
200,69,98605,1,0,0:0:0:0:
171,49,98716,2,0,L|111:49,1,50,0|0,1:0|0:0,0:0:0:0:
281,129,98939,2,0,L|341:129,1,50,10|0,0:0|0:0,0:0:0:0:
474,81,99161,1,8,0:0:0:0:
474,81,99272,1,8,0:0:0:0:
474,81,99383,6,0,B|487:135|487:135|472:191,1,100,2|0,1:2|0:0,0:0:0:0:
392,268,99716,1,0,1:0:0:0:
359,253,99827,2,0,P|333:250|307:255,1,50,10|0,0:0|0:0,0:0:0:0:
163,354,100050,1,0,0:0:0:0:
196,369,100161,2,0,P|222:372|248:367,1,50,8|2,0:0|0:0,0:0:0:0:
392,268,100383,1,0,0:0:0:0:
410,238,100494,2,0,L|410:168,1,50,0|0,1:0|0:0,0:0:0:0:
323,107,100716,2,0,B|265:107|265:107|254:113|254:113|165:113,1,150,10|0,0:0|0:0,0:0:0:0:
64,138,101161,6,0,B|76:193|76:193|63:245,1,100,4|0,1:2|0:0,0:0:0:0:
24,360,101494,1,0,1:0:0:0:
10,383,101605,2,0,B|38:376|38:376|65:384,1,50,10|0,0:0|0:0,0:0:0:0:
199,302,101827,1,0,0:0:0:0:
199,302,101939,1,8,0:0:0:0:
199,302,102050,2,0,B|171:295|171:295|144:303,1,50,2|0,1:2|0:0,0:0:0:0:
297,374,102272,1,8,0:0:0:0:
323,332,102383,1,8,0:0:0:0:
325,283,102494,1,8,1:2:0:0:
301,240,102605,1,8,0:0:0:0:
274,198,102716,1,8,0:0:0:0:
272,149,102827,1,8,0:0:0:0:
296,106,102939,6,0,L|386:106,1,89.9999972534181,4|2,1:2|0:0,0:0:0:0:
289,21,103272,2,0,L|226:21,1,44.999998626709,8|0,0:0|0:0,0:0:0:0:
147,79,103494,1,8,0:0:0:0:
120,90,103605,2,0,L|57:90,1,44.999998626709,2|0,1:2|0:0,0:0:0:0:
233,141,103827,2,0,P|245:185|231:228,1,89.9999972534181,8|0,0:0|1:0,0:0:0:0:
174,308,104161,1,8,0:0:0:0:
181,338,104272,1,2,1:2:0:0:
49,255,104494,6,0,P|33:215|46:167,1,89.9999972534181,10|0,0:0|0:0,0:0:0:0:
118,73,104827,1,8,0:0:0:0:
145,97,104939,2,0,L|218:97,1,44.999998626709,2|0,1:2|0:0,0:0:0:0:
298,0,105161,2,0,L|225:0,1,44.999998626709,8|0,0:0|0:0,0:0:0:0:
368,121,105383,1,0,1:0:0:0:
394,156,105494,1,0,1:0:0:0:
400,200,105605,1,8,1:2:0:0:
382,241,105716,1,0,1:0:0:0:
355,276,105827,1,8,1:2:0:0:
349,320,105939,1,8,0:0:0:0:
367,361,106050,1,8,1:2:0:0:
408,378,106161,1,0,1:0:0:0:
449,361,106272,1,0,1:0:0:0:
468,320,106383,1,0,1:0:0:0:
451,278,106494,6,0,P|402:262|362:277,1,89.9999972534181,4|2,1:2|0:0,0:0:0:0:
274,320,106827,1,8,0:0:0:0:
251,342,106939,2,0,P|215:355|181:344,1,44.999998626709,2|8,0:0|0:0,0:0:0:0:
113,246,107161,2,0,P|149:233|183:244,1,44.999998626709,2|0,1:2|0:0,0:0:0:0:
20,372,107383,2,0,P|41:328|29:268,1,89.9999972534181,8|0,0:0|1:0,0:0:0:0:
11,196,107716,1,8,0:0:0:0:
1,162,107827,2,0,B|-5:137|-5:137|2:105,1,44.999998626709,2|0,1:2|0:0,0:0:0:0:
149,121,108050,2,0,B|155:146|155:146|148:178,1,44.999998626709,10|0,0:0|0:0,0:0:0:0:
22,19,108272,5,0,0:0:0:0:
22,19,108383,1,8,0:0:0:0:
22,19,108494,2,0,L|91:19,1,44.999998626709,2|0,1:2|0:0,0:0:0:0:
168,92,108716,2,0,L|244:92,1,44.999998626709,8|0,0:0|0:0,0:0:0:0:
456,44,108939,1,0,1:0:0:0:
417,33,109050,1,0,1:0:0:0:
375,47,109161,1,8,1:2:0:0:
349,83,109272,1,0,1:0:0:0:
349,128,109383,1,8,1:2:0:0:
375,163,109494,1,8,0:0:0:0:
417,178,109605,1,8,1:2:0:0:
228,58,109827,1,0,1:0:0:0:
228,58,109939,1,0,1:0:0:0:
228,58,110050,6,0,L|133:58,1,89.9999972534181,4|2,1:2|0:0,0:0:0:0:
15,124,110383,1,8,0:0:0:0:
5,156,110494,2,0,L|5:215,1,44.999998626709,2|8,0:0|0:0,0:0:0:0:
128,260,110716,2,0,L|128:201,1,44.999998626709,2|0,1:2|0:0,0:0:0:0:
15,358,110939,2,0,P|58:334|122:359,1,89.9999972534181,8|0,0:0|1:0,0:0:0:0:
193,373,111272,1,8,0:0:0:0:
227,379,111383,2,0,P|266:385|293:380,1,44.999998626709,2|0,1:2|0:0,0:0:0:0:
201,276,111605,6,0,B|150:276|150:276|145:278|145:278|101:278,1,89.9999972534181,12|0,0:0|1:0,0:0:0:0:
39,229,111939,1,8,0:0:0:0:
22,196,112050,1,2,1:2:0:0:
25,155,112161,1,0,0:0:0:0:
41,122,112272,2,0,P|66:115|89:119,1,44.999998626709,8|0,0:0|0:0,0:0:0:0:
209,25,112494,2,0,P|184:32|161:28,1,44.999998626709,0|0,1:0|1:0,0:0:0:0:
290,165,112716,2,0,L|290:100,1,44.999998626709,8|0,1:2|1:0,0:0:0:0:
168,294,112939,1,0,1:0:0:0:
202,266,113050,1,8,0:0:0:0:
246,265,113161,1,8,1:2:0:0:
281,291,113272,1,0,1:0:0:0:
315,318,113383,1,0,1:0:0:0:
359,319,113494,1,0,1:0:0:0:
394,293,113605,6,0,P|400:275|398:240,1,44.999998626709,12|0,1:2|0:0,0:0:0:0:
244,377,113827,1,0,1:0:0:0:
207,351,113939,1,0,1:0:0:0:
163,342,114050,1,0,1:0:0:0:
119,349,114161,1,0,1:0:0:0:
81,373,114272,6,0,P|75:355|77:320,1,44.999998626709,12|0,1:2|0:0,0:0:0:0:
151,213,114494,1,0,1:0:0:0:
195,213,114605,1,0,1:0:0:0:
241,213,114716,2,0,L|299:213,1,44.999998626709,0|0,1:0|1:0,0:0:0:0:
385,87,114939,2,0,L|327:87,1,44.999998626709,12|0,1:2|0:0,0:0:0:0:
477,303,115161,6,0,B|457:311|434:301|434:301|413:261|442:203,1,134.999995880127,12|0,1:2|0:0,0:0:0:0:
485,148,115605,1,8,1:2:0:0:
361,25,115827,1,8,1:2:0:0:
239,148,116050,1,8,1:2:0:0:
361,272,116272,2,0,P|388:275|414:271,1,44.999998626709,12|0,1:2|0:0,0:0:0:0:
285,72,116494,1,8,0:0:0:0:
226,67,116605,1,8,0:0:0:0:
175,95,116716,1,8,1:2:0:0:
158,151,116827,1,8,0:0:0:0:
170,208,116939,1,8,0:0:0:0:
217,241,117050,1,8,0:0:0:0:
271,243,117161,6,0,P|218:227|159:251,1,110.000003356934,4|0,1:2|0:0,0:0:0:0:
311,147,117494,1,0,0:0:0:0:
358,119,117605,2,0,P|411:103|470:127,1,110.000003356934,10|0,0:0|0:0,0:0:0:0:
235,26,117939,1,8,0:0:0:0:
210,76,118050,2,0,P|206:102|213:138,1,55.0000016784668,2|0,0:0|0:0,0:0:0:0:
324,252,118272,2,0,P|328:226|321:190,1,55.0000016784668,0|0,1:2|0:0,0:0:0:0:
181,349,118494,2,0,B|240:360|240:360|299:347,1,110.000003356934,10|0,0:0|0:0,0:0:0:0:
431,304,118827,1,0,0:0:0:0:
442,292,118939,5,2,1:2:0:0:
453,280,119050,1,0,0:0:0:0:
433,229,119161,1,0,0:0:0:0:
441,175,119272,1,0,1:0:0:0:
470,129,119383,1,10,0:0:0:0:
473,75,119494,1,0,0:0:0:0:
454,24,119605,1,0,1:0:0:0:
404,0,119716,1,8,0:0:0:0:
353,22,119827,1,2,0:0:0:0:
343,66,119939,1,0,0:0:0:0:
357,102,120050,1,0,1:0:0:0:
388,113,120161,1,0,0:0:0:0:
414,107,120272,1,10,0:0:0:0:
445,99,120383,1,0,0:0:0:0:
481,112,120494,1,0,0:0:0:0:
501,151,120605,1,0,0:0:0:0:
478,195,120716,6,0,L|364:195,1,110.000003356934,4|0,1:2|0:0,0:0:0:0:
273,263,121050,1,0,1:0:0:0:
228,294,121161,2,0,L|114:294,1,110.000003356934,10|0,0:0|1:0,0:0:0:0:
8,208,121494,1,8,0:0:0:0:
4,170,121605,2,0,P|0:139|5:109,1,55.0000016784668,2|0,0:0|0:0,0:0:0:0:
153,292,121827,1,0,1:0:0:0:
157,254,121939,2,0,P|161:223|156:193,1,55.0000016784668,0|10,0:0|0:0,0:0:0:0:
0,376,122161,1,0,0:0:0:0:
32,352,122272,2,0,P|63:348|93:353,1,55.0000016784668
251,384,122494,6,0,B|237:332|237:332|251:275,1,110.000003356934,4|0,1:2|0:0,0:0:0:0:
300,160,122827,1,0,1:0:0:0:
319,137,122939,2,0,L|383:137,1,55.0000016784668,10|0,0:0|0:0,0:0:0:0:
219,31,123161,1,0,1:0:0:0:
219,31,123272,1,8,0:0:0:0:
219,31,123383,2,0,L|154:31,1,55.0000016784668,2|0,1:2|0:0,0:0:0:0:
30,134,123605,2,0,L|95:134,1,55.0000016784668,0|0,1:0|0:0,0:0:0:0:
293,85,123827,2,0,P|270:130|277:187,1,110.000003356934,10|0,1:2|0:0,0:0:0:0:
406,345,124272,5,4,1:2:0:0:
367,311,124383,1,0,0:0:0:0:
318,302,124494,1,0,0:0:0:0:
274,326,124605,1,0,1:0:0:0:
244,365,124716,1,10,0:0:0:0:
195,374,124827,1,0,0:0:0:0:
147,358,124939,1,0,1:0:0:0:
129,311,125050,1,8,0:0:0:0:
154,268,125161,1,2,0:0:0:0:
202,256,125272,1,0,0:0:0:0:
240,287,125383,1,0,1:0:0:0:
271,325,125494,1,0,0:0:0:0:
313,350,125605,1,10,0:0:0:0:
362,348,125716,1,0,0:0:0:0:
389,306,125827,1,0,0:0:0:0:
389,256,125939,1,0,0:0:0:0:
367,211,126050,6,0,P|358:196|361:154,1,55.0000016784668,4|0,1:2|0:0,0:0:0:0:
448,47,126272,1,0,0:0:0:0:
448,47,126383,1,0,1:0:0:0:
448,47,126494,2,0,P|456:61|453:103,3,55.0000016784668,10|0|0|8,0:0|0:0|1:0|0:0,0:0:0:0:
301,12,126939,2,0,L|368:8,1,55.0000016784668,2|0,0:0|0:0,0:0:0:0:
227,80,127161,2,0,L|160:76,3,55.0000016784668,0|0|8|0,1:0|0:0|0:0|0:0,0:0:0:0:
314,142,127605,1,0,1:0:0:0:
314,142,127716,1,0,0:0:0:0:
314,142,127827,5,4,1:2:0:0:
331,176,127939,1,0,0:0:0:0:
337,213,128050,1,0,0:0:0:0:
322,248,128161,1,0,1:0:0:0:
300,279,128272,1,10,0:0:0:0:
281,312,128383,1,0,0:0:0:0:
287,349,128494,1,0,1:0:0:0:
312,378,128605,1,8,0:0:0:0:
350,375,128716,1,2,0:0:0:0:
379,349,128827,1,0,0:0:0:0:
391,312,128939,1,0,1:0:0:0:
378,275,129050,1,0,0:0:0:0:
344,255,129161,1,10,0:0:0:0:
306,262,129272,1,0,0:0:0:0:
273,282,129383,1,0,1:0:0:0:
235,291,129494,1,0,0:0:0:0:
199,275,129605,6,0,P|170:267|140:272,1,55.0000016784668,4|0,1:2|0:0,0:0:0:0:
48,334,129827,1,0,1:0:0:0:
14,353,129939,2,0,P|27:316|23:281,1,55.0000016784668,0|0,1:0|1:2,0:0:0:0:
0,168,130161,1,0,1:0:0:0:
26,140,130272,2,0,P|53:125|88:126,1,55.0000016784668,12|0,1:2|0:0,0:0:0:0:
235,167,130494,2,0,P|205:158|181:133,3,55.0000016784668,0|0|0|0,1:2|1:0|1:0|1:0,0:0:0:0:
270,48,130939,1,0,1:0:0:0:
318,50,131050,1,0,1:0:0:0:
366,52,131161,1,0,1:0:0:0:
414,54,131272,1,0,1:0:0:0:
134,311,134939,6,0,B|199:277|256:310|256:310|313:343|372:312,1,244.999992523194
244,67,136716,2,0,B|287:49|327:67|327:67|364:137|311:255,1,269.999991760254
97,303,138494,5,12,1:2:0:0:
97,213,138716,1,0,1:0:0:0:
187,213,138939,1,0,1:0:0:0:
187,303,139161,1,0,1:0:0:0:
79,301,139383,5,0,1:0:0:0:
98,195,139605,1,0,1:0:0:0:
204,214,139827,1,0,1:0:0:0:
185,320,140050,1,0,1:0:0:0:
58,296,140272,5,0,1:0:0:0:
103,174,140494,1,0,1:0:0:0:
225,219,140716,1,0,1:0:0:0:
180,341,140939,1,0,1:0:0:0:
35,286,141161,5,0,1:0:0:0:
113,151,141383,1,0,1:0:0:0:
248,229,141605,1,0,1:0:0:0:
170,364,141827,1,0,1:0:0:0:
22,268,142050,5,10,1:2:0:0:
131,138,142272,1,0,1:0:0:0:
261,247,142494,1,0,1:0:0:0:
152,377,142716,1,8,1:2:0:0:
111,379,142827,1,8,0:0:0:0:
69,361,142939,1,2,1:2:0:0:
49,328,143050,1,8,0:0:0:0:
54,290,143161,2,0,P|60:267|51:225,1,44.999998626709,8|0,1:2|0:0,0:0:0:0:
0,103,143383,1,8,1:2:0:0:
16,129,143494,1,0,1:0:0:0:
42,146,143605,1,0,1:0:0:0:
73,152,143716,1,0,1:0:0:0:
103,145,143827,6,0,P|136:131|195:147,1,89.9999972534181,12|0,1:2|0:0,0:0:0:0:
339,262,144161,1,0,0:0:0:0:
312,245,144272,1,0,0:0:0:0:
295,219,144383,1,0,1:0:0:0:
275,188,144494,2,0,L|275:122,1,44.999998626709,12|0,0:0|0:0,0:0:0:0:
369,294,144716,2,0,L|369:360,1,44.999998626709,2|0,1:2|0:0,0:0:0:0:
493,132,144939,1,8,0:0:0:0:
470,170,145050,1,8,0:0:0:0:
428,184,145161,1,8,1:2:0:0:
389,165,145272,1,8,0:0:0:0:
367,128,145383,1,8,0:0:0:0:
325,114,145494,1,8,0:0:0:0:
286,133,145605,6,0,P|296:174|279:219,1,80,4|0,1:2|0:0,0:0:0:0:
206,168,145939,2,0,P|196:127|213:82,1,80,0|0,1:0|0:0,0:0:0:0:
269,30,146272,2,0,L|323:30,1,40,2|0,1:2|0:0,0:0:0:0:
206,91,146494,2,0,L|110:91,1,80,10|0,0:0|0:0,0:0:0:0:
9,7,146939,1,2,1:2:0:0:
25,29,147050,1,8,0:0:0:0:
32,56,147161,1,8,0:0:0:0:
30,84,147272,1,8,1:2:0:0:
18,109,147383,6,0,L|18:194,1,80,4|0,1:2|0:0,0:0:0:0:
103,190,147716,2,0,L|103:105,1,80,0|0,1:0|0:0,0:0:0:0:
153,44,148050,2,0,P|175:39|200:45,1,40,2|0,1:2|0:0,0:0:0:0:
298,134,148272,2,0,P|285:90|310:42,1,80,10|0,0:0|0:0,0:0:0:0:
402,140,148716,1,2,1:2:0:0:
414,164,148827,1,8,0:0:0:0:
418,192,148939,1,8,0:0:0:0:
413,219,149050,1,8,1:2:0:0:
400,243,149161,6,0,B|360:235|360:235|312:244,1,80,4|0,1:2|0:0,0:0:0:0:
372,316,149494,2,0,B|412:324|412:324|460:315,1,80,0|0,1:0|0:0,0:0:0:0:
512,241,149827,2,0,L|512:181,1,40,2|0,1:2|0:0,0:0:0:0:
445,304,150050,2,0,L|445:397,1,80,10|0,0:0|0:0,0:0:0:0:
321,310,150494,1,2,1:2:0:0:
298,293,150605,1,8,0:0:0:0:
271,286,150716,1,8,0:0:0:0:
244,289,150827,1,8,1:2:0:0:
219,302,150939,6,0,P|180:314|130:298,1,80,4|0,1:2|0:0,0:0:0:0:
100,229,151272,2,0,P|139:217|189:233,1,80,0|0,1:0|0:0,0:0:0:0:
257,310,151605,2,0,P|286:316|312:312,1,40,2|0,1:2|0:0,0:0:0:0:
386,259,151827,2,0,L|386:167,1,80,10|0,0:0|0:0,0:0:0:0:
424,16,152272,1,2,1:2:0:0:
402,34,152383,1,8,0:0:0:0:
377,44,152494,1,8,0:0:0:0:
349,46,152605,1,8,1:2:0:0:
322,39,152716,6,0,P|279:28|233:42,1,80,4|0,1:2|0:0,0:0:0:0:
280,114,153050,2,0,P|323:125|369:111,1,80,0|0,1:0|0:0,0:0:0:0:
448,29,153383,2,0,L|448:77,1,40,2|0,1:2|0:0,0:0:0:0:
357,197,153605,2,0,L|357:95,1,80,10|0,0:0|0:0,0:0:0:0:
469,326,154050,1,2,1:2:0:0:
450,305,154161,1,8,0:0:0:0:
425,292,154272,1,8,0:0:0:0:
397,289,154383,1,8,1:2:0:0:
370,295,154494,6,0,L|279:295,1,80,4|0,1:2|0:0,0:0:0:0:
201,374,154827,2,0,L|292:374,1,80,0|0,1:0|0:0,0:0:0:0:
170,297,155161,2,0,L|104:297,1,40,2|0,1:2|0:0,0:0:0:0:
8,378,155383,2,0,L|74:378,1,40,10|0,0:0|0:0,0:0:0:0:
194,278,155605,1,8,0:0:0:0:
218,246,155716,1,8,0:0:0:0:
219,207,155827,1,2,1:2:0:0:
198,174,155939,1,8,0:0:0:0:
173,142,156050,1,8,0:0:0:0:
172,103,156161,1,8,1:2:0:0:
193,70,156272,6,0,P|210:58|241:55,1,40,4|0,1:2|0:0,0:0:0:0:
147,183,156494,1,0,1:0:0:0:
113,204,156605,1,0,1:0:0:0:
74,204,156716,1,0,1:0:0:0:
41,183,156827,1,0,1:0:0:0:
24,147,156939,2,0,L|24:90,1,40,12|0,1:2|0:0,0:0:0:0:
143,0,157161,1,0,1:0:0:0:
164,33,157272,1,0,1:0:0:0:
199,51,157383,1,0,1:0:0:0:
239,49,157494,1,0,1:0:0:0:
272,27,157605,2,0,L|272:-25,1,40,8|0,1:2|0:0,0:0:0:0:
180,116,157827,6,0,B|180:170|180:170|186:185|186:185|186:260,1,120,12|0,1:2|0:0,0:0:0:0:
189,314,158272,1,8,1:2:0:0:
297,180,158494,1,8,1:2:0:0:
339,384,158716,1,8,1:2:0:0:
165,191,158939,2,0,P|151:187|124:190,15,22.4999993133545,2|2|2|2|2|2|2|2|2|2|2|2|2|2|2|2,0:0|0:0|0:0|0:0|0:0|0:0|0:0|0:0|0:0|0:0|0:0|0:0|0:0|0:0|0:0|0:0,0:0:0:0:
192,200,159827,5,4,1:2:0:0:
280,9,163161,5,0,0:0:0:0:
213,142,163383,6,0,P|166:162|113:140,1,110.000003356934,4|0,1:2|0:0,0:0:0:0:
249,32,163716,1,0,1:0:0:0:
280,9,163827,2,0,P|327:29|380:7,1,110.000003356934,10|0,0:0|0:0,0:0:0:0:
474,52,164161,1,8,0:0:0:0:
499,83,164272,2,0,B|507:111|507:111|501:139,1,55.0000016784668,2|0,0:0|0:0,0:0:0:0:
382,225,164494,2,0,B|374:197|374:197|380:169,1,55.0000016784668,0|0,1:0|0:0,0:0:0:0:
503,333,164716,2,0,B|424:333|424:333|409:325|409:325|335:325,1,165.000005035401,10|0,0:0|0:0,0:0:0:0:
245,377,165161,6,0,B|227:320|227:320|244:268,1,110.000003356934,4|0,1:2|0:0,0:0:0:0:
357,181,165494,1,0,1:0:0:0:
389,160,165605,2,0,B|407:217|407:217|390:269,1,110.000003356934,10|0,0:0|0:0,0:0:0:0:
343,356,165939,1,8,0:0:0:0:
373,382,166050,2,0,P|408:388|439:382,1,55.0000016784668,2|0,1:2|0:0,0:0:0:0:
276,252,166272,2,0,P|241:246|210:252,1,55.0000016784668,0|0,1:0|0:0,0:0:0:0:
31,329,166494,2,0,B|58:341|89:327|89:327|118:273|79:196,1,165.000005035401,8|8,1:2|0:0,0:0:0:0:
53,139,166939,6,0,L|169:139,1,110.000003356934,4|0,1:2|0:0,0:0:0:0:
271,36,167272,1,0,1:0:0:0:
296,7,167383,6,0,L|186:7,1,110.000003356934,10|0,0:0|0:0,0:0:0:0:
64,48,167716,1,8,0:0:0:0:
42,80,167827,2,0,B|35:111|35:111|42:145,1,55.0000016784668,2|0,0:0|0:0,0:0:0:0:
152,240,168050,2,0,B|159:209|159:209|152:175,1,55.0000016784668,0|0,1:0|0:0,0:0:0:0:
77,308,168272,2,0,P|152:344|232:306,1,165.000005035401,10|0,0:0|0:0,0:0:0:0:
315,231,168716,6,0,B|362:231|362:231|371:227|371:227|434:227,1,110.000003356934,4|0,1:2|0:0,0:0:0:0:
284,336,169050,1,0,1:0:0:0:
253,359,169161,2,0,B|206:359|206:359|197:355|197:355|134:355,1,110.000003356934,10|0,0:0|0:0,0:0:0:0:
38,268,169494,1,8,0:0:0:0:
21,233,169605,2,0,P|53:224|89:233,1,55.0000016784668,2|0,0:0|0:0,0:0:0:0:
190,287,169827,2,0,P|222:295|258:287,1,55.0000016784668,0|0,1:0|0:0,0:0:0:0:
371,195,170050,2,0,P|311:150|225:178,1,165.000005035401,10|8,0:0|0:0,0:0:0:0:
321,294,170494,6,0,B|376:311|376:311|433:295,1,110.000003356934,4|0,1:2|0:0,0:0:0:0:
502,187,170827,1,0,1:0:0:0:
512,149,170939,2,0,B|457:132|457:132|400:148,1,110.000003356934,10|0,0:0|0:0,0:0:0:0:
306,248,171272,1,8,0:0:0:0:
283,217,171383,2,0,P|275:186|283:153,1,55.0000016784668,2|0,0:0|0:0,0:0:0:0:
422,330,171605,2,0,P|430:299|422:266,1,55.0000016784668,0|0,1:0|0:0,0:0:0:0:
276,153,171827,2,0,B|217:177|225:136|166:148,1,110.000003356934,10|0,0:0|0:0,0:0:0:0:
62,193,172161,1,0,0:0:0:0:
40,226,172272,6,0,P|33:258|40:290,1,55.0000016784668,4|0,1:2|0:0,0:0:0:0:
201,375,172494,1,0,1:0:0:0:
233,330,172605,1,0,1:0:0:0:
179,328,172716,2,0,L|121:328,1,55.0000016784668,14|0,0:0|0:0,0:0:0:0:
245,235,172939,2,0,L|303:235,1,55.0000016784668,12|0,1:2|0:0,0:0:0:0:
154,148,173161,2,0,L|96:148,1,55.0000016784668,2|0,1:2|0:0,0:0:0:0:
277,0,173383,1,8,0:0:0:0:
245,43,173494,1,8,0:0:0:0:
249,97,173605,1,8,1:2:0:0:
287,135,173716,1,8,0:0:0:0:
320,178,173827,1,8,0:0:0:0:
316,232,173939,1,8,0:0:0:0:
278,270,174050,6,0,L|160:270,1,110.000003356934,4|0,1:2|0:0,0:0:0:0:
280,376,174383,1,0,1:0:0:0:
319,376,174494,2,0,L|437:376,1,110.000003356934,10|0,0:0|0:0,0:0:0:0:
506,295,174827,1,8,0:0:0:0:
512,257,174939,2,0,L|512:189,1,55.0000016784668,2|0,0:0|0:0,0:0:0:0:
383,110,175161,2,0,L|383:178,1,55.0000016784668,0|0,1:0|0:0,0:0:0:0:
512,20,175383,2,0,B|438:57|450:-17|350:5,1,165.000005035401,10|0,0:0|0:0,0:0:0:0:
285,60,175827,6,0,B|299:115|299:115|285:167,1,110.000003356934,4|0,1:2|0:0,0:0:0:0:
158,285,176161,1,0,1:0:0:0:
139,252,176272,2,0,B|125:197|125:197|139:145,1,110.000003356934,10|0,0:0|0:0,0:0:0:0:
232,40,176605,1,8,0:0:0:0:
263,17,176716,2,0,L|325:17,1,55.0000016784668,2|0,0:0|0:0,0:0:0:0:
450,133,176939,2,0,L|388:133,1,55.0000016784668,0|0,1:0|0:0,0:0:0:0:
212,6,177161,2,0,B|177:23|143:6|143:6|134:18|134:18|92:-5|44:20,1,165.000005035401,10|8,0:0|0:0,0:0:0:0:
91,97,177605,6,0,P|111:149|91:200,1,110.000003356934,4|0,1:2|0:0,0:0:0:0:
172,303,177939,1,0,1:0:0:0:
206,323,178050,2,0,P|186:271|206:220,1,110.000003356934,10|0,0:0|0:0,0:0:0:0:
284,121,178383,1,8,0:0:0:0:
314,96,178494,2,0,P|346:104|381:94,1,55.0000016784668,2|0,0:0|0:0,0:0:0:0:
507,205,178716,2,0,P|475:197|440:207,1,55.0000016784668,0|0,1:0|0:0,0:0:0:0:
252,260,178939,2,0,B|279:272|310:258|310:258|339:204|300:127,1,165.000005035401,10|0,0:0|0:0,0:0:0:0:
252,90,179383,6,0,B|198:104|198:104|140:86,1,110.000003356934,4|0,1:2|0:0,0:0:0:0:
251,220,179716,1,0,1:0:0:0:
281,246,179827,2,0,B|335:260|335:260|393:242,1,110.000003356934,10|0,0:0|1:0,0:0:0:0:
490,152,180161,1,8,0:0:0:0:
509,186,180272,2,0,P|515:220|510:249,1,55.0000016784668,2|0,1:2|0:0,0:0:0:0:
406,85,180494,2,0,P|400:51|405:22,1,55.0000016784668,0|0,1:0|0:0,0:0:0:0:
328,204,180716,2,0,B|266:204|266:204|240:198|240:198|173:198,1,110.000003356934,10|8,0:0|0:0,0:0:0:0:
96,211,181050,1,8,0:0:0:0:
73,243,181161,6,0,B|90:283|90:283|84:353,1,110.000003356934,4|0,1:2|0:0,0:0:0:0:
180,178,181494,1,0,1:0:0:0:
160,146,181605,2,0,B|143:106|143:106|149:36,1,110.000003356934,10|0,0:0|0:0,0:0:0:0:
244,9,181939,1,8,0:0:0:0:
278,29,182050,2,0,P|311:35|340:27,1,55.0000016784668,2|0,0:0|0:0,0:0:0:0:
499,86,182272,2,0,P|466:80|437:88,1,55.0000016784668,0|0,1:0|0:0,0:0:0:0:
285,152,182494,2,0,B|312:140|343:154|343:154|372:208|333:285,1,165.000005035401,10|0,0:0|0:0,0:0:0:0:
287,347,182939,6,0,L|227:347,1,55.0000016784668,4|0,1:2|0:0,0:0:0:0:
60,279,183161,1,0,1:0:0:0:
29,235,183272,1,0,1:0:0:0:
84,234,183383,2,0,P|113:241|149:231,1,55.0000016784668,14|0,0:0|0:0,0:0:0:0:
266,121,183605,2,0,P|237:128|201:118,1,55.0000016784668,12|0,1:2|0:0,0:0:0:0:
82,15,183827,2,0,P|111:8|147:18,1,55.0000016784668,2|0,1:2|0:0,0:0:0:0:
282,138,184050,1,8,0:0:0:0:
318,179,184161,1,8,0:0:0:0:
371,190,184272,1,8,1:2:0:0:
420,166,184383,1,8,0:0:0:0:
444,118,184494,1,8,0:0:0:0:
434,65,184605,1,8,0:0:0:0:
399,28,184716,6,0,P|351:9|299:33,1,100,4|8,1:2|0:0,0:0:0:0:
202,148,185050,2,0,P|250:167|302:143,1,100,4|8,1:2|0:0,0:0:0:0:
142,37,185383,2,0,P|109:28|78:38,1,50,4|8,1:2|0:0,0:0:0:0:
7,145,185605,1,8,0:0:0:0:
26,191,185716,1,8,0:0:0:0:
16,239,185827,1,8,0:0:0:0:
0,286,185939,1,8,0:0:0:0:
7,335,186050,6,0,B|57:322|57:322|117:337,1,100,4|8,1:2|0:0,0:0:0:0:
256,260,186383,2,0,B|206:273|206:273|146:258,1,100,4|8,1:2|0:0,0:0:0:0:
341,152,186716,2,0,B|309:224|373:224|333:313,1,150,4|0,1:2|0:0,0:0:0:0:
216,384,187161,2,0,P|240:372|266:369,1,50,4|0,1:2|0:0,0:0:0:0:
409,378,187383,1,8,0:0:0:0:
458,384,187494,1,8,0:0:0:0:
500,359,187605,1,8,0:0:0:0:
512,313,187716,1,8,0:0:0:0:
500,266,187827,6,0,L|394:266,1,100,4|8,1:2|0:0,0:0:0:0:
277,165,188161,2,0,L|383:165,1,100,4|8,1:2|0:0,0:0:0:0:
232,263,188494,2,0,L|180:262,1,50,4|8,1:2|0:0,0:0:0:0:
0,335,188716,1,8,0:0:0:0:
47,320,188827,1,8,0:0:0:0:
73,278,188939,1,8,0:0:0:0:
66,230,189050,1,8,0:0:0:0:
29,198,189161,6,0,P|10:153|30:104,1,100,4|8,1:2|0:0,0:0:0:0:
160,106,189494,2,0,P|179:151|159:200,1,100,0|0,1:2|0:0,0:0:0:0:
47,320,189827,2,0,P|67:314|99:319,1,50,4|0,1:2|0:0,0:0:0:0:
230,365,190050,1,8,0:0:0:0:
275,383,190161,1,0,1:0:0:0:
318,360,190272,1,0,1:0:0:0:
328,313,190383,1,0,1:0:0:0:
298,275,190494,1,4,1:2:0:0:
458,171,190716,1,8,0:0:0:0:
445,214,190827,1,8,0:0:0:0:
432,257,190939,5,4,1:2:0:0:
319,203,191161,1,0,0:0:0:0:
257,321,191383,2,0,P|208:343|157:324,1,100,10|0,0:0|0:0,0:0:0:0:
77,259,191716,1,8,0:0:0:0:
87,282,191827,2,0,B|104:230|104:230|95:183,1,100,2|0,0:0|1:0,0:0:0:0:
37,89,192161,1,0,0:0:0:0:
23,65,192272,2,0,B|69:49|69:49|127:62,1,100,10|0,0:0|0:0,0:0:0:0:
278,102,192605,1,0,0:0:0:0:
289,75,192716,6,0,P|257:68|229:75,1,50,2|0,1:2|0:0,0:0:0:0:
387,53,192939,2,0,P|410:28|417:1,1,50,0|0,0:0|1:0,0:0:0:0:
362,156,193161,2,0,P|372:187|393:207,1,50,10|0,0:0|0:0,0:0:0:0:
490,320,193383,6,0,B|441:304|441:304|391:322,1,100,0|2,0:0|0:0,0:0:0:0:
301,364,193716,1,0,0:0:0:0:
283,378,193827,2,0,L|285:325,1,50,0|0,1:0|0:0,0:0:0:0:
361,179,194050,2,0,L|359:232,1,50,10|0,0:0|0:0,0:0:0:0:
263,94,194272,1,8,0:0:0:0:
263,94,194383,1,8,0:0:0:0:
263,94,194494,6,0,P|214:75|165:94,1,100,2|0,1:2|0:0,0:0:0:0:
86,164,194827,1,0,1:0:0:0:
67,178,194939,2,0,P|33:186|0:177,1,50,10|0,0:0|0:0,0:0:0:0:
183,234,195161,1,0,0:0:0:0:
202,220,195272,2,0,P|236:212|269:221,1,50,8|2,0:0|0:0,0:0:0:0:
340,268,195494,1,0,0:0:0:0:
340,292,195605,1,0,1:0:0:0:
431,101,195827,6,0,B|348:83|372:160|276:138,1,150,10|0,0:0|0:0,0:0:0:0:
231,79,196272,2,0,L|234:20,1,50,8|0,1:2|0:0,0:0:0:0:
154,201,196494,2,0,L|157:260,1,50,8|0,1:2|0:0,0:0:0:0:
164,338,196716,1,8,1:2:0:0:
278,254,196939,2,0,P|304:255|332:266,1,50,0|0,1:2|0:0,0:0:0:0:
487,356,197161,5,8,0:0:0:0:
444,329,197272,1,0,1:0:0:0:
421,284,197383,1,0,1:0:0:0:
435,236,197494,1,0,1:0:0:0:
477,209,197605,1,0,1:0:0:0:
303,359,197827,5,12,1:2:0:0:
256,192,197939,12,0,205272,0:0:0:0:
176,320,205383,6,0,B|144:301|107:320|107:320|100:313|100:313|66:333|31:316,1,149.999995422363
