osu file format v14

[General]
AudioFilename: audio.mp3
AudioLeadIn: 0
PreviewTime: 130070
Countdown: 0
SampleSet: Soft
StackLeniency: 0.7
Mode: 0
LetterboxInBreaks: 0
WidescreenStoryboard: 1

[Editor]
DistanceSpacing: 1
BeatDivisor: 4
GridSize: 32
TimelineZoom: 1.9

[Metadata]
Title:Fuyu no Hanashi
TitleUnicode:冬のはなし
Artist:Given
ArtistUnicode:ギヴン
Creator:Blitzifyyy
Version:BaAR's Hard
Source:ギヴン
Tags:mocaotic baar_vendel fuyunohanashi marutsuke the seasons センチミリメンタル centimilli mental centimillimental anime japanese insert song yaoi bl boys love shounen ai Lerche Sato Satou Mafuyu 佐藤真冬 Yano Shougo 矢野奨吾 pop j-pop rock j-rock
BeatmapID:2525304
BeatmapSetID:1188243

[Difficulty]
HPDrainRate:5
CircleSize:4
OverallDifficulty:6
ApproachRate:8
SliderMultiplier:1.6
SliderTickRate:1

[Events]
//Background and Video events
0,0,"bg.jpg",0,0
//Break Periods
2,76027,80855
2,131583,137744
2,160027,162411
//Storyboard Layer 0 (Background)
//Storyboard Layer 1 (Fail)
//Storyboard Layer 2 (Pass)
//Storyboard Layer 3 (Foreground)
//Storyboard Layer 4 (Overlay)
//Storyboard Sound Samples

[TimingPoints]
-172,444.444444444444,4,2,1,70,1,0
494,-100,4,2,1,70,0,0
14050,-166.666666666667,4,2,1,60,0,0
20716,-111.111111111111,4,2,1,60,0,0
21161,-111.111111111111,4,2,1,70,0,0
35383,-111.111111111111,4,2,1,65,0,0
46050,-100,4,2,1,65,0,0
49161,-100,4,2,1,55,0,0
49605,-90.9090909090909,4,2,1,80,0,1
74494,-100,4,2,1,65,0,0
81605,-125,4,2,1,60,0,0
84494,-111.111111111111,4,2,1,60,0,0
84716,-111.111111111111,4,2,1,5,0,0
84827,-111.111111111111,4,2,1,60,0,0
85050,-111.111111111111,4,2,1,5,0,0
85161,-111.111111111111,4,2,1,60,0,0
88716,-111.111111111111,4,2,1,70,0,0
102939,-111.111111111111,4,2,1,65,0,0
113605,-100,4,2,1,65,0,0
117161,-100,4,2,1,80,0,1
131383,-285.714285714284,4,2,1,50,0,0
138494,-111.111111111111,4,2,1,60,0,0
143827,-100,4,2,1,60,0,0
145605,-100,4,2,1,65,0,0
159827,-100,4,2,1,50,0,0
163383,-90.9090909090909,4,2,1,80,0,1
184716,-100,4,2,1,70,0,0
197827,-166.666666666667,4,2,1,65,0,0
200716,-166.666666666667,4,2,1,55,0,0
202494,-166.666666666667,4,2,1,45,0,0
204272,-166.666666666667,4,2,1,35,0,0
205939,-166.666666666667,4,2,1,5,0,0

[Colours]
Combo1 : 201,201,201
Combo2 : 243,188,148
Combo3 : 140,158,242

[HitObjects]
63,127,716,6,0,P|107:122|154:127,1,80,4|8,1:2|0:0,0:0:0:0:
192,109,1050,2,0,P|231:111|271:106,1,80,4|8,1:2|0:0,0:0:0:0:
319,126,1383,1,4,1:2:0:0:
405,68,1605,6,0,L|412:107,3,40,8|8|8|8,0:0|0:0|0:0|0:0,0:0:0:0:
449,144,2050,2,0,B|466:182|466:182|448:231,1,80,4|8,1:2|0:0,0:0:0:0:
408,244,2383,2,0,B|391:282|391:282|409:331,1,80,4|8,1:2|0:0,0:0:0:0:
426,364,2716,2,0,B|351:372|351:372|333:364|333:364|252:369,1,160,4|4,1:2|1:2,0:0:0:0:
209,281,3383,6,0,L|254:276,3,40,8|8|8|8,0:0|0:0|0:0|0:0,0:0:0:0:
291,246,3827,2,0,P|300:198|310:152,1,80,4|8,1:2|0:0,0:0:0:0:
271,128,4161,2,0,P|262:80|252:34,1,80,4|8,1:2|0:0,0:0:0:0:
238,0,4494,1,4,1:2:0:0:
158,67,4716,2,0,P|132:63|108:59,3,40,8|8|8|8,0:0|0:0|0:0|0:0,0:0:0:0:
75,91,5161,6,0,P|62:133|75:166,1,80,4|8,1:2|0:0,0:0:0:0:
119,192,5494,2,0,P|131:234|119:267,1,80,0|0,1:2|0:0,0:0:0:0:
81,302,5827,2,0,P|134:284|212:355,1,160,4|0,1:2|1:0,0:0:0:0:
260,239,6494,1,4,1:2:0:0:
356,306,6716,1,8,0:0:0:0:
356,306,6827,1,8,0:0:0:0:
356,306,6939,6,0,P|361:261|369:225,1,80,4|0,1:2|0:0,0:0:0:0:
427,141,7383,2,0,B|388:122|388:122|336:131,1,80,10|0,0:0|0:0,0:0:0:0:
306,153,7716,2,0,P|283:157|266:159,2,40,8|2|0,0:0|0:0|0:0,0:0:0:0:
283,74,8050,1,0,1:0:0:0:
191,122,8272,2,0,P|179:159|190:197,1,80,10|0,0:0|0:0,0:0:0:0:
257,276,8716,5,2,1:2:0:0:
367,263,8939,1,0,0:0:0:0:
367,263,9050,1,0,1:0:0:0:
367,263,9161,1,10,0:0:0:0:
381,365,9383,2,0,P|322:357|241:350,1,120
187,364,9827,1,0,1:0:0:0:
187,364,9939,1,0,0:0:0:0:
187,364,10050,2,0,P|136:351|101:337,1,80,10|8,0:0|0:0,0:0:0:0:
48,257,10494,6,0,P|109:240|142:253,1,80,2|0,1:2|0:0,0:0:0:0:
208,183,10939,2,0,P|269:200|302:187,1,80,10|0,0:0|0:0,0:0:0:0:
321,161,11272,2,0,L|306:75,1,80,8|0,0:0|0:0,0:0:0:0:
296,31,11605,1,0,1:0:0:0:
169,57,11827,1,10,0:0:0:0:
188,159,12050,1,0,0:0:0:0:
92,130,12272,5,8,1:2:0:0:
92,130,12494,2,0,P|91:181|96:224,1,80,8|0,1:2|1:0,0:0:0:0:
40,312,12939,2,0,P|94:321|122:315,1,80,4|8,1:2|0:0,0:0:0:0:
198,277,13272,1,0,0:0:0:0:
198,277,13383,1,8,0:0:0:0:
198,277,13494,1,8,0:0:0:0:
198,277,13605,2,0,P|244:294|252:300,3,40,8|8|8|8,0:0|0:0|0:0|0:0,0:0:0:0:
272,320,14050,5,4,1:2:0:0:
389,280,14494,1,2,0:0:0:0:
349,162,14939,1,2,0:0:0:0:
232,202,15383,1,2,0:0:0:0:
216,187,15605,1,0,1:0:0:0:
200,172,15827,5,2,1:2:0:0:
240,54,16272,1,2,0:0:0:0:
123,14,16716,1,2,0:0:0:0:
83,132,17161,2,0,P|87:174|86:200,1,47.9999985351563,2|0,0:0|0:0,0:0:0:0:
29,230,17605,6,0,P|87:258|156:214,1,143.999995605469,2|0,1:2|0:0,0:0:0:0:
210,172,18494,2,0,P|301:176|366:182,1,143.999995605469,2|0,0:0|1:0,0:0:0:0:
431,205,19383,1,2,1:2:0:0:
431,205,19605,2,0,P|449:145|447:109,1,95.9999970703126,2|0,0:0|1:0,0:0:0:0:
389,31,20272,5,10,0:0:0:0:
311,95,20494,1,0,1:0:0:0:
216,60,20716,2,0,P|172:59|120:62,1,71.9999978027344,10|8,0:0|0:0,0:0:0:0:
97,65,21050,1,8,0:0:0:0:
97,65,21161,6,0,P|74:131|85:195,1,107.999996704102,4|0,1:2|1:0,0:0:0:0:
111,204,21605,1,10,0:0:0:0:
90,302,21827,1,0,0:0:0:0:
90,302,21939,2,0,P|135:293|203:285,1,107.999996704102,8|0,0:0|1:0,0:0:0:0:
263,210,22494,2,0,P|300:233|334:239,1,71.9999978027344,10|0,0:0|0:0,0:0:0:0:
400,308,22939,6,0,P|425:248|407:184,1,107.999996704102,2|0,1:2|1:0,0:0:0:0:
387,167,23383,2,0,B|375:136|375:136|396:84,1,71.9999978027344,10|0,0:0|0:0,0:0:0:0:
421,61,23716,2,0,L|294:80,1,107.999996704102,8|0,0:0|1:0,0:0:0:0:
221,37,24272,1,10,0:0:0:0:
169,123,24494,1,8,0:0:0:0:
169,123,24605,1,8,0:0:0:0:
169,123,24716,6,0,P|186:195|190:243,1,107.999996704102,2|0,1:2|1:0,0:0:0:0:
164,273,25161,1,10,0:0:0:0:
85,333,25383,1,0,0:0:0:0:
85,333,25494,1,8,0:0:0:0:
85,333,25605,2,0,P|53:294|8:279,1,71.9999978027344,2|0,0:0|1:0,0:0:0:0:
0,190,26050,2,0,P|10:119|15:104,1,71.9999978027344,10|0,0:0|0:0,0:0:0:0:
57,30,26494,6,0,B|103:26|103:26|123:44|123:44|166:41,1,107.999996704102,4|0,1:2|1:0,0:0:0:0:
207,30,26939,1,10,0:0:0:0:
272,106,27161,1,0,0:0:0:0:
272,106,27272,1,8,0:0:0:0:
272,106,27383,2,0,P|309:93|338:45,1,71.9999978027344,2|8,1:2|0:0,0:0:0:0:
417,19,27827,1,8,1:2:0:0:
417,19,27939,1,8,0:0:0:0:
417,19,28050,1,8,0:0:0:0:
417,19,28161,1,8,0:0:0:0:
417,19,28272,6,0,P|423:78|418:153,1,107.999996704102,4|0,1:2|1:0,0:0:0:0:
461,156,28716,2,0,P|451:216|451:255,1,71.9999978027344,10|0,0:0|0:0,0:0:0:0:
479,268,29050,2,0,P|428:279|409:327,1,107.999996704102,8|0,0:0|1:0,0:0:0:0:
320,374,29605,1,10,0:0:0:0:
236,317,29827,1,0,0:0:0:0:
152,374,30050,6,0,P|90:369|40:364,1,107.999996704102,2|0,1:2|1:0,0:0:0:0:
3,335,30494,2,0,B|-14:302|-14:302|9:244,1,71.9999978027344,10|0,0:0|0:0,0:0:0:0:
33,232,30827,2,0,L|12:114,1,107.999996704102,8|0,0:0|1:0,0:0:0:0:
72,42,31383,1,10,0:0:0:0:
157,95,31605,1,8,0:0:0:0:
157,95,31716,1,8,0:0:0:0:
157,95,31827,6,0,P|207:84|256:25,1,107.999996704102,2|0,1:2|1:0,0:0:0:0:
272,1,32272,1,10,0:0:0:0:
340,88,32494,1,0,0:0:0:0:
340,88,32605,1,8,0:0:0:0:
340,88,32716,2,0,P|326:138|326:191,1,71.9999978027344,2|0,0:0|1:0,0:0:0:0:
364,250,33161,1,10,0:0:0:0:
302,329,33383,1,0,0:0:0:0:
387,381,33605,6,0,P|445:375|481:308,1,107.999996704102,4|0,1:2|1:0,0:0:0:0:
475,288,34050,1,10,0:0:0:0:
510,193,34272,1,0,0:0:0:0:
510,193,34383,1,8,0:0:0:0:
510,193,34494,1,2,1:2:0:0:
445,116,34716,2,0,L|449:74,1,35.9999989013672,8|8,0:0|0:0,0:0:0:0:
409,47,34939,2,0,L|405:5,3,35.9999989013672,8|8|8|8,1:2|0:0|0:0|0:0,0:0:0:0:
353,0,35383,6,0,P|282:10|196:8,1,143.999995605469,4|2,1:2|1:2,0:0:0:0:
119,53,36050,1,0,0:0:0:0:
49,126,36272,2,0,P|36:175|30:213,2,71.9999978027344,8|0|2,0:0|0:0|1:2,0:0:0:0:
119,53,36939,1,12,0:0:0:0:
197,116,37161,1,2,1:2:0:0:
131,192,37383,6,0,B|121:232|121:232|145:280,1,71.9999978027344,12|0,0:0|1:0,0:0:0:0:
193,341,37827,1,0,1:0:0:0:
282,292,38050,1,8,0:0:0:0:
370,340,38272,1,8,0:0:0:0:
370,340,38383,1,8,0:0:0:0:
370,340,38494,2,0,L|380:286,3,35.9999989013672,0|0|0|0,1:0|1:0|1:0|1:0,0:0:0:0:
405,262,38939,6,0,P|346:218|364:138,1,143.999995605469,4|2,1:2|1:2,0:0:0:0:
436,101,39605,1,0,0:0:0:0:
356,50,39827,2,0,P|292:73|203:99,1,143.999995605469,8|2,0:0|1:2,0:0:0:0:
118,89,40494,1,12,0:0:0:0:
163,179,40716,5,2,1:2:0:0:
219,94,40939,2,0,L|201:13,2,71.9999978027344,12|0|0,0:0|1:0|1:0,0:0:0:0:
266,182,41605,2,0,P|317:191|377:197,2,107.999996704102,8|0|0,1:2|0:0|0:0,0:0:0:0:
310,48,42494,6,0,P|356:-2|435:31,1,143.999995605469,4|2,1:2|1:2,0:0:0:0:
493,85,43161,1,0,0:0:0:0:
441,169,43383,2,0,L|428:244,2,71.9999978027344,8|0|2,0:0|0:0|1:2,0:0:0:0:
500,290,44050,2,0,L|513:365,2,71.9999978027344,12|2|12,0:0|1:2|0:0,0:0:0:0:
408,332,44716,2,0,L|325:321,1,71.9999978027344,0|2,1:0|1:2,0:0:0:0:
250,269,45161,6,0,P|193:278|172:306,1,71.9999978027344,8|0,0:0|0:0,0:0:0:0:
158,330,45494,1,0,0:0:0:0:
158,330,45605,2,0,P|101:321|80:293,1,71.9999978027344,8|0,1:2|1:0,0:0:0:0:
36,205,46050,6,0,L|53:117,1,80,12|0,1:2|1:0,0:0:0:0:
77,25,46494,1,0,1:0:0:0:
159,88,46716,2,0,L|176:176,1,80,12|0,1:2|1:0,0:0:0:0:
200,268,47161,1,0,1:0:0:0:
200,268,47383,1,12,1:2:0:0:
273,194,47605,6,0,P|329:179|378:209,1,120,12|0,1:2|0:0,0:0:0:0:
409,252,48050,2,0,P|398:301|392:338,1,80,8|8,1:2|1:2,0:0:0:0:
316,260,48494,1,8,1:2:0:0:
437,120,49161,2,0,P|450:83|398:17,1,120,2|2,0:0|0:0,0:0:0:0:
371,7,49605,6,0,P|308:16|265:29,1,88.000002685547,4|0,1:2|0:0,0:0:0:0:
241,54,49939,1,0,1:0:0:0:
241,54,50050,2,0,L|145:38,1,88.000002685547,10|0,0:0|0:0,0:0:0:0:
54,72,50494,1,2,0:0:0:0:
117,156,50716,1,0,1:0:0:0:
117,156,50827,1,0,0:0:0:0:
117,156,50939,1,10,0:0:0:0:
39,227,51161,1,0,0:0:0:0:
109,305,51383,6,0,P|163:295|215:307,1,88.000002685547,4|0,1:2|0:0,0:0:0:0:
241,325,51716,1,0,1:0:0:0:
241,325,51827,2,0,P|284:329|327:319,1,88.000002685547,10|0,0:0|0:0,0:0:0:0:
373,293,52161,1,8,0:0:0:0:
373,293,52272,2,0,P|360:248|358:208,1,88.000002685547,2|0,0:0|1:0,0:0:0:0:
402,111,52716,1,10,0:0:0:0:
499,152,52939,1,8,0:0:0:0:
468,11,53161,6,0,L|369:30,1,88.000002685547,4|0,1:2|0:0,0:0:0:0:
336,52,53494,1,0,1:0:0:0:
336,52,53605,2,0,P|316:93|325:148,1,88.000002685547,10|0,0:0|0:0,0:0:0:0:
394,208,54050,1,2,0:0:0:0:
292,236,54272,1,0,1:0:0:0:
292,236,54383,1,0,0:0:0:0:
292,236,54494,1,10,0:0:0:0:
210,168,54716,1,0,0:0:0:0:
128,235,54939,6,0,P|126:304|132:343,1,88.000002685547,4|0,1:2|0:0,0:0:0:0:
159,371,55272,1,0,1:0:0:0:
159,371,55383,2,0,P|108:365|49:367,1,88.000002685547,10|0,0:0|0:0,0:0:0:0:
18,368,55716,1,8,0:0:0:0:
18,368,55827,1,2,1:2:0:0:
41,264,56050,1,0,1:0:0:0:
0,166,56272,2,0,P|37:140|84:148,1,88.000002685547,8|8,1:2|0:0,0:0:0:0:
210,168,56716,6,0,P|252:171|287:146,1,88.000002685547,4|0,1:2|0:0,0:0:0:0:
318,103,57050,1,0,1:0:0:0:
318,103,57161,2,0,P|304:50|308:11,1,88.000002685547,10|0,0:0|0:0,0:0:0:0:
411,3,57605,1,2,0:0:0:0:
475,98,57827,1,0,1:0:0:0:
475,98,57939,1,0,0:0:0:0:
475,98,58050,1,10,0:0:0:0:
399,171,58272,1,0,0:0:0:0:
471,247,58494,6,0,P|460:299|463:352,1,88.000002685547,4|0,1:2|0:0,0:0:0:0:
485,379,58827,1,0,1:0:0:0:
485,379,58939,2,0,L|370:368,1,88.000002685547,10|0,0:0|0:0,0:0:0:0:
306,317,59383,2,0,L|191:328,1,88.000002685547,2|0,0:0|1:0,0:0:0:0:
168,341,59716,1,0,0:0:0:0:
168,341,59827,1,10,0:0:0:0:
95,263,60050,1,8,0:0:0:0:
175,150,60272,6,0,P|180:107|160:68,1,88.000002685547,4|0,1:2|0:0,0:0:0:0:
110,53,60605,1,0,1:0:0:0:
110,53,60716,2,0,P|48:64|11:66,1,88.000002685547,10|0,0:0|0:0,0:0:0:0:
72,159,61161,1,2,0:0:0:0:
1,237,61383,1,0,1:0:0:0:
1,237,61494,1,0,0:0:0:0:
1,237,61605,1,10,0:0:0:0:
79,307,61827,1,0,0:0:0:0:
152,231,62050,6,0,P|215:227|237:239,1,88.000002685547,4|0,1:2|1:0,0:0:0:0:
265,276,62383,1,0,1:0:0:0:
265,276,62494,2,0,P|256:318|265:361,1,88.000002685547,14|12,0:0|1:2,0:0:0:0:
304,383,62939,1,2,1:2:0:0:
373,327,63161,1,8,0:0:0:0:
373,327,63272,1,8,0:0:0:0:
373,327,63383,2,0,L|439:331,3,44.0000013427735,8|8|8|8,1:2|0:0|0:0|0:0,0:0:0:0:
465,352,63827,6,0,P|485:286|478:254,1,88.000002685547,4|0,1:2|0:0,0:0:0:0:
437,237,64161,1,0,1:0:0:0:
437,237,64272,2,0,L|342:224,1,88.000002685547,10|0,0:0|0:0,0:0:0:0:
265,162,64716,1,2,0:0:0:0:
300,62,64939,1,0,1:0:0:0:
300,62,65050,1,0,0:0:0:0:
300,62,65161,1,10,0:0:0:0:
405,57,65383,1,0,0:0:0:0:
369,156,65605,6,0,L|383:256,1,88.000002685547,4|0,1:2|0:0,0:0:0:0:
355,289,65939,1,0,1:0:0:0:
355,289,66050,2,0,P|301:276|259:283,1,88.000002685547,10|0,0:0|0:0,0:0:0:0:
227,310,66383,1,8,0:0:0:0:
227,310,66494,2,0,P|173:323|131:316,1,88.000002685547,2|0,0:0|1:0,0:0:0:0:
66,244,66939,1,10,0:0:0:0:
122,154,67161,1,8,0:0:0:0:
47,40,67383,6,0,P|109:53|151:52,1,88.000002685547,4|0,1:2|0:0,0:0:0:0:
181,30,67716,1,0,1:0:0:0:
181,30,67827,2,0,P|232:28|266:59,1,88.000002685547,10|0,0:0|0:0,0:0:0:0:
300,147,68272,2,0,L|399:132,1,88.000002685547,2|0,0:0|1:0,0:0:0:0:
442,127,68605,1,0,0:0:0:0:
442,127,68716,1,10,0:0:0:0:
502,213,68939,1,0,0:0:0:0:
429,290,69161,6,0,P|372:282|345:256,1,88.000002685547,4|0,1:2|0:0,0:0:0:0:
308,231,69494,1,0,1:0:0:0:
308,231,69605,2,0,P|264:232|229:257,1,88.000002685547,10|0,0:0|1:0,0:0:0:0:
213,311,69939,1,8,0:0:0:0:
213,311,70050,2,0,L|114:292,1,88.000002685547,2|0,1:2|1:0,0:0:0:0:
55,216,70494,2,0,L|154:197,1,88.000002685547,10|8,0:0|0:0,0:0:0:0:
204,94,70939,6,0,B|274:86|274:86|311:121|311:121|380:113,2,176.000005371094,4|10|2,1:2|0:0|0:0,0:0:0:0:
98,103,72050,1,0,1:0:0:0:
141,199,72272,2,0,P|149:253|143:308,1,88.000002685547,10|0,0:0|0:0,0:0:0:0:
134,340,72605,1,0,0:0:0:0:
134,340,72716,6,0,L|195:354,3,44.0000013427735,4|0|0|0,1:2|0:0|1:0|1:0,0:0:0:0:
222,376,73161,2,0,L|283:362,3,44.0000013427735,14|0|12|0,0:0|0:0|1:2|0:0,0:0:0:0:
309,338,73605,2,0,L|370:352,3,44.0000013427735,2|0|8|8,1:2|0:0|0:0|0:0,0:0:0:0:
402,330,74050,1,8,1:2:0:0:
402,330,74161,1,8,0:0:0:0:
402,330,74272,1,8,0:0:0:0:
402,330,74383,1,8,0:0:0:0:
402,330,74494,5,4,1:2:0:0:
256,192,74605,12,8,75827,0:0:0:0:
29,336,81605,6,0,P|25:295|19:260,1,64,4|0,1:2|0:0,0:0:0:0:
67,195,82050,1,2,0:0:0:0:
152,221,82272,1,2,1:2:0:0:
152,221,82716,2,0,P|197:213|226:188,2,64,4|8|0,1:2|0:0|1:0,0:0:0:0:
127,134,83383,6,0,P|136:89|144:58,1,64,2|2,1:2|0:0,0:0:0:0:
211,17,83827,1,2,0:0:0:0:
286,65,84050,1,2,1:2:0:0:
286,65,84494,2,0,P|330:58|379:51,1,71.9999978027344,12|0,1:2|0:0,0:0:0:0:
398,24,84827,2,0,P|442:31|491:38,1,71.9999978027344,12|0,1:2|0:0,0:0:0:0:
510,63,85161,5,12,1:2:0:0:
457,142,85383,1,0,0:0:0:0:
457,142,85494,1,8,0:0:0:0:
457,142,85605,2,0,L|474:226,1,71.9999978027344,0|2,0:0|1:2,0:0:0:0:
480,306,86050,1,0,0:0:0:0:
398,352,86272,2,0,P|364:341|306:335,1,71.9999978027344,4|8,1:2|0:0,0:0:0:0:
282,346,86605,1,8,0:0:0:0:
282,346,86716,1,0,1:0:0:0:
224,271,86939,6,0,P|261:213|330:216,1,143.999995605469,2|2,1:2|0:0,0:0:0:0:
407,269,87605,1,2,1:2:0:0:
428,177,87827,2,0,P|412:139|407:100,1,71.9999978027344,2|2,0:0|1:2,0:0:0:0:
339,43,88272,1,8,0:0:0:0:
339,43,88383,1,8,0:0:0:0:
339,43,88494,1,8,0:0:0:0:
339,43,88605,1,8,0:0:0:0:
339,43,88716,6,0,P|286:54|255:60,1,71.9999978027344,4|0,1:2|0:0,0:0:0:0:
172,24,89161,2,0,P|119:13|88:7,1,71.9999978027344,10|0,0:0|0:0,0:0:0:0:
57,33,89494,2,0,P|47:84|66:114,1,71.9999978027344,8|0,0:0|0:0,0:0:0:0:
100,121,89827,1,0,1:0:0:0:
190,165,90050,2,0,L|170:259,1,71.9999978027344,10|0,0:0|0:0,0:0:0:0:
89,285,90494,5,2,1:2:0:0:
89,285,90605,2,0,L|109:379,1,71.9999978027344,0|0,0:0|1:0,0:0:0:0:
146,375,90939,2,0,P|189:384|225:370,1,71.9999978027344,10|0,0:0|0:0,0:0:0:0:
254,350,91272,2,0,P|300:347|368:380,1,107.999996704102,8|0,0:0|1:0,0:0:0:0:
452,371,91827,1,10,0:0:0:0:
512,291,92050,1,8,0:0:0:0:
512,291,92161,1,8,0:0:0:0:
512,291,92272,6,0,P|490:242|492:177,1,107.999996704102,2|0,1:2|1:0,0:0:0:0:
506,141,92716,1,10,0:0:0:0:
448,57,92939,1,0,0:0:0:0:
448,57,93050,1,8,0:0:0:0:
448,57,93161,1,2,0:0:0:0:
353,92,93383,1,0,1:0:0:0:
275,27,93605,2,0,P|230:29|197:68,1,71.9999978027344,10|0,0:0|0:0,0:0:0:0:
159,132,94050,6,0,P|218:132|288:131,1,107.999996704102,4|0,1:2|1:0,0:0:0:0:
309,158,94494,1,10,0:0:0:0:
368,251,94716,1,0,0:0:0:0:
368,251,94827,1,8,0:0:0:0:
368,251,94939,2,0,P|351:299|352:341,1,71.9999978027344,2|8,1:2|0:0,0:0:0:0:
265,375,95383,2,0,L|217:366,3,35.9999989013672,8|8|8|8,1:2|0:0|0:0|0:0,0:0:0:0:
194,331,95827,6,0,P|110:339|63:357,1,107.999996704102,4|0,1:2|1:0,0:0:0:0:
42,368,96272,2,0,P|4:333|-6:297,1,71.9999978027344,10|0,0:0|0:0,0:0:0:0:
1,264,96605,2,0,L|25:149,1,107.999996704102,8|0,0:0|1:0,0:0:0:0:
91,84,97161,1,10,0:0:0:0:
168,148,97383,1,0,0:0:0:0:
260,109,97605,6,0,P|314:98|374:95,1,107.999996704102,2|0,1:2|1:0,0:0:0:0:
401,131,98050,2,0,P|436:119|457:87,1,71.9999978027344,10|0,0:0|0:0,0:0:0:0:
501,70,98383,2,0,P|483:142|482:182,1,107.999996704102,8|0,0:0|1:0,0:0:0:0:
506,273,98939,1,10,0:0:0:0:
506,273,99050,1,0,0:0:0:0:
506,273,99161,1,8,0:0:0:0:
506,273,99272,1,8,0:0:0:0:
506,273,99383,6,0,P|449:275|391:264,1,107.999996704102,2|0,1:2|1:0,0:0:0:0:
354,242,99827,1,10,0:0:0:0:
282,313,100050,1,0,0:0:0:0:
282,313,100161,1,8,0:0:0:0:
282,313,100272,2,0,L|298:389,2,71.9999978027344,2|0|10,0:0|1:0|0:0,0:0:0:0:
212,239,100939,1,0,0:0:0:0:
288,172,101161,6,0,P|290:98|276:52,1,107.999996704102,4|0,1:2|1:0,0:0:0:0:
250,26,101605,1,10,0:0:0:0:
170,87,101827,1,0,0:0:0:0:
170,87,101939,1,8,0:0:0:0:
170,87,102050,1,2,1:2:0:0:
76,49,102272,2,0,P|65:94|63:109,1,35.9999989013672,8|8,0:0|0:0,0:0:0:0:
33,121,102494,2,0,P|44:166|46:181,3,35.9999989013672,8|8|8|8,1:2|0:0|0:0|0:0,0:0:0:0:
78,191,102939,6,0,P|67:247|64:305,2,107.999996704102,4|8|2,1:2|0:0|1:2,0:0:0:0:
151,259,103827,2,0,P|215:255|246:184,1,143.999995605469,8|2,0:0|1:2,0:0:0:0:
330,245,104494,6,0,P|382:233|434:227,1,71.9999978027344,10|0,0:0|0:0,0:0:0:0:
443,138,104939,2,0,P|407:131|372:123,1,71.9999978027344,2|8,1:2|0:0,0:0:0:0:
298,54,105383,1,0,1:0:0:0:
298,54,105494,1,0,1:0:0:0:
298,54,105605,2,0,P|257:69|245:79,3,35.9999989013672,8|0|8|8,1:2|1:0|1:2|0:0,0:0:0:0:
221,92,106050,2,0,P|180:77|168:67,3,35.9999989013672,8|0|0|0,1:2|1:0|1:0|1:0,0:0:0:0:
144,54,106494,6,0,P|81:49|45:127,1,143.999995605469,4|2,1:2|0:0,0:0:0:0:
84,203,107161,1,2,1:2:0:0:
176,243,107383,2,0,B|264:265|230:183|331:202,1,143.999995605469,8|2,0:0|1:2,0:0:0:0:
392,249,108050,2,0,P|400:185|404:170,1,71.9999978027344,10|0,0:0|0:0,0:0:0:0:
443,85,108494,2,0,P|435:21|431:6,2,71.9999978027344,2|8|0,1:2|0:0|1:0,0:0:0:0:
342,100,109161,2,0,L|265:86,1,71.9999978027344,8|8,1:2|1:2,0:0:0:0:
239,126,109494,1,8,0:0:0:0:
239,126,109605,2,0,L|253:203,1,71.9999978027344,8|0,1:2|1:0,0:0:0:0:
325,295,110050,6,0,P|375:278|403:253,2,71.9999978027344,4|2|2,1:2|0:0|0:0,0:0:0:0:
253,366,110716,1,2,1:2:0:0:
159,327,110939,2,0,P|106:324|2:331,1,143.999995605469,8|2,0:0|1:2,0:0:0:0:
76,225,111605,6,0,P|85:179|75:148,1,71.9999978027344,12|0,0:0|1:0,0:0:0:0:
4,87,112050,2,0,P|-5:133|5:164,1,71.9999978027344,2|8,1:2|0:0,0:0:0:0:
56,240,112494,1,0,1:0:0:0:
156,234,112716,2,0,P|221:226|240:228,1,71.9999978027344,8|0,1:2|1:0,0:0:0:0:
297,154,113161,2,0,L|291:104,3,35.9999989013672,8|0|0|0,1:2|1:0|1:0|1:0,0:0:0:0:
287,66,113605,6,0,B|328:56|328:56|392:72,1,80,12|0,1:2|1:0,0:0:0:0:
462,124,114050,1,0,1:0:0:0:
462,124,114161,1,0,1:0:0:0:
462,124,114272,2,0,P|452:183|447:239,1,80,12|0,1:2|1:0,0:0:0:0:
421,302,114716,1,0,1:0:0:0:
421,302,114939,1,12,1:2:0:0:
307,246,115161,6,0,P|231:229|167:227,1,120,12|0,1:2|0:0,0:0:0:0:
143,251,115605,1,8,1:2:0:0:
72,172,115827,1,8,1:2:0:0:
125,80,116050,1,8,1:2:0:0:
228,102,116272,2,0,L|288:91,3,40,12|0|8|8,1:2|0:0|0:0|0:0,0:0:0:0:
306,60,116716,2,0,L|366:49,3,40,8|8|8|8,1:2|0:0|0:0|0:0,0:0:0:0:
392,30,117161,6,0,B|422:83|422:83|399:199,1,160,4|10,1:2|0:0,0:0:0:0:
446,271,117827,1,0,0:0:0:0:
446,271,117939,2,0,B|397:285|397:285|313:254,1,120,8|0,0:0|1:2,0:0:0:0:
247,215,118494,1,10,0:0:0:0:
162,249,118716,1,0,0:0:0:0:
162,249,118827,1,0,0:0:0:0:
162,249,118939,6,0,P|128:268|115:276,3,40,2|0|0|0,1:2|0:0|0:0|1:0,0:0:0:0:
79,262,119383,2,0,P|45:243|32:235,3,40,10|0|0|8,0:0|0:0|1:0|0:0,0:0:0:0:
21,200,119827,2,0,L|15:117,1,80,2|0,0:0|1:0,0:0:0:0:
36,76,120161,1,0,0:0:0:0:
36,76,120272,1,10,0:0:0:0:
127,103,120494,1,0,0:0:0:0:
210,18,120716,5,4,1:2:0:0:
300,50,120939,2,0,P|350:45|390:33,2,80,0|10|0,0:0|0:0|1:0,0:0:0:0:
226,111,121605,2,0,L|216:198,1,80,2|0,0:0|1:0,0:0:0:0:
181,223,121939,2,0,L|191:310,1,80
222,337,122272,1,0,0:0:0:0:
314,360,122494,6,0,P|403:320|391:252,1,160,4|10,1:2|0:0,0:0:0:0:
315,238,123161,1,0,1:0:0:0:
315,238,123272,2,0,P|323:174|349:111,1,120,8|0,0:0|1:0,0:0:0:0:
431,86,123827,2,0,P|387:37|349:35,1,80,10|0,1:2|0:0,0:0:0:0:
256,33,124272,6,0,P|219:54|202:71,3,40,4|0|0|0,1:2|0:0|0:0|1:0,0:0:0:0:
173,50,124716,2,0,P|158:89|156:113,3,40,10|0|0|8,0:0|0:0|1:0|0:0,0:0:0:0:
121,116,125161,2,0,P|135:156|149:175,3,40,2|0|0|0,0:0|0:0|1:0|0:0,0:0:0:0:
152,197,125605,2,0,P|207:205|237:195,1,80,10|0,0:0|0:0,0:0:0:0:
320,160,126050,6,0,L|373:170,3,40,4|0|0|0,1:2|0:0|0:0|1:0,0:0:0:0:
399,193,126494,2,0,L|452:183,3,40,10|0|0|8,0:0|0:0|1:0|0:0,0:0:0:0:
479,211,126939,2,0,L|462:302,1,80,2|0,0:0|1:0,0:0:0:0:
406,367,127383,1,10,0:0:0:0:
406,367,127494,1,0,0:0:0:0:
406,367,127605,1,0,1:0:0:0:
319,325,127827,6,0,P|272:335|248:336,3,40,4|0|0|0,1:2|0:0|0:0|1:0,0:0:0:0:
233,346,128272,2,0,P|186:336|162:335,3,40,10|0|0|8,0:0|0:0|1:0|0:0,0:0:0:0:
147,324,128716,2,0,P|100:334|76:335,3,40,2|0|0|0,0:0|0:0|1:0|0:0,0:0:0:0:
61,345,129161,2,0,P|14:335|-10:334,3,40,10|0|0|0,0:0|0:0|1:0|0:0,0:0:0:0:
0,286,129605,6,0,P|-5:241|10:197,1,80,4|0,1:2|1:0,0:0:0:0:
73,130,130050,1,0,1:2:0:0:
159,187,130272,2,0,L|238:176,1,80,12|0,1:2|0:0,0:0:0:0:
293,172,130605,1,0,1:0:0:0:
293,172,130716,1,0,1:0:0:0:
253,75,130939,2,0,L|200:68,4,40,0|0|0|0|0,1:0|1:0|1:0|1:0|1:0,0:0:0:0:
75,90,138494,6,0,P|54:158|65:228,1,143.999995605469,12|0,1:2|1:0,0:0:0:0:
137,289,139161,1,0,1:0:0:0:
217,242,139383,2,0,P|270:246|327:263,2,107.999996704102,0|0|0,1:0|0:0|1:0,0:0:0:0:
189,157,140272,5,0,1:0:0:0:
189,157,140494,1,0,1:0:0:0:
281,132,140716,1,0,1:0:0:0:
281,132,140939,1,0,1:0:0:0:
360,182,141161,1,0,1:0:0:0:
360,182,141383,2,0,P|418:169|442:148,1,71.9999978027344,0|0,1:0|1:0,0:0:0:0:
489,92,141827,1,0,1:0:0:0:
409,5,142050,6,0,P|401:58|401:94,1,71.9999978027344,10|0,1:2|1:0,0:0:0:0:
427,162,142494,1,0,1:0:0:0:
512,221,142716,1,8,1:2:0:0:
512,221,142827,1,8,0:0:0:0:
512,221,142939,1,2,1:2:0:0:
512,221,143050,1,8,0:0:0:0:
512,221,143161,1,8,1:2:0:0:
443,284,143383,2,0,P|396:284|381:285,3,35.9999989013672,8|0|0|0,1:2|1:0|1:0|1:0,0:0:0:0:
358,264,143827,6,0,P|317:293|254:309,1,80,12|0,1:2|0:0,0:0:0:0:
249,337,144161,2,0,P|197:331|146:334,1,80,0|0,0:0|1:0,0:0:0:0:
119,344,144494,1,12,0:0:0:0:
60,258,144716,1,2,1:2:0:0:
128,179,144939,1,8,0:0:0:0:
128,179,145050,1,8,0:0:0:0:
128,179,145161,2,0,L|141:129,3,40,8|8|8|8,1:2|0:0|0:0|0:0,0:0:0:0:
151,90,145605,6,0,P|214:89|268:53,2,120,4|0|2,1:2|1:0|1:2,0:0:0:0:
71,21,146494,2,0,P|53:77|47:144,1,120,10|0,0:0|0:0,0:0:0:0:
73,182,146939,1,2,1:2:0:0:
144,262,147161,1,8,0:0:0:0:
144,262,147272,1,8,1:2:0:0:
144,262,147383,6,0,P|90:287|32:281,2,120,4|0|2,1:2|1:0|1:2,0:0:0:0:
235,180,148272,2,0,P|300:172|370:164,1,120,10|8,0:0|0:0,0:0:0:0:
434,167,148716,1,2,1:2:0:0:
434,167,148827,1,8,0:0:0:0:
434,167,148939,2,0,P|425:120|421:101,1,40,8|8,0:0|1:2,0:0:0:0:
450,59,149161,6,0,P|394:39|337:55,2,120,4|0|2,1:2|1:0|1:2,0:0:0:0:
391,145,150050,2,0,P|385:198|389:233,1,80,10|0,0:0|0:0,0:0:0:0:
425,259,150383,2,0,P|431:312|427:347,1,80,0|8,0:0|0:0,0:0:0:0:
384,365,150716,1,8,0:0:0:0:
282,338,150939,6,0,P|211:348|156:372,2,120,4|0|2,1:2|1:0|1:2,0:0:0:0:
244,241,151827,2,0,P|182:228|140:209,1,80,10|0,0:0|0:0,0:0:0:0:
127,186,152161,1,8,0:0:0:0:
127,186,152272,1,2,1:2:0:0:
188,102,152494,1,8,0:0:0:0:
188,102,152605,1,8,1:2:0:0:
188,102,152716,6,0,B|208:48|208:48|179:-17,2,120,4|0|2,1:2|1:0|1:2,0:0:0:0:
97,50,153605,2,0,P|55:62|34:93,1,80,10|0,0:0|0:0,0:0:0:0:
34,142,153939,2,0,L|49:229,1,80,0|8,0:0|0:0,0:0:0:0:
62,270,154272,1,8,0:0:0:0:
123,353,154494,6,0,P|64:348|13:378,2,120,4|0|2,1:2|1:0|1:2,0:0:0:0:
257,384,155383,2,0,L|375:365,1,120,10|8,0:0|0:0,0:0:0:0:
418,335,155827,2,0,P|397:312|383:290,2,40,2|8|8,1:2|0:0|0:0,0:0:0:0:
487,257,156272,6,0,P|480:182|474:155,1,80,4|0,1:2|1:0,0:0:0:0:
423,89,156716,1,0,1:0:0:0:
327,136,156939,2,0,P|334:211|340:238,1,80,12|0,1:2|1:0,0:0:0:0:
391,304,157383,1,0,1:0:0:0:
391,304,157605,1,8,1:2:0:0:
299,352,157827,6,0,P|244:355|203:285,1,120,12|0,1:2|0:0,0:0:0:0:
213,257,158272,1,8,1:2:0:0:
111,234,158494,1,8,1:2:0:0:
9,211,158716,1,8,1:2:0:0:
256,192,159827,5,4,1:2:0:0:
3,287,163161,5,0,0:0:0:0:
44,373,163383,2,0,L|143:354,1,88.000002685547,4|0,1:2|0:0,0:0:0:0:
176,332,163716,1,0,1:0:0:0:
176,332,163827,2,0,P|196:291|187:236,1,88.000002685547,10|0,0:0|0:0,0:0:0:0:
118,176,164272,1,2,0:0:0:0:
220,148,164494,1,0,1:0:0:0:
220,148,164605,1,0,0:0:0:0:
220,148,164716,1,10,0:0:0:0:
302,216,164939,1,0,0:0:0:0:
384,149,165161,6,0,P|386:80|380:41,1,88.000002685547,4|0,1:2|0:0,0:0:0:0:
353,13,165494,1,0,1:0:0:0:
353,13,165605,2,0,P|404:19|463:17,1,88.000002685547,10|0,0:0|0:0,0:0:0:0:
494,16,165939,1,8,0:0:0:0:
494,16,166050,1,2,1:2:0:0:
471,120,166272,1,0,1:0:0:0:
512,218,166494,2,0,B|474:242|474:242|428:236,1,88.000002685547,8|8,1:2|0:0,0:0:0:0:
302,216,166939,6,0,B|260:213|260:213|216:249,1,88.000002685547,4|0,1:2|0:0,0:0:0:0:
194,281,167272,1,0,1:0:0:0:
194,281,167383,2,0,P|208:334|204:373,1,88.000002685547,10|0,0:0|0:0,0:0:0:0:
101,381,167827,1,2,0:0:0:0:
37,286,168050,1,0,1:0:0:0:
37,286,168161,1,0,0:0:0:0:
37,286,168272,1,10,0:0:0:0:
113,213,168494,1,0,0:0:0:0:
41,137,168716,6,0,P|52:85|49:32,1,88.000002685547,4|0,1:2|0:0,0:0:0:0:
27,5,169050,1,0,1:0:0:0:
27,5,169161,2,0,L|142:16,1,88.000002685547,10|0,0:0|0:0,0:0:0:0:
206,67,169605,2,0,L|321:56,1,88.000002685547,2|0,0:0|1:0,0:0:0:0:
344,43,169939,1,0,0:0:0:0:
344,43,170050,1,10,0:0:0:0:
417,121,170272,1,8,0:0:0:0:
337,234,170494,6,0,P|332:277|352:316,1,88.000002685547,4|0,1:2|0:0,0:0:0:0:
402,331,170827,1,0,1:0:0:0:
402,331,170939,2,0,P|464:320|501:318,1,88.000002685547,10|0,0:0|0:0,0:0:0:0:
440,225,171383,1,2,0:0:0:0:
511,147,171605,1,0,1:0:0:0:
511,147,171716,1,0,0:0:0:0:
511,147,171827,1,10,0:0:0:0:
433,77,172050,1,0,0:0:0:0:
338,156,172272,6,0,P|265:158|236:109,1,132.00000402832,4|0,1:2|1:0,0:0:0:0:
211,67,172716,2,0,P|220:109|211:152,1,88.000002685547,14|12,0:0|1:2,0:0:0:0:
131,222,173161,1,2,1:2:0:0:
70,156,173383,1,8,0:0:0:0:
70,156,173494,1,8,0:0:0:0:
70,156,173605,2,0,L|4:152,3,44.0000013427735,8|8|8|8,1:2|0:0|0:0|0:0,0:0:0:0:
1,199,174050,6,0,P|0:242|18:282,1,88.000002685547,4|0,1:2|0:0,0:0:0:0:
67,314,174383,1,0,1:0:0:0:
67,314,174494,2,0,L|162:327,1,88.000002685547,10|0,0:0|0:0,0:0:0:0:
246,376,174939,1,2,0:0:0:0:
340,322,175161,1,0,1:0:0:0:
340,322,175272,1,0,0:0:0:0:
340,322,175383,1,10,0:0:0:0:
246,272,175605,1,0,0:0:0:0:
332,211,175827,6,0,L|318:111,1,88.000002685547,4|0,1:2|0:0,0:0:0:0:
307,76,176161,1,0,1:0:0:0:
307,76,176272,2,0,P|253:63|211:70,1,88.000002685547,10|0,0:0|0:0,0:0:0:0:
190,110,176605,1,8,0:0:0:0:
190,110,176716,2,0,P|146:113|104:100,1,88.000002685547,2|0,0:0|1:0,0:0:0:0:
21,34,177161,1,10,0:0:0:0:
2,137,177383,1,8,0:0:0:0:
92,191,177605,6,0,P|105:253|104:295,1,88.000002685547,4|0,1:2|0:0,0:0:0:0:
80,325,177939,1,0,1:0:0:0:
80,325,178050,2,0,P|131:323|165:354,1,88.000002685547,10|0,0:0|0:0,0:0:0:0:
257,384,178494,2,0,L|272:285,1,88.000002685547,2|0,0:0|1:0,0:0:0:0:
285,249,178827,1,0,0:0:0:0:
285,249,178939,1,10,0:0:0:0:
219,165,179161,1,0,0:0:0:0:
290,87,179383,6,0,P|347:95|374:121,1,88.000002685547,4|0,1:2|0:0,0:0:0:0:
405,159,179716,1,0,1:0:0:0:
405,159,179827,2,0,P|449:158|484:133,1,88.000002685547,10|0,0:0|1:0,0:0:0:0:
504,86,180161,1,8,0:0:0:0:
504,86,180272,2,0,L|485:-13,1,88.000002685547,2|0,1:2|1:0,0:0:0:0:
385,27,180716,2,0,L|366:126,1,88.000002685547,10|8,0:0|0:0,0:0:0:0:
335,245,181161,6,0,B|301:274|257:277|257:277|221:243|174:247,2,176.000005371094,4|10|2,1:2|0:0|0:0,0:0:0:0:
265,164,182272,1,0,1:0:0:0:
159,155,182494,2,0,P|105:163|50:157,1,88.000002685547,10|0,0:0|0:0,0:0:0:0:
39,126,182827,1,0,0:0:0:0:
39,126,182939,6,0,L|53:65,3,44.0000013427735,4|0|0|0,1:2|0:0|1:0|1:0,0:0:0:0:
98,63,183383,2,0,P|128:58|140:53,3,44.0000013427735,14|0|12|0,0:0|0:0|1:2|0:0,0:0:0:0:
182,20,183827,2,0,P|212:25|224:29,3,44.0000013427735,2|0|8|8,1:2|0:0|0:0|0:0,0:0:0:0:
290,98,184272,1,8,1:2:0:0:
290,98,184383,1,8,0:0:0:0:
290,98,184494,1,8,0:0:0:0:
290,98,184605,1,8,0:0:0:0:
290,98,184716,6,0,P|348:93|425:81,2,120,4|4|4,1:2|1:2|1:2,0:0:0:0:
250,177,185605,2,0,L|259:231,3,40,8|8|8|8,0:0|0:0|0:0|0:0,0:0:0:0:
275,265,186050,6,0,P|231:270|184:265,1,80,4|8,1:2|0:0,0:0:0:0:
146,283,186383,2,0,P|107:281|67:286,1,80,4|8,1:2|0:0,0:0:0:0:
26,253,186716,2,0,P|37:184|129:173,1,160,4|4,1:2|1:2,0:0:0:0:
189,92,187383,2,0,P|230:107|254:110,3,40,8|8|8|8,0:0|0:0|0:0|0:0,0:0:0:0:
277,97,187827,6,0,P|329:81|376:91,1,80,4|8,1:2|0:0,0:0:0:0:
390,121,188161,2,0,P|379:197|380:224,1,80,4|8,1:2|0:0,0:0:0:0:
405,244,188494,1,4,1:2:0:0:
494,297,188716,2,0,L|489:340,3,40,8|8|8|8,0:0|0:0|0:0|0:0,0:0:0:0:
450,372,189161,6,0,P|414:350|358:359,1,80,4|8,1:2|0:0,0:0:0:0:
332,376,189494,2,0,L|251:360,1,80,0|0,1:2|0:0,0:0:0:0:
212,328,189827,2,0,B|117:320|171:397|50:382,1,160,4|0,1:2|1:0,0:0:0:0:
1,305,190494,1,4,1:2:0:0:
58,221,190716,1,8,0:0:0:0:
58,221,190827,1,8,0:0:0:0:
58,221,190939,6,0,P|56:167|48:134,1,80,4|0,1:2|0:0,0:0:0:0:
0,50,191383,2,0,P|52:53|93:47,1,80,10|0,0:0|0:0,0:0:0:0:
131,42,191716,2,0,P|135:19|137:2,2,40,8|2|0,0:0|0:0|0:0,0:0:0:0:
147,118,192050,1,0,1:0:0:0:
228,53,192272,2,0,P|265:41|303:52,1,80,10|0,0:0|0:0,0:0:0:0:
382,119,192716,5,2,1:2:0:0:
369,229,192939,1,0,0:0:0:0:
369,229,193050,1,0,1:0:0:0:
369,229,193161,1,10,0:0:0:0:
286,165,193383,2,0,P|227:157|146:150,1,120
101,188,193827,5,0,1:0:0:0:
101,188,193939,1,0,0:0:0:0:
101,188,194050,2,0,P|114:239|128:274,1,80,10|8,0:0|0:0,0:0:0:0:
112,367,194494,6,0,P|173:350|206:363,1,80,2|0,1:2|0:0,0:0:0:0:
287,383,194939,1,10,0:0:0:0:
369,319,195161,1,0,0:0:0:0:
369,319,195272,1,8,0:0:0:0:
369,319,195383,2,0,P|357:264|362:219,1,80,2|0,0:0|1:0,0:0:0:0:
427,163,195827,2,0,P|439:108|434:63,1,80,10|0,0:0|0:0,0:0:0:0:
321,14,196272,5,8,1:2:0:0:
239,88,196494,2,0,P|171:91|127:88,2,80,8|8|0,1:2|1:2|1:2,0:0:0:0:
328,182,197161,1,8,0:0:0:0:
328,182,197272,1,0,1:0:0:0:
328,182,197383,1,0,1:0:0:0:
328,182,197494,1,0,1:0:0:0:
328,182,197605,1,0,1:0:0:0:
216,267,197827,5,12,1:2:0:0:
256,192,197939,12,0,205939,0:0:0:0:
