osu file format v14

[General]
AudioFilename: audio.mp3
AudioLeadIn: 0
PreviewTime: 49051
Countdown: 0
SampleSet: Soft
StackLeniency: 0.4
Mode: 0
LetterboxInBreaks: 0
WidescreenStoryboard: 1

[Editor]
Bookmarks: 6885,13995,21106,35329,49550,82661,86218,88662,95773,102885,118885,128662,145551,159773,163329,184662,197773
DistanceSpacing: 1.4
BeatDivisor: 4
GridSize: 8
TimelineZoom: 1.8

[Metadata]
Title:Fuyu no Hanashi
TitleUnicode:冬のはなし
Artist:Given
ArtistUnicode:ギヴン
Creator:- ascended -
Version:Tragic Love Story
Source:ギヴン
Tags:fuyunohanashi winter's story jrock j-rock rock insert song hazu- hazu kittyadventure gokugohan12468 zabijakweeb zabijak mokobe _-Super-_ log on now log_on_now anime animation japan japanese jp lerche crunchyroll Mafuyu Satō Sato Satou 佐藤 真冬 佐藤真冬 Ritsuka Uenoyama 上ノ山 立夏 上ノ山立夏 Haruki Nakayama 中山 春樹 中山春樹 Akihiko Kaji 梶 秋彦 梶秋彦 Yano Shougo 矢野奨吾 矢野 奨吾 gay lgbt yaoi shounenai shounen ai bl boys boy's love marutsuke the seasons センチミリメンタル centimilli mental centimillimental
BeatmapID:2476072
BeatmapSetID:1188198

[Difficulty]
HPDrainRate:5
CircleSize:4
OverallDifficulty:8.7
ApproachRate:9.3
SliderMultiplier:2.5
SliderTickRate:1

[Events]
//Background and Video events
0,0,"pensivewobble.jpg",0,0
//Break Periods
2,131418,137886
2,159973,162553
//Storyboard Layer 0 (Background)
//Storyboard Layer 1 (Fail)
//Storyboard Layer 2 (Pass)
//Storyboard Layer 3 (Foreground)
//Storyboard Layer 4 (Overlay)
//Storyboard Sound Samples

[TimingPoints]
-226,444.444444444444,4,2,1,75,1,0
440,-100,4,2,1,75,0,0
662,-83.3333333333333,4,2,1,75,0,0
1218,-83.3333333333333,4,2,1,75,0,0
1329,-83.3333333333333,4,2,1,75,0,0
2551,-83.3333333333333,4,2,1,75,0,0
2662,-83.3333333333333,4,2,1,75,0,0
4329,-83.3333333333333,4,2,1,75,0,0
4440,-83.3333333333333,4,2,1,75,0,0
5662,-83.3333333333333,4,2,1,75,0,0
5773,-83.3333333333333,4,2,1,75,0,0
6885,-100,4,2,2,75,0,0
7107,-100,4,2,1,75,0,0
7218,-100,4,2,1,75,0,0
7329,-100,4,2,2,75,0,0
7551,-100,4,2,1,75,0,0
8551,-100,4,2,1,5,0,0
8662,-100,4,2,2,75,0,0
8885,-100,4,2,1,75,0,0
8995,-100,4,2,1,75,0,0
9107,-100,4,2,2,75,0,0
9329,-100,4,2,1,75,0,0
9996,-100,4,2,2,75,0,0
10218,-100,4,2,1,75,0,0
10440,-100,4,2,2,75,0,0
10662,-100,4,2,1,75,0,0
10773,-100,4,2,1,75,0,0
10885,-100,4,2,2,75,0,0
11107,-100,4,2,1,75,0,0
11773,-100,4,2,2,75,0,0
11996,-100,4,2,1,75,0,0
12106,-100,4,2,1,5,0,0
12218,-100,4,2,1,75,0,0
15773,-100,4,2,1,75,0,0
16218,-100,4,2,1,75,0,0
17551,-100,4,2,1,75,0,0
17996,-100,4,2,1,75,0,0
19329,-200,4,2,1,75,0,0
19551,-100,4,2,1,75,0,0
19773,-100,4,2,1,75,0,0
20218,-133.333333333333,4,2,1,75,0,0
20551,-133.333333333333,4,2,1,5,0,0
20662,-133.333333333333,4,2,1,75,0,0
21107,-83.3333333333333,4,2,2,75,0,0
21440,-83.3333333333333,4,2,2,75,0,0
21551,-83.3333333333333,4,2,1,75,0,0
22440,-83.3333333333333,4,2,2,75,0,0
22773,-83.3333333333333,4,2,2,5,0,0
22885,-83.3333333333333,4,2,1,75,0,0
23218,-83.3333333333333,4,2,1,75,0,0
23329,-83.3333333333333,4,2,1,75,0,0
24662,-83.3333333333333,4,2,2,75,0,0
24995,-83.3333333333333,4,2,2,75,0,0
25107,-83.3333333333333,4,2,1,75,0,0
25551,-83.3333333333333,4,2,2,75,0,0
26329,-83.3333333333333,4,2,2,5,0,0
26440,-83.3333333333333,4,2,1,75,0,0
26773,-83.3333333333333,4,2,1,75,0,0
26885,-83.3333333333333,4,2,1,75,0,0
27773,-83.3333333333333,4,2,1,75,0,0
27885,-83.3333333333333,4,2,1,75,0,0
28218,-83.3333333333333,4,2,2,75,0,0
28551,-83.3333333333333,4,2,2,75,0,0
28662,-83.3333333333333,4,2,1,75,0,0
29551,-83.3333333333333,4,2,2,75,0,0
29884,-83.3333333333333,4,2,2,5,0,0
29996,-83.3333333333333,4,2,1,75,0,0
30329,-83.3333333333333,4,2,1,75,0,0
30440,-83.3333333333333,4,2,1,75,0,0
31773,-83.3333333333333,4,2,2,75,0,0
32106,-83.3333333333333,4,2,2,75,0,0
32218,-83.3333333333333,4,2,1,75,0,0
33107,-83.3333333333333,4,2,2,75,0,0
33440,-83.3333333333333,4,2,2,5,0,0
33551,-83.3333333333333,4,2,1,75,0,0
33773,-83.3333333333333,4,2,1,75,0,0
33884,-83.3333333333333,4,2,1,5,0,0
33996,-83.3333333333333,4,2,1,75,0,0
34551,-83.3333333333333,4,2,1,5,0,0
34662,-83.3333333333333,4,2,1,75,0,0
34885,-83.3333333333333,4,2,2,75,0,0
34996,-83.3333333333333,4,2,2,75,0,0
35329,-100,4,2,1,75,0,0
48662,-133.333333333333,4,2,1,35,0,0
48885,-133.333333333333,4,2,1,45,0,0
49107,-133.333333333333,4,2,1,55,0,0
49329,-133.333333333333,4,2,1,65,0,0
49440,-133.333333333333,4,2,1,25,0,0
49468,-133.333333333333,4,2,1,65,0,0
49551,-66.6666666666667,4,2,2,75,0,1
49662,-66.6666666666667,4,2,1,75,0,1
49996,-66.6666666666667,4,2,2,75,0,1
50107,-66.6666666666667,4,2,1,75,0,1
50440,-66.6666666666667,4,2,2,75,0,1
50551,-66.6666666666667,4,2,1,75,0,1
50885,-66.6666666666667,4,2,2,75,0,1
50996,-66.6666666666667,4,2,1,75,0,1
51329,-66.6666666666667,4,2,2,75,0,1
51440,-66.6666666666667,4,2,1,75,0,1
51773,-66.6666666666667,4,2,2,75,0,1
51884,-66.6666666666667,4,2,1,75,0,1
52218,-66.6666666666667,4,2,2,75,0,1
52329,-66.6666666666667,4,2,1,75,0,1
52662,-66.6666666666667,4,2,2,75,0,1
52773,-66.6666666666667,4,2,1,75,0,1
53107,-66.6666666666667,4,2,2,75,0,1
53218,-66.6666666666667,4,2,1,75,0,1
53551,-66.6666666666667,4,2,2,75,0,1
53662,-66.6666666666667,4,2,1,75,0,1
53996,-66.6666666666667,4,2,2,75,0,1
54107,-66.6666666666667,4,2,1,75,0,1
54440,-66.6666666666667,4,2,2,75,0,1
54551,-66.6666666666667,4,2,1,75,0,1
54885,-66.6666666666667,4,2,2,75,0,1
54996,-66.6666666666667,4,2,1,75,0,1
55329,-66.6666666666667,4,2,2,75,0,1
55440,-66.6666666666667,4,2,1,75,0,1
55773,-66.6666666666667,4,2,2,75,0,1
55885,-66.6666666666667,4,2,1,75,0,1
56218,-66.6666666666667,4,2,2,75,0,1
56329,-66.6666666666667,4,2,1,75,0,1
56662,-66.6666666666667,4,2,2,75,0,1
56773,-66.6666666666667,4,2,1,75,0,1
57107,-66.6666666666667,4,2,2,75,0,1
57218,-66.6666666666667,4,2,1,75,0,1
57551,-66.6666666666667,4,2,2,75,0,1
57662,-66.6666666666667,4,2,1,75,0,1
57996,-66.6666666666667,4,2,2,75,0,1
58107,-66.6666666666667,4,2,1,75,0,1
58440,-66.6666666666667,4,2,2,75,0,1
58551,-66.6666666666667,4,2,1,75,0,1
58885,-66.6666666666667,4,2,2,75,0,1
58996,-66.6666666666667,4,2,1,75,0,1
59329,-66.6666666666667,4,2,2,75,0,1
59440,-66.6666666666667,4,2,1,75,0,1
59773,-66.6666666666667,4,2,2,75,0,1
59884,-66.6666666666667,4,2,1,75,0,1
60226,-66.6666666666667,4,2,1,75,0,1
60329,-66.6666666666667,4,2,1,75,0,1
60662,-66.6666666666667,4,2,2,75,0,1
60773,-66.6666666666667,4,2,1,75,0,1
61107,-66.6666666666667,4,2,2,75,0,1
61218,-66.6666666666667,4,2,1,75,0,1
61551,-66.6666666666667,4,2,2,75,0,1
61662,-66.6666666666667,4,2,1,75,0,1
61781,-66.6666666666667,4,2,1,75,0,1
61996,-76.9230769230769,4,2,2,75,0,1
62032,-76.9230769230769,4,2,2,75,0,1
62107,-76.9230769230769,4,2,1,75,0,1
62439,-76.9230769230769,4,2,2,75,0,1
62440,-76.9230769230769,4,2,2,75,0,1
62551,-76.9230769230769,4,2,1,75,0,1
62885,-76.9230769230769,4,2,2,75,0,1
62996,-76.9230769230769,4,2,1,75,0,1
63329,-76.9230769230769,4,2,2,75,0,1
63440,-76.9230769230769,4,2,1,75,0,1
63773,-66.6666666666667,4,2,2,75,0,1
63885,-66.6666666666667,4,2,1,75,0,1
64218,-66.6666666666667,4,2,2,75,0,1
64329,-66.6666666666667,4,2,1,75,0,1
64662,-66.6666666666667,4,2,2,75,0,1
64773,-66.6666666666667,4,2,1,75,0,1
65107,-66.6666666666667,4,2,2,75,0,1
65218,-66.6666666666667,4,2,1,75,0,1
65551,-66.6666666666667,4,2,2,75,0,1
65662,-66.6666666666667,4,2,1,75,0,1
65996,-66.6666666666667,4,2,2,75,0,1
66107,-66.6666666666667,4,2,1,75,0,1
66440,-66.6666666666667,4,2,2,75,0,1
66551,-66.6666666666667,4,2,1,75,0,1
66885,-66.6666666666667,4,2,2,75,0,1
66996,-66.6666666666667,4,2,1,75,0,1
67329,-66.6666666666667,4,2,2,75,0,1
67440,-66.6666666666667,4,2,1,75,0,1
67773,-66.6666666666667,4,2,2,75,0,1
67885,-66.6666666666667,4,2,1,75,0,1
68218,-66.6666666666667,4,2,2,75,0,1
68329,-66.6666666666667,4,2,1,75,0,1
68662,-66.6666666666667,4,2,2,75,0,1
68773,-66.6666666666667,4,2,1,75,0,1
69107,-66.6666666666667,4,2,2,75,0,1
69218,-66.6666666666667,4,2,1,75,0,1
69551,-66.6666666666667,4,2,2,75,0,1
69662,-66.6666666666667,4,2,1,75,0,1
69996,-66.6666666666667,4,2,2,75,0,1
70107,-66.6666666666667,4,2,1,75,0,1
70440,-66.6666666666667,4,2,2,75,0,1
70551,-66.6666666666667,4,2,1,75,0,1
70885,-66.6666666666667,4,2,2,75,0,1
70996,-66.6666666666667,4,2,1,75,0,1
71329,-66.6666666666667,4,2,2,75,0,1
71440,-66.6666666666667,4,2,1,75,0,1
71773,-66.6666666666667,4,2,2,75,0,1
71885,-66.6666666666667,4,2,1,75,0,1
72218,-66.6666666666667,4,2,2,75,0,1
72329,-66.6666666666667,4,2,1,75,0,1
72662,-66.6666666666667,4,2,2,75,0,1
72773,-66.6666666666667,4,2,1,75,0,1
73107,-66.6666666666667,4,2,2,75,0,1
73218,-66.6666666666667,4,2,1,75,0,1
73551,-66.6666666666667,4,2,2,75,0,1
73662,-66.6666666666667,4,2,1,75,0,1
73996,-66.6666666666667,4,2,2,75,0,1
74107,-66.6666666666667,4,2,1,75,0,1
74439,-76.9230769230769,4,2,1,75,0,0
75772,-133.333333333333,4,2,1,75,0,0
76217,-76.9230769230769,4,2,1,75,0,0
77328,-100,4,2,1,75,0,0
77995,-76.9230769230769,4,2,1,75,0,0
79995,-100,4,2,1,75,0,0
81550,-133.333333333333,4,2,3,75,0,0
82218,-133.333333333333,4,2,1,75,0,0
82661,-76.9230769230769,4,2,1,75,0,0
83328,-133.333333333333,4,2,1,75,0,0
84439,-76.9230769230769,4,2,1,75,0,0
85106,-133.333333333333,4,2,1,75,0,0
85439,-133.333333333333,4,2,1,75,0,0
85550,-133.333333333333,4,2,1,75,0,0
86217,-76.9230769230769,4,2,1,75,0,0
86884,-133.333333333333,4,2,1,75,0,0
87217,-133.333333333333,4,2,1,5,0,0
87328,-133.333333333333,4,2,1,75,0,0
88661,-83.3333333333333,4,2,3,75,0,0
88995,-83.3333333333333,4,2,3,75,0,0
89107,-83.3333333333333,4,2,1,75,0,0
90329,-83.3333333333333,4,2,1,5,0,0
90440,-83.3333333333333,4,2,1,75,0,0
90773,-83.3333333333333,4,2,1,75,0,0
90885,-83.3333333333333,4,2,1,75,0,0
92218,-83.3333333333333,4,2,1,75,0,0
92551,-83.3333333333333,4,2,1,75,0,0
92662,-83.3333333333333,4,2,1,75,0,0
93884,-83.3333333333333,4,2,1,5,0,0
93996,-83.3333333333333,4,2,1,75,0,0
94329,-83.3333333333333,4,2,1,75,0,0
94440,-83.3333333333333,4,2,1,75,0,0
95329,-83.3333333333333,4,2,1,75,0,0
95440,-83.3333333333333,4,2,1,75,0,0
95773,-83.3333333333333,4,2,3,75,0,0
96106,-83.3333333333333,4,2,3,75,0,0
96218,-83.3333333333333,4,2,1,75,0,0
97440,-83.3333333333333,4,2,1,5,0,0
97551,-83.3333333333333,4,2,1,75,0,0
97884,-83.3333333333333,4,2,1,75,0,0
97996,-83.3333333333333,4,2,1,75,0,0
99329,-83.3333333333333,4,2,1,75,0,0
99662,-83.3333333333333,4,2,1,75,0,0
99773,-83.3333333333333,4,2,1,75,0,0
100995,-83.3333333333333,4,2,1,5,0,0
101107,-83.3333333333333,4,2,1,75,0,0
101440,-83.3333333333333,4,2,1,75,0,0
101551,-83.3333333333333,4,2,1,75,0,0
102107,-83.3333333333333,4,2,1,75,0,0
102218,-83.3333333333333,4,2,1,75,0,0
102440,-83.3333333333333,4,2,1,75,0,0
102551,-83.3333333333333,4,2,1,75,0,0
102884,-133.333333333333,4,2,2,75,0,0
103218,-133.333333333333,4,2,1,75,0,0
103440,-133.333333333333,4,2,1,5,0,0
103551,-133.333333333333,4,2,1,75,0,0
104439,-100,4,2,1,75,0,0
106439,-133.333333333333,4,2,1,75,0,0
106995,-133.333333333333,4,2,1,75,0,0
107107,-133.333333333333,4,2,1,75,0,0
108408,-133.333333333333,4,2,1,75,0,0
109995,-133.333333333333,4,2,1,75,0,0
110551,-133.333333333333,4,2,1,75,0,0
110661,-133.333333333333,4,2,1,75,0,0
117106,-90.9090909090909,4,2,1,75,0,1
120661,-90.9090909090909,4,2,1,75,0,1
122106,-90.9090909090909,4,2,1,5,0,1
122217,-90.9090909090909,4,2,1,75,0,1
122772,-90.9090909090909,4,2,1,5,0,1
122884,-90.9090909090909,4,2,1,75,0,1
129550,-76.9230769230769,4,2,1,75,0,1
131328,-76.9230769230769,4,2,1,75,0,0
141994,-133.333333333333,4,2,1,75,0,0
143661,-133.333333333333,4,2,1,75,0,0
143772,-90.9090909090909,4,2,1,75,0,0
145550,-133.333333333333,4,2,2,75,0,0
145884,-133.333333333333,4,2,2,75,0,0
145995,-133.333333333333,4,2,1,75,0,0
146439,-133.333333333333,4,2,2,75,0,0
146883,-133.333333333333,4,2,1,75,0,0
147106,-133.333333333333,4,2,1,75,0,0
147328,-133.333333333333,4,2,2,75,0,0
147661,-133.333333333333,4,2,2,75,0,0
147772,-133.333333333333,4,2,1,75,0,0
148217,-133.333333333333,4,2,2,75,0,0
148661,-133.333333333333,4,2,1,75,0,0
149106,-133.333333333333,4,2,2,75,0,0
149439,-133.333333333333,4,2,2,75,0,0
149550,-133.333333333333,4,2,1,75,0,0
149995,-133.333333333333,4,2,2,75,0,0
150328,-133.333333333333,4,2,1,75,0,0
150439,-133.333333333333,4,2,1,75,0,0
150661,-133.333333333333,4,2,1,75,0,0
150884,-133.333333333333,4,2,2,75,0,0
151217,-133.333333333333,4,2,1,75,0,0
151772,-133.333333333333,4,2,2,75,0,0
152105,-133.333333333333,4,2,2,75,0,0
152217,-133.333333333333,4,2,1,75,0,0
152439,-133.333333333333,4,2,1,75,0,0
152661,-133.333333333333,4,2,2,75,0,0
152995,-133.333333333333,4,2,1,75,0,0
153550,-133.333333333333,4,2,2,75,0,0
153884,-133.333333333333,4,2,1,75,0,0
153994,-133.333333333333,4,2,1,75,0,0
154217,-133.333333333333,4,2,1,75,0,0
154439,-133.333333333333,4,2,2,75,0,0
154772,-133.333333333333,4,2,1,75,0,0
155328,-133.333333333333,4,2,2,75,0,0
155439,-133.333333333333,4,2,2,75,0,0
155550,-133.333333333333,4,2,2,75,0,0
155772,-133.333333333333,4,2,1,75,0,0
155995,-133.333333333333,4,2,1,75,0,0
158884,-133.333333333333,4,2,1,35,0,0
159106,-133.333333333333,4,2,1,45,0,0
159328,-133.333333333333,4,2,1,55,0,0
159550,-133.333333333333,4,2,1,65,0,0
159661,-133.333333333333,4,2,1,25,0,0
159689,-133.333333333333,4,2,1,65,0,0
159772,-133.333333333333,4,2,3,75,0,0
163328,-66.6666666666667,4,2,2,75,0,1
163439,-66.6666666666667,4,2,1,75,0,1
163772,-66.6666666666667,4,2,2,75,0,1
163884,-66.6666666666667,4,2,1,75,0,1
164217,-66.6666666666667,4,2,2,75,0,1
164328,-66.6666666666667,4,2,1,75,0,1
164661,-66.6666666666667,4,2,2,75,0,1
164772,-66.6666666666667,4,2,1,75,0,1
165106,-66.6666666666667,4,2,2,75,0,1
165217,-66.6666666666667,4,2,1,75,0,1
165550,-66.6666666666667,4,2,2,75,0,1
165661,-66.6666666666667,4,2,1,75,0,1
165995,-66.6666666666667,4,2,2,75,0,1
166106,-66.6666666666667,4,2,1,75,0,1
166439,-66.6666666666667,4,2,2,75,0,1
166550,-66.6666666666667,4,2,1,75,0,1
166884,-66.6666666666667,4,2,2,75,0,1
166995,-66.6666666666667,4,2,1,75,0,1
167328,-66.6666666666667,4,2,2,75,0,1
167439,-66.6666666666667,4,2,1,75,0,1
167772,-66.6666666666667,4,2,2,75,0,1
167884,-66.6666666666667,4,2,1,75,0,1
168217,-66.6666666666667,4,2,2,75,0,1
168328,-66.6666666666667,4,2,1,75,0,1
168661,-66.6666666666667,4,2,2,75,0,1
168772,-66.6666666666667,4,2,1,75,0,1
169106,-66.6666666666667,4,2,2,75,0,1
169217,-66.6666666666667,4,2,1,75,0,1
169550,-66.6666666666667,4,2,2,75,0,1
169661,-66.6666666666667,4,2,1,75,0,1
169995,-66.6666666666667,4,2,2,75,0,1
170106,-66.6666666666667,4,2,1,75,0,1
170439,-66.6666666666667,4,2,2,75,0,1
170550,-66.6666666666667,4,2,1,75,0,1
170884,-66.6666666666667,4,2,2,75,0,1
170995,-66.6666666666667,4,2,1,75,0,1
171328,-66.6666666666667,4,2,2,75,0,1
171439,-66.6666666666667,4,2,1,75,0,1
171772,-66.6666666666667,4,2,2,75,0,1
171883,-66.6666666666667,4,2,1,75,0,1
172217,-66.6666666666667,4,2,2,75,0,1
172328,-66.6666666666667,4,2,1,75,0,1
172661,-66.6666666666667,4,2,2,75,0,1
172772,-66.6666666666667,4,2,1,75,0,1
173106,-66.6666666666667,4,2,2,75,0,1
173218,-66.6666666666667,4,2,1,75,0,1
173551,-66.6666666666667,4,2,2,75,0,1
173662,-66.6666666666667,4,2,1,75,0,1
173996,-66.6666666666667,4,2,2,75,0,1
174107,-66.6666666666667,4,2,1,75,0,1
174440,-66.6666666666667,4,2,2,75,0,1
174551,-66.6666666666667,4,2,1,75,0,1
174885,-66.6666666666667,4,2,2,75,0,1
174996,-66.6666666666667,4,2,1,75,0,1
175329,-66.6666666666667,4,2,2,75,0,1
175440,-66.6666666666667,4,2,1,75,0,1
175773,-66.6666666666667,4,2,2,75,0,1
175885,-66.6666666666667,4,2,1,75,0,1
176218,-66.6666666666667,4,2,2,75,0,1
176329,-66.6666666666667,4,2,1,75,0,1
176662,-66.6666666666667,4,2,2,75,0,1
176773,-66.6666666666667,4,2,1,75,0,1
177107,-66.6666666666667,4,2,2,75,0,1
177218,-66.6666666666667,4,2,1,75,0,1
177551,-66.6666666666667,4,2,2,75,0,1
177662,-66.6666666666667,4,2,1,75,0,1
177996,-66.6666666666667,4,2,2,75,0,1
178107,-66.6666666666667,4,2,1,75,0,1
178440,-66.6666666666667,4,2,2,75,0,1
178551,-66.6666666666667,4,2,1,75,0,1
178885,-66.6666666666667,4,2,2,75,0,1
178996,-66.6666666666667,4,2,1,75,0,1
179329,-66.6666666666667,4,2,2,75,0,1
179440,-66.6666666666667,4,2,1,75,0,1
179773,-66.6666666666667,4,2,2,75,0,1
179884,-66.6666666666667,4,2,1,75,0,1
180218,-66.6666666666667,4,2,2,75,0,1
180329,-66.6666666666667,4,2,1,75,0,1
180662,-66.6666666666667,4,2,2,75,0,1
180773,-66.6666666666667,4,2,1,75,0,1
181107,-66.6666666666667,4,2,2,75,0,1
181218,-66.6666666666667,4,2,1,75,0,1
181551,-66.6666666666667,4,2,2,75,0,1
181662,-66.6666666666667,4,2,1,75,0,1
181995,-66.6666666666667,4,2,2,75,0,1
182107,-66.6666666666667,4,2,1,75,0,1
182440,-66.6666666666667,4,2,2,75,0,1
182551,-66.6666666666667,4,2,1,75,0,1
182885,-66.6666666666667,4,2,2,75,0,1
182996,-66.6666666666667,4,2,1,75,0,1
183329,-66.6666666666667,4,2,2,75,0,1
183440,-66.6666666666667,4,2,1,75,0,1
183773,-66.6666666666667,4,2,2,75,0,1
183884,-66.6666666666667,4,2,1,75,0,1
184218,-66.6666666666667,4,2,2,75,0,1
184329,-66.6666666666667,4,2,1,75,0,1
184661,-83.3333333333333,4,2,1,75,0,0
185218,-83.3333333333333,4,2,1,75,0,0
185329,-83.3333333333333,4,2,1,75,0,0
186551,-83.3333333333333,4,2,1,75,0,0
186662,-83.3333333333333,4,2,1,75,0,0
188329,-83.3333333333333,4,2,1,75,0,0
188440,-83.3333333333333,4,2,1,75,0,0
189662,-83.3333333333333,4,2,1,75,0,0
189773,-83.3333333333333,4,2,1,75,0,0
190882,-100,4,2,1,75,0,0
190885,-100,4,2,2,75,0,0
191107,-100,4,2,1,75,0,0
191218,-100,4,2,1,75,0,0
191329,-100,4,2,2,75,0,0
191551,-100,4,2,1,75,0,0
192551,-100,4,2,1,5,0,0
192662,-100,4,2,2,75,0,0
192885,-100,4,2,1,75,0,0
192995,-100,4,2,1,75,0,0
193107,-100,4,2,2,75,0,0
193329,-100,4,2,1,75,0,0
193996,-100,4,2,2,75,0,0
194218,-100,4,2,1,75,0,0
194440,-100,4,2,2,75,0,0
194662,-100,4,2,1,75,0,0
194773,-100,4,2,1,75,0,0
194885,-100,4,2,2,75,0,0
195107,-100,4,2,1,75,0,0
195773,-100,4,2,2,75,0,0
196106,-100,4,2,2,5,0,0
196218,-100,4,2,1,75,0,0
205773,-100,4,2,1,5,0,0

[Colours]
Combo1 : 159,156,151
Combo2 : 103,145,152
Combo3 : 107,104,168
Combo4 : 194,99,71

[HitObjects]
301,37,440,6,0,L|292:104,1,62.5,0|0,3:0|3:0,0:0:0:0:
325,19,662,6,0,L|303:187,1,149.999995422363,4|0,0:2|0:0,0:0:0:0:
445,109,996,2,0,L|309:6,1,149.999995422363,4|0,0:2|0:0,0:0:0:0:
306,167,1329,2,0,L|462:101,1,149.999995422363,4|0,0:2|3:0,0:0:0:0:
459,196,1662,1,0,3:0:0:0:
447,246,1773,1,0,3:0:0:0:
436,296,1885,1,0,3:0:0:0:
333,369,1996,6,0,P|279:317|259:246,1,149.999995422363,4|0,0:2|0:0,0:0:0:0:
189,371,2329,2,0,P|260:350|332:368,1,149.999995422363,4|0,0:2|0:0,0:0:0:0:
259,246,2662,2,0,P|241:317|189:371,1,149.999995422363,4|0,0:2|0:0,0:0:0:0:
57,70,3107,6,0,B|67:145|67:145|48:223,1,149.999995422363,10|0,0:2|3:0,0:0:0:0:
148,188,3440,1,0,3:0:0:0:
159,138,3551,1,2,3:2:0:0:
171,88,3662,1,0,3:0:0:0:
259,129,3773,6,0,P|325:121|398:156,1,149.999995422363,6|0,3:2|0:0,0:0:0:0:
304,263,4107,2,0,P|264:209|258:128,1,149.999995422363,6|0,0:2|0:0,0:0:0:0:
398,157,4440,2,0,P|371:218|304:263,1,149.999995422363,6|0,0:2|3:0,0:0:0:0:
228,317,4773,1,0,3:0:0:0:
178,306,4885,1,0,3:0:0:0:
128,294,4996,1,0,3:0:0:0:
178,177,5107,6,0,B|103:159|103:159|39:102,1,149.999995422363,6|0,0:2|0:0,0:0:0:0:
55,255,5440,2,0,B|107:199|107:199|188:172,1,149.999995422363,6|0,0:2|0:0,0:0:0:0:
48,110,5773,2,0,B|69:183|69:183|52:267,1,149.999995422363,6|0,0:2|0:0,0:0:0:0:
183,32,6218,6,0,P|259:56|337:45,1,149.999995422363,2|4,0:2|0:2,0:0:0:0:
433,29,6551,1,0,0:0:0:0:
405,87,6662,1,2,3:2:0:0:
395,150,6773,1,0,3:0:0:0:
403,222,6885,6,0,P|287:204|214:211,1,187.5,6|0,0:2|3:0,0:0:0:0:
64,122,7329,2,0,P|77:182|75:202,1,62.5,10|0,0:2|0:0,0:0:0:0:
0,246,7551,1,2,3:2:0:0:
0,246,7662,2,0,P|51:279|64:294,1,62.5,8|2,3:2|0:3,0:0:0:0:
174,321,7885,1,0,3:0:0:0:
174,321,7996,2,0,P|122:354|109:369,1,62.5,2|0,3:2|0:0,0:0:0:0:
270,375,8218,2,0,P|299:237|286:184,1,187.5,10|0,0:3|2:0,0:0:0:0:
191,26,8662,6,0,P|181:118|210:206,1,187.5,2|0,3:2|3:0,0:0:0:0:
332,78,9107,2,0,L|265:125,1,62.5,10|0,0:2|0:0,0:0:0:0:
447,145,9329,1,2,3:2:0:0:
447,145,9440,2,0,L|400:78,1,62.5,8|2,3:2|0:3,0:0:0:0:
380,260,9662,1,0,3:0:0:0:
380,260,9773,2,0,L|422:233,2,41.6666666666667,2|2|2,3:2|0:2|0:2,0:0:0:0:
377,288,9996,2,0,L|451:239,1,62.5,10|0,0:2|0:0,0:0:0:0:
281,312,10218,1,2,3:2:0:0:
220,335,10329,1,0,3:0:0:0:
160,325,10440,6,0,L|147:129,1,187.5,2|0,3:2|3:0,0:0:0:0:
116,11,10885,2,0,P|155:42|191:46,1,62.5,10|0,0:2|0:0,0:0:0:0:
264,27,11107,1,2,3:2:0:0:
264,27,11218,2,0,P|269:76|292:104,1,62.5,8|2,3:2|0:3,0:0:0:0:
357,142,11440,1,0,3:0:0:0:
357,142,11551,2,0,P|325:181|321:217,1,62.5,2|0,3:2|0:0,0:0:0:0:
381,338,11773,2,0,P|292:267|211:258,1,187.5,10|0,0:2|2:0,0:0:0:0:
146,115,12218,5,10,0:2:0:0:
184,371,12440,1,10,0:2:0:0:
146,115,12885,2,0,L|155:179,1,62.5,6|0,0:2|0:0,0:0:0:0:
210,46,13107,5,0,3:0:0:0:
225,43,13218,1,0,3:0:0:0:
240,41,13329,1,0,3:0:0:0:
256,39,13440,1,0,3:0:0:0:
271,36,13551,1,0,3:0:0:0:
287,34,13662,1,0,3:0:0:0:
302,32,13773,1,0,3:0:0:0:
318,30,13885,1,0,3:0:0:0:
394,59,13996,5,6,0:2:0:0:
391,81,14440,1,2,0:3:0:0:
388,103,14885,1,2,0:3:0:0:
385,125,15329,1,2,0:3:0:0:
483,175,15551,1,0,3:0:0:0:
398,247,15773,1,2,3:3:0:0:
401,269,16218,1,2,0:3:0:0:
404,291,16662,1,2,0:3:0:0:
407,313,17107,1,2,0:3:0:0:
256,338,17551,5,2,3:3:0:0:
253,316,17996,1,2,0:3:0:0:
250,294,18440,1,2,0:3:0:0:
247,272,18885,1,2,0:3:0:0:
143,334,19107,1,0,3:0:0:0:
109,228,19329,2,0,L|37:225,1,62.5,2|2,3:3|0:0,0:0:0:0:
139,126,19773,1,2,0:3:0:0:
260,198,19996,1,2,0:0:0:0:
133,143,20218,6,0,P|230:117|277:116,1,140.625005364418,10|0,0:3|2:0,0:0:0:0:
265,97,20662,2,0,P|195:102|128:124,1,140.625005364418,10|0,0:3|3:0,0:0:0:0:
313,11,21107,6,0,P|385:69|365:204,1,224.999993133545,6|0,3:2|3:0,0:0:0:0:
209,224,21551,2,0,P|270:203|303:210,1,74.9999977111817,10|0,0:3|0:0,0:0:0:0:
340,282,21773,1,2,3:2:0:0:
340,282,21885,2,0,L|332:360,1,74.9999977111817,8|2,0:2|0:3,0:0:0:0:
223,310,22107,1,0,3:0:0:0:
223,310,22218,2,0,L|231:388,1,74.9999977111817,0|0,3:0|0:0,0:0:0:0:
119,361,22440,2,0,L|96:137,1,224.999993133545,10|0,0:2|2:0,0:0:0:0:
208,17,22885,6,0,P|191:123|270:197,1,224.999993133545,2|0,3:3|3:0,0:0:0:0:
365,90,23329,2,0,P|307:84|281:100,1,74.9999977111817,10|0,0:3|0:0,0:0:0:0:
433,168,23551,1,0,3:0:0:0:
433,168,23662,2,0,L|424:263,1,74.9999977111817,8|2,0:2|0:3,0:0:0:0:
345,344,23885,1,0,3:0:0:0:
345,344,23996,2,0,L|338:270,1,74.9999977111817,0|0,3:0|0:0,0:0:0:0:
331,153,24218,1,10,0:3:0:0:
152,242,24440,1,0,3:0:0:0:
152,242,24551,1,0,3:0:0:0:
152,242,24662,6,0,B|133:86|224:179|201:24,1,224.999993133545,2|0,3:2|3:0,0:0:0:0:
38,42,25107,2,0,P|77:62|136:55,1,74.9999977111817,10|0,0:3|0:0,0:0:0:0:
16,198,25329,1,0,3:0:0:0:
16,198,25440,2,0,L|4:118,1,74.9999977111817,8|2,0:2|0:2,0:0:0:0:
52,339,25662,1,0,3:0:0:0:
52,339,25773,2,0,L|64:259,1,74.9999977111817,0|0,3:0|0:0,0:0:0:0:
202,362,25996,2,0,P|196:252|264:337,1,224.999993133545,10|0,0:2|2:0,0:0:0:0:
171,165,26440,6,0,B|293:120|256:216|388:168,1,224.999993133545,2|0,3:3|3:0,0:0:0:0:
344,18,26885,2,0,P|329:71|330:107,1,74.9999977111817,10|0,0:3|0:0,0:0:0:0:
207,29,27107,1,0,3:0:0:0:
207,29,27218,2,0,P|222:82|221:118,1,74.9999977111817,8|2,0:2|0:3,0:0:0:0:
97,72,27440,1,0,3:0:0:0:
97,72,27551,1,0,3:0:0:0:
84,126,27662,1,0,3:0:0:0:
79,182,27773,1,10,3:3:0:0:
134,185,27885,1,0,3:0:0:0:
175,222,27996,1,0,3:0:0:0:
219,254,28107,1,0,3:0:0:0:
275,256,28218,6,0,P|371:251|294:334,1,224.999993133545,6|0,3:2|3:0,0:0:0:0:
454,225,28662,2,0,L|459:151,1,74.9999977111817,10|0,0:3|0:0,0:0:0:0:
369,75,28885,1,0,3:0:0:0:
369,75,28996,2,0,L|375:165,1,74.9999977111817,8|2,0:2|0:3,0:0:0:0:
277,43,29218,1,0,3:0:0:0:
277,43,29329,2,0,L|283:133,1,74.9999977111817,0|0,3:0|0:0,0:0:0:0:
184,11,29551,2,0,B|194:179|194:179|154:116,1,224.999993133545,10|0,0:2|2:0,0:0:0:0:
106,208,29996,6,0,P|208:260|282:168,1,224.999993133545,2|0,3:3|3:0,0:0:0:0:
399,319,30440,2,0,P|352:297|303:299,1,74.9999977111817,10|0,0:3|0:0,0:0:0:0:
456,193,30662,1,0,3:0:0:0:
456,193,30773,2,0,P|474:225|479:262,1,74.9999977111817,8|2,0:2|0:3,0:0:0:0:
387,128,30996,1,0,3:0:0:0:
387,128,31107,2,0,P|368:160|363:197,1,74.9999977111817,0|0,3:0|0:0,0:0:0:0:
472,106,31329,1,10,0:3:0:0:
325,27,31551,1,0,3:0:0:0:
325,27,31662,1,0,3:0:0:0:
325,27,31773,6,0,B|200:-4|243:106|88:57,1,224.999993133545,2|0,3:2|3:0,0:0:0:0:
233,146,32218,2,0,P|220:190|220:240,1,74.9999977111817,10|0,0:3|0:0,0:0:0:0:
335,112,32440,1,2,3:2:0:0:
335,112,32551,2,0,P|348:156|348:206,1,74.9999977111817,8|2,0:2|0:3,0:0:0:0:
375,282,32773,1,0,3:0:0:0:
375,282,32885,2,0,P|331:269|281:269,1,74.9999977111817,0|0,3:0|0:0,0:0:0:0:
149,345,33107,2,0,P|225:308|127:272,1,224.999993133545,10|0,0:2|2:0,0:0:0:0:
328,367,33551,6,0,B|340:250|340:250|289:147,1,224.999993133545,2|0,3:3|2:0,0:0:0:0:
148,159,33996,2,0,P|180:177|234:178,1,74.9999977111817,10|0,0:3|0:0,0:0:0:0:
112,66,34218,2,0,P|54:168|117:261,1,224.999993133545,2|0,3:2|2:0,0:0:0:0:
91,354,34662,1,2,3:2:0:0:
129,330,34773,1,2,3:2:0:0:
171,314,34885,1,10,3:2:0:0:
215,303,34996,1,0,3:0:0:0:
259,300,35107,1,0,3:0:0:0:
304,304,35218,1,0,3:0:0:0:
382,351,35329,6,0,L|369:207,1,125,6|0,3:2|0:0,0:0:0:0:
350,380,35773,1,0,0:0:0:0:
154,222,35996,2,0,L|298:235,2,125,2|8|2,0:2|0:2|0:2,0:0:0:0:
65,115,36662,2,0,L|52:259,1,125,2|12,0:2|0:2,0:0:0:0:
33,86,37107,1,0,0:0:0:0:
245,17,37329,2,0,L|101:30,1,125,14|0,0:2|3:0,0:0:0:0:
274,49,37773,1,0,3:0:0:0:
383,15,37996,1,2,3:2:0:0:
445,185,38218,2,0,L|443:133,2,41.6666666666667,2|0|0,3:2|0:0|0:0,0:0:0:0:
474,200,38440,2,0,L|469:75,1,125,2|2,3:2|3:2,0:0:0:0:
254,209,38885,6,0,P|338:208|382:240,2,125,6|0|0,0:2|0:0|3:0,0:0:0:0:
156,322,39551,2,0,P|157:238|125:194,1,125,2|8,0:2|0:2,0:0:0:0:
136,368,39996,1,0,0:0:0:0:
279,338,40218,2,0,P|363:339|407:307,1,125,2|12,3:2|0:2,0:0:0:0:
236,306,40662,1,0,0:0:0:0:
344,100,40885,2,0,P|317:155|324:216,2,125,14|0|0,0:2|0:0|3:0,0:0:0:0:
298,254,41551,1,2,0:2:0:0:
195,150,41773,2,0,P|174:138|148:131,2,41.6666666666667,2|0|0,0:2|0:0|0:0,0:0:0:0:
213,149,41996,2,0,P|157:122|96:129,1,125,2|2,0:2|0:2,0:0:0:0:
57,321,42440,6,0,B|29:271|29:271|33:186,1,125,6|0,0:2|0:0,0:0:0:0:
41,364,42885,1,0,3:0:0:0:
177,295,43107,2,0,B|227:323|227:323|312:319,2,125,2|8|2,0:2|0:2|0:2,0:0:0:0:
261,199,43773,2,0,B|264:131|264:131|236:81,1,125,2|12,0:2|0:2,0:0:0:0:
280,242,44218,1,0,0:0:0:0:
462,161,44440,2,0,B|459:228|459:228|487:278,2,125,14|0|0,0:2|0:0|0:0,0:0:0:0:
282,115,45107,6,0,P|210:116|172:148,1,125,14|2,0:2|0:2,0:0:0:0:
84,223,45551,2,0,P|133:259|194:256,1,125,10|2,3:2|0:2,0:0:0:0:
86,55,45996,5,14,3:2:0:0:
213,130,46218,1,0,3:0:0:0:
358,90,46440,1,0,3:0:0:0:
402,82,46662,5,14,3:2:0:0:
327,209,46885,1,0,3:2:0:0:
368,354,47107,1,0,3:0:0:0:
335,346,47329,5,10,0:2:0:0:
209,271,47551,1,12,0:2:0:0:
209,271,47996,5,10,0:2:0:0:
180,70,48218,1,8,0:2:0:0:
381,42,48440,1,8,0:2:0:0:
405,242,48662,6,0,L|409:204,14,23.4375008940697,2|2|2|2|2|2|2|2|2|2|2|2|2|2|2,0:3|0:3|0:3|0:3|0:3|0:3|0:3|0:3|0:3|0:3|0:3|0:3|0:3|0:3|0:3,0:0:0:0:
294,323,49551,6,0,L|329:24,1,281.250010728836,6|2,3:2|0:2,0:0:0:0:
157,44,49996,2,0,P|202:50|249:23,1,93.7500035762788,10|2,0:2|0:2,0:0:0:0:
74,88,50218,2,0,P|101:124|153:138,1,93.7500035762788,2|2,3:2|0:2,0:0:0:0:
119,264,50440,1,2,3:2:0:0:
119,264,50551,2,0,B|116:217|200:187|269:244|227:311,1,187.500007152558,2|2,3:2|3:2,0:0:0:0:
317,169,50885,2,0,P|339:238|328:365,1,187.500007152558,10|2,0:2|3:2,0:0:0:0:
417,237,51218,1,2,0:2:0:0:
235,92,51329,6,0,B|469:74|469:74|437:109,1,281.250010728836,2|2,3:2|0:2,0:0:0:0:
298,263,51773,2,0,L|292:168,1,93.7500035762788,10|2,3:2|0:2,0:0:0:0:
395,299,51996,2,0,L|401:204,1,93.7500035762788,2|2,3:2|0:2,0:0:0:0:
316,364,52218,1,2,3:2:0:0:
185,348,52329,2,0,P|238:341|286:342,1,93.7500035762788,2|2,3:2|3:2,0:0:0:0:
86,249,52551,1,2,3:2:0:0:
217,233,52662,2,0,P|164:226|116:227,1,93.7500035762788,10|2,0:2|0:2,0:0:0:0:
217,143,52885,2,0,L|223:48,1,93.7500035762788,2|2,3:2|0:2,0:0:0:0:
379,21,53107,6,0,B|426:108|433:152|390:209|340:208|303:167|320:100|398:116|398:134,1,281.250010728836,6|2,3:2|0:2,0:0:0:0:
421,253,53551,2,0,P|373:264|324:257,1,93.7500035762788,10|2,0:2|0:2,0:0:0:0:
216,339,53773,2,0,P|262:333|307:344,1,93.7500035762788,2|2,3:2|0:2,0:0:0:0:
123,357,53996,1,2,3:2:0:0:
123,357,54107,2,0,B|89:324|89:324|80:234|80:234|113:182,1,187.500007152558,2|2,3:2|3:2,0:0:0:0:
212,312,54440,2,0,L|209:218,1,93.7500035762788,10|2,0:2|0:2,0:0:0:0:
316,107,54662,2,0,L|313:201,1,93.7500035762788,2|2,3:2|0:2,0:0:0:0:
465,246,54885,6,0,B|425:307|425:307|435:89,1,281.250010728836,6|2,3:2|0:2,0:0:0:0:
314,31,55329,2,0,P|364:36|411:8,1,93.7500035762788,10|2,3:2|0:2,0:0:0:0:
201,98,55551,2,0,P|251:93|298:121,1,93.7500035762788,2|2,3:2|0:2,0:0:0:0:
140,186,55773,1,2,3:2:0:0:
163,313,55885,2,0,L|157:199,1,93.7500035762788,2|2,3:2|3:2,0:0:0:0:
316,218,56107,1,2,3:2:0:0:
293,345,56218,2,0,L|299:231,1,93.7500035762788,10|2,0:2|0:2,0:0:0:0:
243,86,56440,2,0,L|237:200,1,93.7500035762788,2|2,3:2|0:2,0:0:0:0:
159,14,56662,6,0,L|142:336,1,281.250010728836,6|2,3:2|0:2,0:0:0:0:
67,339,57107,2,0,P|99:375|144:384,1,93.7500035762788,10|2,0:2|0:2,0:0:0:0:
218,355,57329,1,2,3:2:0:0:
257,277,57440,1,2,0:2:0:0:
353,276,57551,2,0,B|377:318|345:362|345:362|295:319|302:254|339:163,1,281.250010728836,2|2,3:2|3:2,0:0:0:0:
495,184,57996,2,0,P|457:214|396:208,1,93.7500035762788,10|2,0:2|0:2,0:0:0:0:
319,81,58218,2,0,P|365:83|400:112,1,93.7500035762788,2|2,3:2|0:2,0:0:0:0:
256,11,58440,6,0,P|389:6|496:103,1,281.250010728836,6|2,3:2|0:2,0:0:0:0:
322,174,58885,2,0,L|318:66,1,93.7500035762788,10|2,0:2|0:2,0:0:0:0:
406,264,59107,2,0,L|410:156,1,93.7500035762788,2|2,3:2|0:2,0:0:0:0:
277,252,59329,1,2,3:2:0:0:
143,242,59440,2,0,P|211:225|247:226,1,93.7500035762788,2|2,3:2|3:2,0:0:0:0:
267,350,59662,1,2,3:2:0:0:
133,340,59773,2,0,P|201:323|237:324,1,93.7500035762788,10|2,3:2|0:2,0:0:0:0:
231,131,59996,2,0,L|234:224,1,93.7500035762788,2|2,3:2|0:2,0:0:0:0:
315,43,60218,6,0,B|168:-22|184:98|39:25,1,281.250010728836,6|2,3:2|0:2,0:0:0:0:
193,193,60662,1,10,0:2:0:0:
87,126,60773,2,0,L|92:226,1,93.7500035762788,2|2,0:2|3:2,0:0:0:0:
48,315,60996,1,2,0:2:0:0:
139,382,61107,2,0,B|195:365|209:331|213:296|213:296|284:246|366:341,1,281.250010728836,2|2,3:2|3:2,0:0:0:0:
168,215,61551,2,0,P|219:191|277:189,1,93.7500035762788,10|2,3:2|0:2,0:0:0:0:
418,265,61773,2,0,P|378:225|324:203,1,93.7500035762788,2|2,3:2|0:2,0:0:0:0:
168,26,61996,6,0,L|173:126,1,81.2499962806703,6|2,3:2|0:2,0:0:0:0:
84,45,62218,2,0,L|89:145,1,81.2499962806703,2|2,3:2|0:2,0:0:0:0:
86,302,62440,2,0,L|91:202,1,81.2499962806703,14|2,3:2|0:2,0:0:0:0:
170,321,62662,2,0,L|175:221,1,81.2499962806703,6|2,3:2|0:2,0:0:0:0:
355,203,62885,5,2,3:2:0:0:
355,203,63107,5,2,3:2:0:0:
322,270,63218,1,2,3:2:0:0:
320,289,63329,5,10,3:2:0:0:
360,209,63440,1,2,3:2:0:0:
297,140,63551,1,2,3:2:0:0:
337,60,63662,1,2,3:2:0:0:
462,151,63773,6,0,L|163:116,1,281.250010728836,6|2,3:2|0:2,0:0:0:0:
107,19,64218,2,0,L|89:168,1,93.7500035762788,10|2,0:2|0:2,0:0:0:0:
17,246,64440,2,0,L|34:96,1,93.7500035762788,2|2,3:2|0:2,0:0:0:0:
223,335,64662,1,2,3:2:0:0:
223,335,64773,2,0,B|125:285|131:364|29:320,1,187.500007152558,2|2,3:2|3:2,0:0:0:0:
209,157,65107,2,0,P|224:200|224:253,1,93.7500035762788,10|2,0:2|0:2,0:0:0:0:
347,288,65329,2,0,P|347:241|362:197,1,93.7500035762788,2|2,3:2|0:2,0:0:0:0:
454,88,65551,6,0,B|464:348|464:348|445:323|429:337,1,281.250010728836,2|2,3:2|0:2,0:0:0:0:
274,214,65996,2,0,P|316:196|371:200,1,93.7500035762788,10|2,3:2|0:2,0:0:0:0:
301,325,66218,2,0,P|254:326|211:308,1,93.7500035762788,2|2,3:2|0:2,0:0:0:0:
122,189,66440,1,2,3:2:0:0:
101,328,66551,2,0,L|94:217,1,93.7500035762788,2|2,3:2|3:2,0:0:0:0:
52,110,66773,1,2,3:2:0:0:
191,89,66885,2,0,L|80:82,1,93.7500035762788,10|2,0:2|0:2,0:0:0:0:
267,142,67107,2,0,P|282:89|273:47,1,93.7500035762788,2|2,3:2|0:2,0:0:0:0:
424,16,67329,6,0,P|380:146|432:273,1,281.250010728836,6|2,3:2|0:2,0:0:0:0:
314,217,67773,2,0,P|266:228|217:221,1,93.7500035762788,10|2,0:2|0:2,0:0:0:0:
214,341,67996,2,0,P|260:335|305:346,1,93.7500035762788,2|2,3:2|0:2,0:0:0:0:
117,351,68218,1,2,3:2:0:0:
117,351,68329,2,0,B|107:282|107:282|93:252|93:252|85:148,1,187.500007152558,2|2,3:2|3:2,0:0:0:0:
183,135,68662,2,0,B|189:219|189:219|203:249|203:249|213:318,1,187.500007152558,10|2,0:2|3:2,0:0:0:0:
272,181,68996,1,2,0:2:0:0:
374,221,69107,6,0,P|478:206|374:146,1,281.250010728836,6|2,3:2|0:2,0:0:0:0:
291,31,69551,2,0,L|388:8,1,93.7500035762788,10|2,3:2|0:2,0:0:0:0:
192,105,69773,2,0,L|289:128,1,93.7500035762788,2|2,3:2|0:2,0:0:0:0:
107,145,69996,1,2,3:2:0:0:
106,274,70107,2,0,P|88:221|100:160,1,93.7500035762788,2|2,3:2|3:2,0:0:0:0:
228,208,70329,1,2,3:2:0:0:
229,337,70440,2,0,P|247:284|235:223,1,93.7500035762788,10|2,0:2|0:2,0:0:0:0:
429,209,70662,2,0,L|315:203,1,93.7500035762788,2|2,3:2|0:2,0:0:0:0:
435,85,70885,6,0,B|486:117|486:117|262:106,1,281.250010728836,6|2,3:2|0:2,0:0:0:0:
200,28,71329,1,10,0:2:0:0:
43,80,71440,2,0,P|89:95|132:80,1,93.7500035762788,2|2,0:2|3:2,0:0:0:0:
191,173,71662,1,2,3:2:0:0:
27,292,71773,2,0,L|23:191,1,93.7500035762788,2|2,0:2|3:2,0:0:0:0:
118,327,71996,2,0,L|114:226,1,93.7500035762788,2|2,0:2|0:2,0:0:0:0:
330,351,72218,2,0,B|359:280|289:229|289:229|200:259|211:339,1,281.250010728836,10|2,3:2|0:2,0:0:0:0:
435,373,72662,6,0,P|433:235|314:127,1,281.250010728836,6|2,3:2|0:2,0:0:0:0:
238,193,73107,2,0,L|234:85,1,93.7500035762788,10|2,0:2|0:2,0:0:0:0:
149,203,73329,2,0,L|145:95,1,93.7500035762788,14|2,3:2|0:2,0:0:0:0:
202,372,73551,2,0,L|198:278,1,93.7500035762788,2|2,3:2|3:2,0:0:0:0:
112,382,73773,2,0,L|108:288,1,93.7500035762788,2|2,3:2|3:2,0:0:0:0:
310,331,73996,5,10,3:2:0:0:
346,255,74107,1,2,3:2:0:0:
343,172,74218,1,2,3:2:0:0:
300,100,74329,1,2,3:2:0:0:
230,32,74440,6,0,P|340:58|393:58,2,162.499992561341,14|2|2,3:2|3:2|3:2,0:0:0:0:
218,143,75107,2,0,P|108:169|1:164,2,162.499992561341,14|2|2,3:2|3:2|3:2,0:0:0:0:
322,259,75773,2,0,L|318:158,1,93.7500035762788,10|2,3:2|3:2,0:0:0:0:
36,311,76218,6,0,P|161:309|237:332,2,162.499992561341,14|2|0,3:2|3:2|3:0,0:0:0:0:
123,187,76885,2,0,P|214:166|308:173,1,162.499992561341,14|2,3:2|3:2,0:0:0:0:
452,41,77329,2,0,L|446:108,1,62.5,0|0,3:0|3:0,0:0:0:0:
480,27,77551,1,2,3:2:0:0:
476,73,77662,1,0,3:0:0:0:
472,120,77773,1,2,3:2:0:0:
468,167,77885,1,0,3:0:0:0:
464,214,77996,6,0,P|380:266|319:327,2,162.499992561341,14|2|2,3:2|3:2|3:2,0:0:0:0:
126,272,78662,2,0,P|210:324|271:385,2,162.499992561341,14|2|2,3:2|3:2|3:2,0:0:0:0:
295,231,79329,2,0,P|291:132|269:48,2,162.499992561341,14|2|0,3:2|3:2|3:0,0:0:0:0:
124,90,79996,6,0,L|194:86,1,62.5,8|0,3:2|0:0,0:0:0:0:
110,196,80218,2,0,L|40:192,1,62.5,8|0,3:2|0:0,0:0:0:0:
190,274,80440,1,0,3:0:0:0:
205,228,80551,1,0,3:0:0:0:
199,183,80662,1,0,3:0:0:0:
264,321,80885,1,8,3:2:0:0:
284,277,80996,1,0,3:0:0:0:
295,231,81107,1,0,3:0:0:0:
294,186,81218,1,0,3:0:0:0:
283,140,81329,2,0,P|265:116|239:95,1,62.5,0|0,3:0|3:0,0:0:0:0:
142,35,81551,6,0,L|152:226,1,187.500007152558,6|0,3:2|0:0,0:0:0:0:
56,88,82218,2,0,L|61:191,1,93.7500035762788,2|0,0:3|0:0,0:0:0:0:
44,300,82662,6,0,B|126:263|113:340|215:286,2,162.499992561341,2|8|2,0:2|0:2|0:2,0:0:0:0:
295,367,83329,6,0,L|305:176,1,187.500007152558,2|0,0:3|0:0,0:0:0:0:
387,322,83996,2,0,L|392:218,1,93.7500035762788,2|0,0:3|0:0,0:0:0:0:
434,94,84440,6,0,B|352:57|365:134|263:80,1,162.499992561341,6|0,0:2|0:0,0:0:0:0:
236,69,84773,1,4,0:2:0:0:
236,69,84885,1,0,0:0:0:0:
269,184,85107,6,0,L|128:191,1,140.625005364418,2|8,3:3|0:0,0:0:0:0:
80,195,85551,1,0,0:0:0:0:
264,268,85773,2,0,L|150:273,1,93.7500035762788,2|2,0:3|0:2,0:0:0:0:
359,315,86218,6,0,B|396:233|319:246|373:144,1,162.499992561341,2|0,0:2|3:0,0:0:0:0:
384,117,86551,1,0,3:0:0:0:
384,117,86662,1,0,3:0:0:0:
274,51,86885,6,0,L|267:192,1,140.625005364418,2|0,0:3|2:0,0:0:0:0:
263,240,87329,1,0,0:0:0:0:
190,56,87551,2,0,L|185:170,1,93.7500035762788,2|0,0:3|0:0,0:0:0:0:
179,267,87996,1,0,3:0:0:0:
234,360,88218,5,0,3:0:0:0:
279,348,88329,1,0,3:0:0:0:
323,360,88440,1,0,3:0:0:0:
369,364,88551,1,0,3:0:0:0:
413,348,88662,6,0,P|436:275|325:293,1,224.999993133545,6|0,3:2|3:0,0:0:0:0:
260,100,89107,2,0,P|278:153|278:187,1,74.9999977111817,10|0,0:3|0:0,0:0:0:0:
130,121,89329,1,0,3:0:0:0:
130,121,89440,2,0,P|180:145|204:169,1,74.9999977111817,8|2,0:2|0:3,0:0:0:0:
52,227,89662,1,0,3:0:0:0:
52,227,89773,2,0,P|105:208|139:209,1,74.9999977111817,0|0,3:0|0:0,0:0:0:0:
68,322,89996,2,0,B|185:266|151:367|287:308,1,224.999993133545,10|0,0:3|2:0,0:0:0:0:
378,200,90440,6,0,B|367:361|367:361|398:305,1,224.999993133545,2|0,3:3|3:0,0:0:0:0:
446,150,90885,2,0,P|413:119|372:119,1,74.9999977111817,10|0,0:3|0:0,0:0:0:0:
256,75,91107,1,0,3:0:0:0:
256,75,91218,2,0,P|292:68|317:40,1,74.9999977111817,8|2,0:2|0:3,0:0:0:0:
147,106,91440,1,0,3:0:0:0:
147,106,91551,2,0,P|167:75|166:38,1,74.9999977111817,0|0,3:0|0:0,0:0:0:0:
220,160,91773,1,10,0:3:0:0:
297,303,91996,1,0,3:0:0:0:
297,303,92107,1,0,3:0:0:0:
297,303,92218,6,0,B|204:323|204:323|191:343|191:343|74:364,1,224.999993133545,2|0,3:3|3:0,0:0:0:0:
38,206,92662,2,0,L|51:289,1,74.9999977111817,10|0,0:3|0:0,0:0:0:0:
148,157,92885,1,0,3:0:0:0:
148,157,92996,2,0,L|135:240,1,74.9999977111817,8|2,0:2|0:3,0:0:0:0:
236,106,93218,1,0,3:0:0:0:
236,106,93329,2,0,L|249:189,1,74.9999977111817,0|0,3:0|0:0,0:0:0:0:
221,279,93551,2,0,P|272:199|395:200,1,224.999993133545,10|0,0:3|3:0,0:0:0:0:
472,355,93996,6,0,B|427:233|523:270|475:138,1,224.999993133545,2|0,3:3|3:0,0:0:0:0:
408,33,94440,2,0,P|393:86|394:122,1,74.9999977111817,10|0,0:3|0:0,0:0:0:0:
229,47,94662,1,0,3:0:0:0:
229,47,94773,2,0,P|282:62|318:61,1,74.9999977111817,8|2,0:2|0:3,0:0:0:0:
121,67,94996,1,0,0:0:0:0:
121,67,95107,1,0,3:0:0:0:
108,121,95218,1,0,3:0:0:0:
103,177,95329,1,10,3:3:0:0:
150,151,95440,1,0,3:0:0:0:
200,173,95551,1,0,3:0:0:0:
213,225,95662,1,0,3:0:0:0:
179,268,95773,6,0,B|299:237|269:338|391:305,1,224.999993133545,6|0,3:2|3:0,0:0:0:0:
220,356,96218,2,0,L|131:345,1,74.9999977111817,10|0,0:3|0:0,0:0:0:0:
66,225,96440,1,0,3:0:0:0:
66,225,96551,2,0,L|55:314,1,74.9999977111817,8|2,0:2|0:3,0:0:0:0:
163,176,96773,1,0,3:0:0:0:
163,176,96885,2,0,L|174:265,1,74.9999977111817,0|0,3:0|0:0,0:0:0:0:
271,299,97107,2,0,L|243:75,1,224.999993133545,10|0,0:3|3:3,0:0:0:0:
357,25,97551,6,0,B|405:61|405:61|402:226,1,224.999993133545,2|0,3:3|3:0,0:0:0:0:
236,122,97996,2,0,P|283:102|321:110,1,74.9999977111817,10|0,0:3|0:0,0:0:0:0:
164,182,98218,1,0,3:0:0:0:
164,182,98329,2,0,P|117:162|79:170,1,74.9999977111817,8|2,0:2|0:3,0:0:0:0:
217,258,98551,1,0,3:0:0:0:
217,258,98662,2,0,P|170:278|132:270,1,74.9999977111817,0|0,3:0|3:0,0:0:0:0:
310,290,98885,1,10,0:3:0:0:
367,124,99107,1,0,3:0:0:0:
367,124,99218,1,0,3:0:0:0:
367,124,99329,6,0,B|186:114|186:114|244:142,1,224.999993133545,2|0,3:3|3:0,0:0:0:0:
285,280,99773,2,0,L|289:195,1,74.9999977111817,10|0,0:3|0:0,0:0:0:0:
371,291,99996,1,0,3:0:0:0:
371,291,100107,2,0,L|375:206,1,74.9999977111817,8|2,0:2|0:3,0:0:0:0:
457,302,100329,1,0,3:0:0:0:
457,302,100440,2,0,L|461:217,1,74.9999977111817,0|0,3:0|0:0,0:0:0:0:
488,107,100662,2,0,P|399:128|459:54,1,224.999993133545,10|0,0:3|3:0,0:0:0:0:
309,137,101107,6,0,B|209:130|209:130|191:101|191:101|88:93,1,224.999993133545,2|0,3:3|3:0,0:0:0:0:
195,214,101551,2,0,L|288:219,1,74.9999977111817,10|0,0:3|0:0,0:0:0:0:
382,251,101773,1,0,3:0:0:0:
382,251,101885,2,0,P|393:154|421:101,1,149.999995422363,8|0,0:2|0:0,0:0:0:0:
389,18,102218,1,0,3:0:0:0:
351,42,102329,1,0,3:0:0:0:
309,58,102440,1,10,3:3:0:0:
265,69,102551,1,0,3:0:0:0:
221,72,102662,1,0,3:0:0:0:
176,68,102773,1,0,3:0:0:0:
131,8,102885,6,0,P|105:42|110:104,1,93.7500035762788,6|0,3:2|0:0,0:0:0:0:
235,134,103218,2,0,P|218:94|162:67,1,93.7500035762788,2|0,3:2|2:0,0:0:0:0:
73,161,103551,1,2,3:2:0:0:
194,204,103773,2,0,B|289:242|269:156|382:199,1,187.500007152558,10|0,3:2|0:0,0:0:0:0:
427,379,104440,2,0,L|422:251,1,125,10|0,3:2|0:0,0:0:0:0:
334,384,104885,2,0,L|328:255,1,125,2|8,3:2|0:0,0:0:0:0:
241,362,105329,1,2,3:2:0:0:
241,362,105551,5,2,3:2:0:0:
239,338,105662,1,0,3:0:0:0:
238,315,105773,1,0,3:0:0:0:
237,291,105885,1,0,3:0:0:0:
235,268,105996,1,0,3:0:0:0:
234,244,106107,1,0,3:0:0:0:
233,221,106218,1,0,3:0:0:0:
231,198,106329,1,0,3:0:0:0:
230,174,106440,6,0,P|270:134|328:135,1,93.7500035762788,6|0,3:2|0:0,0:0:0:0:
379,256,106773,2,0,P|324:241|296:190,1,93.7500035762788,2|0,3:2|3:0,0:0:0:0:
391,92,107107,1,2,3:2:0:0:
496,142,107329,2,0,B|491:294|491:294|462:233,1,187.500007152558,10|0,3:2|3:0,0:0:0:0:
283,316,107996,2,0,L|389:296,1,93.7500035762788,10|0,3:2|3:0,0:0:0:0:
227,233,108440,2,0,L|333:213,1,93.7500035762788,10|8,3:2|3:2,0:0:0:0:
177,322,108885,1,2,3:2:0:0:
177,322,109107,5,2,3:2:0:0:
156,311,109218,1,0,3:0:0:0:
138,296,109329,1,0,3:0:0:0:
125,276,109440,1,0,3:0:0:0:
118,254,109551,1,0,3:0:0:0:
117,230,109662,1,0,3:0:0:0:
123,208,109773,1,0,3:0:0:0:
134,187,109885,1,0,3:0:0:0:
151,170,109996,6,0,P|210:176|245:157,1,93.7500035762788,6|0,3:2|0:0,0:0:0:0:
227,15,110329,2,0,P|192:63|191:102,1,93.7500035762788,2|0,3:2|3:0,0:0:0:0:
323,158,110662,1,2,3:2:0:0:
265,275,110885,2,0,B|178:264|178:264|164:270|164:270|67:258,1,187.500007152558,10|0,3:2|0:0,0:0:0:0:
169,360,111551,2,0,L|53:348,1,93.7500035762788,14|0,3:2|0:0,0:0:0:0:
257,366,111996,2,0,L|350:375,1,93.7500035762788,2|12,3:2|0:2,0:0:0:0:
377,287,112440,1,2,3:2:0:0:
377,287,112662,5,2,3:2:0:0:
379,263,112773,1,0,3:0:0:0:
381,240,112885,1,2,3:2:0:0:
383,216,112996,1,0,3:0:0:0:
385,193,113107,1,2,3:2:0:0:
387,170,113218,1,0,3:0:0:0:
389,146,113329,1,0,3:0:0:0:
391,123,113440,1,0,3:0:0:0:
393,101,113551,5,14,3:2:0:0:
203,55,113773,1,0,3:0:0:0:
203,55,113885,1,0,3:0:0:0:
203,55,113996,1,0,3:0:0:0:
312,199,114218,5,12,3:2:0:0:
122,245,114440,1,0,3:0:0:0:
122,245,114551,1,0,3:0:0:0:
122,245,114662,1,0,3:0:0:0:
285,70,114885,5,0,3:0:0:0:
255,305,115107,1,14,0:2:0:0:
255,305,115551,5,10,0:2:0:0:
129,135,115773,1,10,0:2:0:0:
378,220,115996,1,10,0:2:0:0:
255,305,116218,5,6,3:2:0:0:
276,305,116329,1,2,3:2:0:0:
296,306,116440,1,2,3:2:0:0:
316,307,116551,1,2,3:2:0:0:
364,342,116662,1,2,3:2:0:0:
355,289,116773,1,0,3:0:0:0:
386,247,116885,1,0,3:0:0:0:
438,238,116996,1,0,3:0:0:0:
440,111,117107,6,0,P|373:157|255:139,1,206.250006294251,6|2,3:2|0:2,0:0:0:0:
156,67,117551,2,0,P|174:113|175:152,1,68.7500020980836,10|2,0:2|0:2,0:0:0:0:
77,125,117773,1,2,0:2:0:0:
77,125,117885,2,0,P|59:171|59:278,1,137.500004196167,10|2,0:2|0:2,0:0:0:0:
80,339,118218,2,0,L|163:325,1,68.7500020980836,2|2,3:2|0:2,0:0:0:0:
224,349,118440,1,10,0:2:0:0:
441,220,118662,1,2,0:2:0:0:
375,199,118773,1,2,0:2:0:0:
307,191,118885,5,2,3:2:0:0:
240,206,118996,1,2,0:2:0:0:
171,211,119107,1,2,0:2:0:0:
127,206,119218,1,2,0:2:0:0:
95,174,119329,1,10,0:2:0:0:
87,141,119440,1,2,0:2:0:0:
94,107,119551,1,2,0:2:0:0:
114,79,119662,1,10,0:2:0:0:
142,60,119773,1,2,0:2:0:0:
175,53,119885,1,2,0:2:0:0:
209,57,119996,1,2,3:2:0:0:
231,63,120107,1,2,0:2:0:0:
254,66,120218,1,10,0:2:0:0:
277,66,120329,1,2,0:2:0:0:
299,61,120440,1,2,0:2:0:0:
321,54,120551,1,2,0:2:0:0:
343,44,120662,6,0,P|329:106|343:198,1,137.500004196167,2|2,3:2|0:2,0:0:0:0:
420,285,120996,2,0,P|380:254|325:290,1,68.7500020980836,2|10,0:2|0:2,0:0:0:0:
344,349,121218,2,0,L|183:304,1,137.500004196167,2|8,0:2|0:2,0:0:0:0:
113,211,121551,1,0,0:0:0:0:
113,211,121662,2,0,L|135:292,1,68.7500020980836,2|0,0:2|3:0,0:0:0:0:
59,344,121885,2,0,L|21:211,1,137.500004196167,2|0,3:2|2:0,0:0:0:0:
137,97,122218,2,0,P|103:115|45:108,1,68.7500020980836,2|0,0:2|0:0,0:0:0:0:
203,14,122440,6,0,B|240:39|240:39|250:207,1,206.250006294251,2|0,3:2|2:0,0:0:0:0:
242,314,122885,1,10,0:2:0:0:
280,271,122996,1,2,0:2:0:0:
298,325,123107,2,0,P|189:308|264:202,1,275.000008392334,2|0,0:2|3:0,0:0:0:0:
159,58,123662,1,0,0:0:0:0:
159,58,123773,2,0,L|163:132,1,68.7500020980836,8|0,0:2|0:0,0:0:0:0:
264,75,123996,2,0,L|260:1,1,68.7500020980836
388,20,124218,5,6,3:2:0:0:
421,16,124329,1,2,0:2:0:0:
453,27,124440,1,2,0:2:0:0:
477,52,124551,1,2,0:2:0:0:
487,84,124662,1,10,0:2:0:0:
481,118,124773,1,2,0:2:0:0:
461,145,124885,1,2,0:2:0:0:
430,161,124996,1,10,0:2:0:0:
396,161,125107,1,2,0:2:0:0:
440,185,125218,1,2,0:2:0:0:
468,228,125329,1,2,3:2:0:0:
472,279,125440,1,2,0:2:0:0:
453,326,125551,1,10,0:2:0:0:
413,358,125662,1,2,0:2:0:0:
363,368,125773,1,2,0:2:0:0:
314,354,125885,1,2,0:2:0:0:
286,303,125996,5,6,3:2:0:0:
246,302,126107,1,2,0:2:0:0:
205,302,126218,1,2,0:2:0:0:
163,303,126329,1,2,0:2:0:0:
185,259,126440,5,10,0:2:0:0:
135,258,126551,1,2,0:2:0:0:
84,256,126662,1,2,0:2:0:0:
34,255,126773,1,10,0:2:0:0:
74,225,126885,5,2,0:2:0:0:
73,184,126996,1,2,0:2:0:0:
105,155,127107,1,2,3:2:0:0:
105,109,127218,1,2,0:2:0:0:
61,60,127329,5,10,0:2:0:0:
111,59,127440,1,2,0:2:0:0:
162,58,127551,1,2,0:2:0:0:
213,57,127662,1,2,0:2:0:0:
224,20,127773,5,6,3:2:0:0:
280,2,127885,1,2,0:2:0:0:
335,24,127996,1,2,0:2:0:0:
365,75,128107,1,2,0:2:0:0:
358,134,128218,1,10,0:2:0:0:
348,189,128329,1,2,0:2:0:0:
364,242,128440,1,2,0:2:0:0:
378,293,128551,1,10,0:2:0:0:
350,332,128662,1,2,0:2:0:0:
308,358,128773,1,2,0:2:0:0:
260,359,128885,1,2,3:2:0:0:
217,335,128996,1,2,0:2:0:0:
199,302,129107,1,10,0:2:0:0:
201,265,129218,1,2,0:2:0:0:
221,234,129329,1,2,0:2:0:0:
252,217,129440,1,2,0:2:0:0:
286,221,129551,6,0,P|221:193|272:125,1,162.499992561341,12|0,3:2|3:0,0:0:0:0:
392,184,129885,2,0,L|402:95,1,81.2499962806703,2|0,3:2|0:0,0:0:0:0:
449,317,130107,2,0,L|286:298,1,162.499992561341,2|2,0:2|0:2,0:0:0:0:
47,198,130440,5,0,3:0:0:0:
99,164,130551,1,0,3:0:0:0:
142,197,130662,1,0,3:0:0:0:
200,161,130773,1,0,3:0:0:0:
247,198,130885,1,0,3:0:0:0:
310,159,130996,1,0,3:0:0:0:
378,200,131107,1,0,3:0:0:0:
446,156,131218,1,0,3:0:0:0:
334,139,138440,5,6,3:2:0:0:
174,243,138662,1,2,3:2:0:0:
350,127,138885,1,2,3:2:0:0:
157,254,139107,1,2,3:2:0:0:
369,114,139329,1,2,3:2:0:0:
138,266,139551,1,2,3:2:0:0:
392,101,139773,1,2,3:2:0:0:
115,281,139996,1,2,3:2:0:0:
334,243,140218,5,2,3:2:0:0:
174,139,140440,1,2,3:2:0:0:
350,254,140662,1,2,3:2:0:0:
157,127,140885,1,2,3:2:0:0:
369,266,141107,1,2,3:2:0:0:
138,114,141329,1,2,3:2:0:0:
392,281,141551,1,2,3:2:0:0:
115,101,141773,1,2,3:2:0:0:
370,19,141996,6,0,P|433:65|303:91,1,281.250010728836,10|10,3:2|3:2,0:0:0:0:
301,87,142773,1,0,3:0:0:0:
207,114,142996,1,0,3:0:0:0:
207,114,143107,1,10,3:2:0:0:
77,41,143329,2,0,P|94:109|98:197,1,140.625005364418,10|0,3:2|3:0,0:0:0:0:
64,253,143773,6,0,P|158:233|207:237,2,137.500004196167,6|2|2,3:2|3:2|3:2,0:0:0:0:
301,368,144440,2,0,P|207:348|158:352,2,137.500004196167,6|2|0,3:2|0:2|3:0,0:0:0:0:
335,325,144996,1,0,3:0:0:0:
347,285,145107,1,0,3:0:0:0:
354,245,145218,1,0,3:0:0:0:
354,203,145329,1,0,3:0:0:0:
347,163,145440,1,0,3:0:0:0:
333,124,145551,6,0,B|431:129|431:129|509:78,1,187.500007152558,6|2,3:2|0:3,0:0:0:0:
354,245,146218,1,0,3:0:0:0:
354,245,146440,2,0,B|256:249|256:249|178:198,1,187.500007152558,10|2,0:2|3:3,0:0:0:0:
91,51,147107,2,0,L|95:108,1,46.8750017881394,0|0,3:0|3:0,0:0:0:0:
72,34,147329,2,0,L|85:229,1,187.500007152558,2|2,3:2|0:3,0:0:0:0:
30,344,147996,1,0,3:0:0:0:
30,344,148218,2,0,L|217:357,1,187.500007152558,10|2,0:2|0:3,0:0:0:0:
369,324,148885,2,0,P|380:303|387:278,1,46.8750017881394,0|0,3:0|3:0,0:0:0:0:
382,337,149107,6,0,P|408:258|376:153,1,187.500007152558,6|2,3:2|0:3,0:0:0:0:
207,70,149773,1,0,3:0:0:0:
207,70,149996,2,0,P|180:148|212:254,1,187.500007152558,10|2,0:2|3:3,0:0:0:0:
466,164,150662,2,0,L|409:168,1,46.8750017881394,2|0,3:2|3:0,0:0:0:0:
492,143,150885,2,0,P|421:159|294:154,1,187.500007152558,2|2,3:2|0:3,0:0:0:0:
152,68,151551,1,2,3:2:0:0:
152,68,151773,2,0,P|165:124|161:225,1,140.625005364418,10|0,0:2|3:0,0:0:0:0:
139,248,152218,1,2,3:3:0:0:
189,244,152329,1,0,3:3:0:0:
209,292,152440,1,0,3:0:0:0:
168,325,152551,1,0,3:0:0:0:
125,296,152662,6,0,B|237:257|216:337|310:297,1,187.500007152558,2|2,3:2|0:3,0:0:0:0:
410,153,153329,1,2,3:2:0:0:
410,153,153551,2,0,B|371:242|451:221|412:333,1,187.500007152558,10|2,0:2|3:3,0:0:0:0:
245,353,154218,2,0,L|188:349,1,46.8750017881394,2|0,3:2|3:0,0:0:0:0:
255,364,154440,2,0,L|60:351,1,187.500007152558,2|2,3:2|0:3,0:0:0:0:
30,244,155107,1,2,3:2:0:0:
30,244,155329,1,10,3:2:0:0:
153,159,155551,1,0,3:0:0:0:
153,159,155662,1,0,3:0:0:0:
153,159,155773,1,2,3:3:0:0:
108,166,155885,1,0,0:0:0:0:
77,134,155996,1,2,3:2:0:0:
86,90,156107,1,2,3:2:0:0:
127,72,156218,5,14,3:2:0:0:
160,286,156440,1,2,3:2:0:0:
160,286,156551,1,2,3:2:0:0:
160,286,156662,1,2,3:2:0:0:
329,124,156885,5,14,3:2:0:0:
310,335,157107,1,2,3:2:0:0:
310,335,157218,1,2,3:2:0:0:
310,335,157329,1,2,3:2:0:0:
152,178,157551,5,10,0:2:0:0:
405,200,157773,1,14,0:2:0:0:
405,200,158218,5,10,0:2:0:0:
191,306,158440,1,10,0:2:0:0:
211,64,158662,1,10,0:2:0:0:
297,283,158885,6,0,L|299:243,14,23.4375008940697,2|2|2|2|2|2|2|2|2|2|2|2|2|2|2,0:3|0:3|0:3|0:3|0:3|0:3|0:3|0:3|0:3|0:3|0:3|0:3|0:3|0:3|0:3,0:0:0:0:
224,93,159773,5,6,3:2:0:0:
217,142,163107,6,0,L|222:89,1,46.8750017881394
109,28,163329,6,0,B|74:134|74:134|93:232|93:232|119:151,1,281.250010728836,6|2,3:2|0:2,0:0:0:0:
45,306,163773,2,0,P|93:317|138:300,1,93.7500035762788,10|2,0:2|0:2,0:0:0:0:
304,366,163996,2,0,P|256:355|211:372,1,93.7500035762788,2|2,3:2|0:2,0:0:0:0:
356,249,164218,1,2,3:2:0:0:
356,249,164329,2,0,P|469:233|409:175,1,187.500007152558,2|2,3:2|3:2,0:0:0:0:
270,58,164662,2,0,P|242:173|262:257,1,187.500007152558,10|2,0:2|3:2,0:0:0:0:
176,292,164996,1,2,0:2:0:0:
56,178,165107,6,0,B|202:240|169:89|330:170,1,281.250010728836,6|2,3:2|0:2,0:0:0:0:
142,19,165551,2,0,P|128:65|133:138,1,93.7500035762788,10|2,3:2|0:2,0:0:0:0:
247,224,165773,2,0,P|261:269|262:316,1,93.7500035762788,2|2,3:2|0:2,0:0:0:0:
157,350,165996,1,2,3:2:0:0:
17,322,166107,2,0,L|125:316,1,93.7500035762788,2|2,3:2|3:2,0:0:0:0:
157,185,166329,1,2,3:2:0:0:
17,213,166440,2,0,L|125:219,1,93.7500035762788,10|2,0:2|0:2,0:0:0:0:
104,35,166662,2,0,P|83:82|97:123,1,93.7500035762788,2|2,3:2|0:2,0:0:0:0:
207,47,166885,6,0,P|245:178|184:302,1,281.250010728836,6|2,3:2|0:2,0:0:0:0:
287,301,167329,1,10,0:2:0:0:
418,342,167440,2,0,L|315:330,1,93.7500035762788,2|2,0:2|3:2,0:0:0:0:
476,288,167662,1,2,0:2:0:0:
299,174,167773,2,0,B|376:174|406:246|406:246|426:165|505:154,1,281.250010728836,2|2,3:2|3:2,0:0:0:0:
393,26,168218,2,0,L|397:122,1,93.7500035762788,10|2,0:2|0:2,0:0:0:0:
293,0,168440,2,0,L|297:96,1,93.7500035762788,2|2,3:2|0:2,0:0:0:0:
84,64,168662,6,0,P|196:95|92:173,1,281.250010728836,6|2,3:2|0:2,0:0:0:0:
61,279,169107,2,0,L|169:275,1,93.7500035762788,10|2,0:2|0:2,0:0:0:0:
237,234,169329,2,0,L|345:230,1,93.7500035762788,2|2,3:2|0:2,0:0:0:0:
432,303,169551,1,2,3:2:0:0:
423,164,169662,2,0,P|447:212|443:273,1,93.7500035762788,2|2,3:2|3:2,0:0:0:0:
330,230,169885,1,2,3:2:0:0:
339,91,169996,2,0,P|315:139|319:200,1,93.7500035762788,10|2,3:2|0:2,0:0:0:0:
230,35,170218,2,0,L|118:21,1,93.7500035762788,2|2,3:2|0:2,0:0:0:0:
47,66,170440,6,0,B|-18:213|102:197|28:340,1,281.250010728836,6|2,3:2|0:2,0:0:0:0:
163,242,170885,1,10,0:2:0:0:
275,314,170996,2,0,P|236:332|181:326,1,93.7500035762788,2|2,0:2|3:2,0:0:0:0:
331,233,171218,1,2,0:2:0:0:
396,299,171329,2,0,B|420:353|420:353|437:120,1,281.250010728836,2|2,3:2|3:2,0:0:0:0:
508,58,171773,2,0,P|408:30|399:32,1,93.7500035762788,10|2,3:2|0:2,0:0:0:0:
232,67,171996,2,0,P|276:35|336:24,1,93.7500035762788,2|2,3:2|0:2,0:0:0:0:
216,159,172218,6,0,L|220:270,1,93.7500035762788,6|2,3:2|0:2,0:0:0:0:
31,198,172440,2,0,L|142:194,1,93.7500035762788,2|2,3:2|0:2,0:0:0:0:
70,383,172662,2,0,L|66:272,1,93.7500035762788,14|2,3:2|0:2,0:0:0:0:
255,344,172885,2,0,L|144:348,1,93.7500035762788,6|2,3:2|0:2,0:0:0:0:
314,184,173107,5,2,3:2:0:0:
314,184,173329,5,2,3:2:0:0:
330,108,173440,1,2,3:2:0:0:
327,86,173551,5,10,3:2:0:0:
308,178,173662,1,2,3:2:0:0:
363,251,173773,1,2,3:2:0:0:
381,343,173885,1,2,3:2:0:0:
463,281,173996,6,0,B|318:204|357:336|164:246,1,281.250010728836,6|2,3:2|0:2,0:0:0:0:
89,362,174440,2,0,P|99:321|84:257,1,93.7500035762788,10|2,0:2|0:2,0:0:0:0:
33,103,174662,2,0,P|23:144|38:208,1,93.7500035762788,2|2,3:2|0:2,0:0:0:0:
125,77,174885,1,2,3:2:0:0:
125,77,174996,2,0,B|200:69|200:69|218:80|218:80|325:71,1,187.500007152558,2|2,3:2|3:2,0:0:0:0:
183,253,175329,2,0,L|174:142,1,93.7500035762788,10|2,0:2|0:2,0:0:0:0:
357,144,175551,2,0,L|349:237,1,93.7500035762788,2|2,3:2|0:2,0:0:0:0:
454,339,175773,6,0,B|412:146|507:267|453:45,1,281.250010728836,2|2,3:2|0:2,0:0:0:0:
274,39,176218,2,0,P|316:21|371:25,1,93.7500035762788,10|2,3:2|0:2,0:0:0:0:
308,152,176440,2,0,P|261:153|218:135,1,93.7500035762788,2|2,3:2|0:2,0:0:0:0:
125,53,176662,1,2,3:2:0:0:
100,185,176773,2,0,L|93:74,1,93.7500035762788,2|2,3:2|3:2,0:0:0:0:
190,259,176996,1,2,3:2:0:0:
58,284,177107,2,0,L|169:291,1,93.7500035762788,10|2,0:2|0:2,0:0:0:0:
300,298,177329,2,0,P|315:245|306:203,1,93.7500035762788,2|2,3:2|0:2,0:0:0:0:
374,381,177551,6,0,P|416:230|380:112,1,281.250010728836,6|2,3:2|0:2,0:0:0:0:
266,55,177996,2,0,P|255:103|262:152,1,93.7500035762788,10|2,0:2|0:2,0:0:0:0:
147,197,178218,2,0,P|153:151|142:106,1,93.7500035762788,2|2,3:2|0:2,0:0:0:0:
240,254,178440,1,2,3:2:0:0:
240,254,178551,2,0,P|169:315|78:284,1,187.500007152558,2|2,3:2|3:2,0:0:0:0:
308,341,178885,2,0,L|407:331,1,93.7500035762788,10|2,0:2|0:2,0:0:0:0:
510,251,179107,2,0,L|411:241,1,93.7500035762788,2|2,3:2|0:2,0:0:0:0:
418,149,179329,6,0,B|302:116|302:116|263:148|263:148|149:117,1,281.250010728836,6|2,3:2|0:2,0:0:0:0:
341,39,179773,2,0,L|439:65,1,93.7500035762788,10|2,3:2|0:2,0:0:0:0:
156,26,179996,2,0,L|254:52,1,93.7500035762788,2|2,3:2|0:2,0:0:0:0:
72,189,180218,1,2,3:2:0:0:
71,60,180329,2,0,P|53:113|65:174,1,93.7500035762788,2|2,3:2|3:2,0:0:0:0:
172,205,180551,1,2,3:2:0:0:
173,334,180662,2,0,P|191:281|179:220,1,93.7500035762788,10|2,0:2|0:2,0:0:0:0:
391,251,180885,2,0,L|277:245,1,93.7500035762788,2|2,3:2|0:2,0:0:0:0:
472,180,181107,6,0,L|184:164,1,281.250010728836,6|2,3:2|0:2,0:0:0:0:
215,50,181551,1,10,0:2:0:0:
55,94,181662,2,0,P|101:109|144:94,1,93.7500035762788,2|2,0:2|3:2,0:0:0:0:
20,17,181885,1,2,3:2:0:0:
36,175,181996,2,0,L|39:275,1,93.7500035762788,2|2,0:2|3:2,0:0:0:0:
128,315,182218,2,0,L|124:214,1,93.7500035762788,2|2,0:2|0:2,0:0:0:0:
229,360,182440,2,0,B|254:211|193:297|225:150|225:150|250:110|297:111,1,281.250010728836,10|2,3:2|0:2,0:0:0:0:
402,153,182885,6,0,P|339:44|196:69,1,281.250010728836,6|2,3:2|0:2,0:0:0:0:
309,183,183329,2,0,L|206:170,1,93.7500035762788,10|2,0:2|0:2,0:0:0:0:
386,244,183551,2,0,L|489:231,1,93.7500035762788,14|2,3:2|0:2,0:0:0:0:
309,292,183773,2,0,L|206:279,1,93.7500035762788,2|2,3:2|3:2,0:0:0:0:
386,353,183996,2,0,L|489:340,1,93.7500035762788,2|2,3:2|3:2,0:0:0:0:
222,364,184218,5,10,3:2:0:0:
215,280,184329,1,2,3:2:0:0:
171,209,184440,1,2,3:2:0:0:
97,168,184551,1,2,3:2:0:0:
16,158,184662,6,0,P|89:175|151:230,1,149.999995422363,4|0,0:2|0:0,0:0:0:0:
137,78,184996,2,0,P|84:132|6:159,1,149.999995422363,4|0,0:2|0:0,0:0:0:0:
145,223,185329,2,0,P|122:151|139:69,1,149.999995422363,4|0,0:2|3:0,0:0:0:0:
240,162,185662,1,0,3:0:0:0:
232,212,185773,1,0,3:0:0:0:
225,263,185885,1,0,3:0:0:0:
294,351,185996,6,0,L|316:199,1,149.999995422363,4|0,0:2|0:0,0:0:0:0:
433,295,186329,2,0,L|290:351,1,149.999995422363,4|0,0:2|0:0,0:0:0:0:
315,202,186662,2,0,L|435:297,1,149.999995422363,4|0,0:2|0:0,0:0:0:0:
474,7,187107,6,0,B|506:34|506:34|501:153,1,149.999995422363,10|0,0:2|3:0,0:0:0:0:
409,174,187440,1,0,3:0:0:0:
412,123,187551,1,2,3:2:0:0:
416,73,187662,1,0,3:0:0:0:
293,106,187773,6,0,P|253:85|141:84,1,149.999995422363,6|0,3:2|0:0,0:0:0:0:
200,217,188107,2,0,P|238:192|295:96,1,149.999995422363,6|0,0:2|0:0,0:0:0:0:
150,81,188440,2,0,P|151:126|206:223,1,149.999995422363,6|0,0:2|3:0,0:0:0:0:
184,316,188773,1,0,3:0:0:0:
234,312,188885,1,0,3:0:0:0:
285,309,188996,1,0,3:0:0:0:
419,351,189107,6,0,B|370:301|370:301|346:224,1,149.999995422363,6|0,0:2|0:0,0:0:0:0:
491,224,189440,2,0,B|472:291|472:291|417:350,1,149.999995422363,6|0,0:2|0:0,0:0:0:0:
346,224,189773,2,0,B|413:206|413:206|491:224,1,149.999995422363,6|0,0:2|0:0,0:0:0:0:
279,363,190218,6,0,L|113:338,1,149.999995422363,2|4,0:2|0:2,0:0:0:0:
52,287,190551,1,0,0:0:0:0:
80,229,190662,1,2,0:2:0:0:
90,166,190773,1,0,0:0:0:0:
63,102,190885,6,0,P|179:120|246:74,1,187.5,6|0,0:2|3:0,0:0:0:0:
353,15,191329,2,0,P|340:75|342:95,1,62.5,10|0,0:2|0:0,0:0:0:0:
431,127,191551,1,2,3:2:0:0:
431,127,191662,2,0,P|380:160|367:175,1,62.5,8|2,3:2|0:3,0:0:0:0:
406,261,191885,1,0,3:2:0:0:
406,261,191996,2,0,P|346:248|326:249,1,62.5,2|0,3:2|0:0,0:0:0:0:
240,354,192218,2,0,P|269:216|256:163,1,187.5,10|0,0:3|2:0,0:0:0:0:
96,266,192662,6,0,B|69:279|42:256|42:256|88:222|172:248,1,187.5,2|0,3:2|3:0,0:0:0:0:
51,151,193107,2,0,P|102:142|136:145,1,62.5,10|0,0:2|0:0,0:0:0:0:
51,59,193329,1,2,3:2:0:0:
51,59,193440,2,0,P|102:50|136:53,1,62.5,8|2,3:2|0:3,0:0:0:0:
239,164,193662,1,0,3:0:0:0:
239,164,193773,2,0,L|242:84,2,41.6666666666667,2|2|2,3:2|0:2|0:2,0:0:0:0:
275,182,193996,2,0,L|278:102,1,62.5,10|0,0:2|0:0,0:0:0:0:
279,287,194218,1,2,3:2:0:0:
340,310,194329,1,0,3:0:0:0:
401,287,194440,6,0,L|408:96,1,187.5,2|0,3:2|3:0,0:0:0:0:
307,33,194885,2,0,P|276:72|272:108,1,62.5,10|0,0:2|0:0,0:0:0:0:
291,181,195107,1,2,3:2:0:0:
291,181,195218,2,0,P|242:186|214:209,1,62.5,8|2,3:2|0:3,0:0:0:0:
176,274,195440,1,0,3:0:0:0:
176,274,195551,2,0,P|137:242|101:238,1,62.5,2|0,3:2|0:0,0:0:0:0:
231,352,195773,2,0,B|282:379|332:341|302:320|352:286|409:311,1,187.5,10|0,0:2|2:0,0:0:0:0:
451,246,196218,5,10,0:2:0:0:
229,151,196440,1,10,0:2:0:0:
229,151,196885,2,0,L|238:215,1,62.5,6|0,3:2|0:0,0:0:0:0:
139,163,197107,2,0,L|148:227,1,62.5,0|0,3:0|3:0,0:0:0:0:
131,345,197329,5,2,3:2:0:0:
117,346,197403,5,2,0:2:0:0:
103,348,197477,5,2,0:2:0:0:
89,350,197551,5,2,0:2:0:0:
89,350,197773,5,14,0:2:0:0:
256,192,197885,12,0,205773,3:0:0:0:
