osu file format v14

[General]
AudioFilename: audio.mp3
AudioLeadIn: 0
PreviewTime: 49051
Countdown: 0
SampleSet: Soft
StackLeniency: 0.4
Mode: 0
LetterboxInBreaks: 0
WidescreenStoryboard: 1

[Editor]
Bookmarks: 6885,13995,21106,35329,49550,86218,88662,95773,102885,118885,138440,145551,159773,163329,184662,197773
DistanceSpacing: 2.1
BeatDivisor: 4
GridSize: 8
TimelineZoom: 1.8

[Metadata]
Title:Fuyu no Hanashi
TitleUnicode:冬のはなし
Artist:Given
ArtistUnicode:ギヴン
Creator:- ascended -
Version:Hard
Source:ギヴン
Tags:fuyunohanashi winter's story jrock j-rock rock insert song hazu- hazu kittyadventure gokugohan12468 zabijakweeb zabijak mokobe _-Super-_ log on now log_on_now anime animation japan japanese jp lerche crunchyroll Mafuyu Satō Sato Satou 佐藤 真冬 佐藤真冬 Ritsuka Uenoyama 上ノ山 立夏 上ノ山立夏 Haruki Nakayama 中山 春樹 中山春樹 Akihiko Kaji 梶 秋彦 梶秋彦 Yano Shougo 矢野奨吾 矢野 奨吾 gay lgbt yaoi shounenai shounen ai bl boys boy's love marutsuke the seasons センチミリメンタル centimilli mental centimillimental
BeatmapID:2497186
BeatmapSetID:1188198

[Difficulty]
HPDrainRate:4.5
CircleSize:3.5
OverallDifficulty:4.5
ApproachRate:6.5
SliderMultiplier:1.4
SliderTickRate:1

[Events]
//Background and Video events
0,0,"pensivewobble.jpg",0,0
//Break Periods
2,14196,19243
2,131418,137465
2,159973,162354
//Storyboard Layer 0 (Background)
//Storyboard Layer 1 (Fail)
//Storyboard Layer 2 (Pass)
//Storyboard Layer 3 (Foreground)
//Storyboard Layer 4 (Overlay)
//Storyboard Sound Samples

[TimingPoints]
-226,444.444444444444,4,2,1,75,1,0
440,-100,4,2,1,75,0,0
662,-100,4,2,1,75,0,0
4328,-100,4,2,1,5,0,0
4439,-100,4,2,1,75,0,0
5662,-100,4,2,1,5,0,0
5773,-100,4,2,1,75,0,0
6885,-100,4,2,2,75,0,0
7107,-100,4,2,1,75,0,0
7329,-100,4,2,2,75,0,0
7551,-100,4,2,1,75,0,0
8662,-100,4,2,2,75,0,0
8885,-100,4,2,1,75,0,0
9107,-100,4,2,2,75,0,0
9329,-100,4,2,1,75,0,0
9996,-100,4,2,2,75,0,0
10218,-100,4,2,1,75,0,0
10440,-100,4,2,2,75,0,0
10662,-100,4,2,1,75,0,0
10885,-100,4,2,2,75,0,0
11107,-100,4,2,1,75,0,0
11773,-100,4,2,2,75,0,0
11996,-100,4,2,1,75,0,0
15773,-100,4,2,1,75,0,0
16218,-100,4,2,1,75,0,0
17551,-100,4,2,1,75,0,0
17996,-100,4,2,1,75,0,0
19329,-100,4,2,1,75,0,0
19551,-100,4,2,1,75,0,0
19773,-100,4,2,1,75,0,0
21107,-100,4,2,2,75,0,0
21440,-100,4,2,2,75,0,0
21551,-100,4,2,1,75,0,0
22107,-100,4,2,1,75,0,0
22218,-100,4,2,1,75,0,0
22440,-100,4,2,2,75,0,0
22885,-100,4,2,1,75,0,0
23218,-100,4,2,1,75,0,0
23329,-100,4,2,1,75,0,0
24662,-100,4,2,2,75,0,0
24995,-100,4,2,2,75,0,0
25106,-100,4,2,1,75,0,0
25551,-100,4,2,2,75,0,0
25662,-100,4,2,2,75,0,0
25773,-100,4,2,2,75,0,0
26440,-100,4,2,1,75,0,0
26773,-100,4,2,1,75,0,0
26884,-100,4,2,1,75,0,0
27773,-100,4,2,1,75,0,0
27885,-100,4,2,1,75,0,0
28218,-100,4,2,2,75,0,0
28551,-100,4,2,2,75,0,0
28662,-100,4,2,1,75,0,0
29218,-100,4,2,1,75,0,0
29329,-100,4,2,1,75,0,0
29551,-100,4,2,2,75,0,0
29996,-100,4,2,1,75,0,0
30329,-100,4,2,1,75,0,0
30440,-100,4,2,1,75,0,0
31773,-100,4,2,2,75,0,0
32106,-100,4,2,2,75,0,0
32217,-100,4,2,1,75,0,0
32773,-100,4,2,1,75,0,0
32885,-100,4,2,1,75,0,0
33107,-100,4,2,2,75,0,0
33551,-100,4,2,1,75,0,0
33773,-100,4,2,1,75,0,0
33884,-100,4,2,1,5,0,0
33996,-100,4,2,1,75,0,0
34885,-100,4,2,2,75,0,0
34996,-100,4,2,2,75,0,0
35329,-100,4,2,1,75,0,0
48662,-100,4,2,1,35,0,0
48885,-100,4,2,1,45,0,0
49107,-100,4,2,1,55,0,0
49329,-100,4,2,1,65,0,0
49440,-100,4,2,1,25,0,0
49468,-100,4,2,1,65,0,0
49551,-90.9090909090909,4,2,2,75,0,1
49662,-90.9090909090909,4,2,1,75,0,1
49996,-90.9090909090909,4,2,2,75,0,1
50107,-90.9090909090909,4,2,1,75,0,1
50440,-90.9090909090909,4,2,2,75,0,1
50551,-90.9090909090909,4,2,1,75,0,1
50885,-90.9090909090909,4,2,2,75,0,1
50996,-90.9090909090909,4,2,1,75,0,1
51329,-90.9090909090909,4,2,2,75,0,1
51440,-90.9090909090909,4,2,1,75,0,1
51773,-90.9090909090909,4,2,2,75,0,1
51885,-90.9090909090909,4,2,1,75,0,1
52218,-90.9090909090909,4,2,2,75,0,1
52329,-90.9090909090909,4,2,1,75,0,1
52662,-90.9090909090909,4,2,2,75,0,1
52773,-90.9090909090909,4,2,1,75,0,1
53107,-90.9090909090909,4,2,2,75,0,1
53218,-90.9090909090909,4,2,1,75,0,1
53551,-90.9090909090909,4,2,2,75,0,1
53662,-90.9090909090909,4,2,1,75,0,1
53996,-90.9090909090909,4,2,2,75,0,1
54107,-90.9090909090909,4,2,1,75,0,1
54440,-90.9090909090909,4,2,2,75,0,1
54551,-90.9090909090909,4,2,1,75,0,1
54885,-90.9090909090909,4,2,2,75,0,1
54996,-90.9090909090909,4,2,1,75,0,1
55329,-90.9090909090909,4,2,2,75,0,1
55440,-90.9090909090909,4,2,1,75,0,1
55773,-90.9090909090909,4,2,2,75,0,1
55885,-90.9090909090909,4,2,1,75,0,1
56218,-90.9090909090909,4,2,2,75,0,1
56329,-90.9090909090909,4,2,1,75,0,1
56662,-90.9090909090909,4,2,2,75,0,1
56773,-90.9090909090909,4,2,1,75,0,1
57107,-90.9090909090909,4,2,2,75,0,1
57218,-90.9090909090909,4,2,1,75,0,1
57551,-90.9090909090909,4,2,2,75,0,1
57662,-90.9090909090909,4,2,1,75,0,1
57996,-90.9090909090909,4,2,2,75,0,1
58107,-90.9090909090909,4,2,1,75,0,1
58440,-90.9090909090909,4,2,2,75,0,1
58551,-90.9090909090909,4,2,1,75,0,1
58885,-90.9090909090909,4,2,2,75,0,1
58996,-90.9090909090909,4,2,1,75,0,1
59329,-90.9090909090909,4,2,2,75,0,1
59440,-90.9090909090909,4,2,1,75,0,1
59773,-90.9090909090909,4,2,2,75,0,1
59885,-90.9090909090909,4,2,1,75,0,1
60226,-90.9090909090909,4,2,1,75,0,1
60328,-90.9090909090909,4,2,1,75,0,1
60661,-90.9090909090909,4,2,2,75,0,1
60772,-90.9090909090909,4,2,1,75,0,1
61106,-90.9090909090909,4,2,2,75,0,1
61217,-90.9090909090909,4,2,1,75,0,1
61550,-90.9090909090909,4,2,2,75,0,1
61661,-90.9090909090909,4,2,1,75,0,1
61772,-90.9090909090909,4,2,1,75,0,1
61996,-100,4,2,2,75,0,1
62032,-90.9090909090909,4,2,2,75,0,1
62106,-90.9090909090909,4,2,1,75,0,1
62439,-90.9090909090909,4,2,2,75,0,1
62550,-90.9090909090909,4,2,1,75,0,1
62661,-90.9090909090909,4,2,1,75,0,1
62884,-90.9090909090909,4,2,2,75,0,1
62995,-90.9090909090909,4,2,1,75,0,1
63328,-90.9090909090909,4,2,2,75,0,1
63439,-90.9090909090909,4,2,1,75,0,1
63773,-90.9090909090909,4,2,2,75,0,1
63884,-90.9090909090909,4,2,1,75,0,1
64217,-90.9090909090909,4,2,2,75,0,1
64328,-90.9090909090909,4,2,1,75,0,1
64661,-90.9090909090909,4,2,2,75,0,1
64772,-90.9090909090909,4,2,1,75,0,1
65106,-90.9090909090909,4,2,2,75,0,1
65217,-90.9090909090909,4,2,1,75,0,1
65550,-90.9090909090909,4,2,2,75,0,1
65661,-90.9090909090909,4,2,1,75,0,1
65995,-90.9090909090909,4,2,2,75,0,1
66106,-90.9090909090909,4,2,1,75,0,1
66439,-90.9090909090909,4,2,2,75,0,1
66550,-90.9090909090909,4,2,1,75,0,1
66884,-90.9090909090909,4,2,2,75,0,1
66995,-90.9090909090909,4,2,1,75,0,1
67328,-90.9090909090909,4,2,2,75,0,1
67439,-90.9090909090909,4,2,1,75,0,1
67772,-90.9090909090909,4,2,2,75,0,1
67884,-90.9090909090909,4,2,1,75,0,1
68217,-90.9090909090909,4,2,2,75,0,1
68328,-90.9090909090909,4,2,1,75,0,1
68661,-90.9090909090909,4,2,2,75,0,1
68772,-90.9090909090909,4,2,1,75,0,1
69106,-90.9090909090909,4,2,2,75,0,1
69217,-90.9090909090909,4,2,1,75,0,1
69550,-90.9090909090909,4,2,2,75,0,1
69661,-90.9090909090909,4,2,1,75,0,1
69995,-90.9090909090909,4,2,2,75,0,1
70106,-90.9090909090909,4,2,1,75,0,1
70439,-90.9090909090909,4,2,2,75,0,1
70550,-90.9090909090909,4,2,1,75,0,1
70884,-90.9090909090909,4,2,2,75,0,1
70995,-90.9090909090909,4,2,1,75,0,1
71328,-90.9090909090909,4,2,2,75,0,1
71439,-90.9090909090909,4,2,1,75,0,1
71772,-90.9090909090909,4,2,2,75,0,1
71884,-90.9090909090909,4,2,1,75,0,1
72217,-90.9090909090909,4,2,2,75,0,1
72328,-90.9090909090909,4,2,1,75,0,1
72661,-90.9090909090909,4,2,2,75,0,1
72772,-90.9090909090909,4,2,1,75,0,1
73106,-90.9090909090909,4,2,2,75,0,1
73217,-90.9090909090909,4,2,1,75,0,1
73550,-90.9090909090909,4,2,2,75,0,1
73661,-90.9090909090909,4,2,1,75,0,1
73995,-90.9090909090909,4,2,2,75,0,1
74106,-90.9090909090909,4,2,1,75,0,1
74439,-100,4,2,1,75,0,0
81550,-100,4,2,3,75,0,0
82217,-100,4,2,1,75,0,0
84994,-100,4,2,1,5,0,0
85106,-100,4,2,1,75,0,0
85439,-100,4,2,1,75,0,0
85550,-100,4,2,1,75,0,0
85772,-100,4,2,1,75,0,0
88661,-100,4,2,3,75,0,0
88994,-100,4,2,3,75,0,0
89105,-100,4,2,1,75,0,0
89661,-100,4,2,1,75,0,0
89772,-100,4,2,1,75,0,0
90439,-100,4,2,1,75,0,0
90772,-100,4,2,1,75,0,0
90883,-100,4,2,1,75,0,0
92217,-100,4,2,1,75,0,0
92549,-100,4,2,1,75,0,0
92661,-100,4,2,1,75,0,0
93216,-100,4,2,1,75,0,0
93327,-100,4,2,1,75,0,0
93995,-100,4,2,1,75,0,0
94328,-100,4,2,1,75,0,0
94439,-100,4,2,1,75,0,0
95328,-100,4,2,1,75,0,0
95439,-100,4,2,1,75,0,0
95772,-100,4,2,3,75,0,0
96105,-100,4,2,3,75,0,0
96216,-100,4,2,1,75,0,0
96772,-100,4,2,1,75,0,0
96884,-100,4,2,1,75,0,0
97550,-100,4,2,1,75,0,0
97883,-100,4,2,1,75,0,0
97994,-100,4,2,1,75,0,0
99328,-100,4,2,1,75,0,0
99660,-100,4,2,1,75,0,0
99772,-100,4,2,1,75,0,0
100328,-100,4,2,1,75,0,0
100439,-100,4,2,1,75,0,0
101106,-100,4,2,1,75,0,0
101438,-100,4,2,1,75,0,0
101550,-100,4,2,1,75,0,0
102439,-100,4,2,1,75,0,0
102550,-100,4,2,1,75,0,0
102884,-100,4,2,2,75,0,0
103217,-100,4,2,1,75,0,0
117106,-100,4,2,1,75,0,1
117550,-90.9090909090909,4,2,1,75,0,1
122106,-90.9090909090909,4,2,1,5,0,1
122217,-90.9090909090909,4,2,1,75,0,1
131328,-90.9090909090909,4,2,1,75,0,0
139772,-100,4,2,1,75,0,0
145550,-100,4,2,2,75,0,0
145884,-100,4,2,2,75,0,0
145995,-100,4,2,1,75,0,0
146439,-100,4,2,2,75,0,0
146884,-100,4,2,1,75,0,0
147106,-100,4,2,1,75,0,0
147328,-100,4,2,2,75,0,0
147661,-100,4,2,2,75,0,0
147772,-100,4,2,1,75,0,0
148217,-100,4,2,2,75,0,0
148661,-100,4,2,1,75,0,0
149106,-100,4,2,2,75,0,0
149439,-100,4,2,2,75,0,0
149550,-100,4,2,1,75,0,0
149995,-100,4,2,2,75,0,0
150328,-100,4,2,1,75,0,0
150439,-100,4,2,1,75,0,0
150661,-100,4,2,1,75,0,0
150884,-100,4,2,2,75,0,0
151217,-100,4,2,1,75,0,0
151772,-100,4,2,2,75,0,0
152217,-100,4,2,1,75,0,0
152439,-100,4,2,1,75,0,0
152661,-100,4,2,2,75,0,0
152995,-100,4,2,1,75,0,0
153550,-100,4,2,2,75,0,0
153884,-100,4,2,1,75,0,0
153995,-100,4,2,1,75,0,0
154217,-100,4,2,1,75,0,0
154439,-100,4,2,2,75,0,0
154772,-100,4,2,1,75,0,0
155327,-100,4,2,2,75,0,0
155439,-100,4,2,2,75,0,0
155772,-100,4,2,1,75,0,0
155995,-100,4,2,1,75,0,0
156217,-100,4,2,1,75,0,0
158884,-100,4,2,1,35,0,0
159106,-100,4,2,1,45,0,0
159328,-100,4,2,1,55,0,0
159550,-100,4,2,1,65,0,0
159661,-100,4,2,1,25,0,0
159689,-100,4,2,1,65,0,0
159772,-100,4,2,3,75,0,0
163328,-90.9090909090909,4,2,2,75,0,1
163439,-90.9090909090909,4,2,1,75,0,1
163772,-90.9090909090909,4,2,2,75,0,1
163884,-90.9090909090909,4,2,1,75,0,1
164217,-90.9090909090909,4,2,2,75,0,1
164328,-90.9090909090909,4,2,1,75,0,1
164661,-90.9090909090909,4,2,2,75,0,1
164772,-90.9090909090909,4,2,1,75,0,1
165106,-90.9090909090909,4,2,2,75,0,1
165217,-90.9090909090909,4,2,1,75,0,1
165550,-90.9090909090909,4,2,2,75,0,1
165661,-90.9090909090909,4,2,1,75,0,1
165995,-90.9090909090909,4,2,2,75,0,1
166106,-90.9090909090909,4,2,1,75,0,1
166439,-90.9090909090909,4,2,2,75,0,1
166550,-90.9090909090909,4,2,1,75,0,1
166884,-90.9090909090909,4,2,2,75,0,1
166995,-90.9090909090909,4,2,1,75,0,1
167328,-90.9090909090909,4,2,2,75,0,1
167439,-90.9090909090909,4,2,1,75,0,1
167772,-90.9090909090909,4,2,2,75,0,1
167884,-90.9090909090909,4,2,1,75,0,1
168217,-90.9090909090909,4,2,2,75,0,1
168328,-90.9090909090909,4,2,1,75,0,1
168661,-90.9090909090909,4,2,2,75,0,1
168772,-90.9090909090909,4,2,1,75,0,1
169106,-90.9090909090909,4,2,2,75,0,1
169217,-90.9090909090909,4,2,1,75,0,1
169550,-90.9090909090909,4,2,2,75,0,1
169661,-90.9090909090909,4,2,1,75,0,1
169994,-90.9090909090909,4,2,2,75,0,1
170106,-90.9090909090909,4,2,1,75,0,1
170439,-90.9090909090909,4,2,2,75,0,1
170550,-90.9090909090909,4,2,1,75,0,1
170884,-90.9090909090909,4,2,2,75,0,1
170995,-90.9090909090909,4,2,1,75,0,1
171328,-90.9090909090909,4,2,2,75,0,1
171439,-90.9090909090909,4,2,1,75,0,1
171772,-90.9090909090909,4,2,2,75,0,1
171884,-90.9090909090909,4,2,1,75,0,1
171995,-90.9090909090909,4,2,1,75,0,1
172217,-90.9090909090909,4,2,2,75,0,1
172328,-90.9090909090909,4,2,1,75,0,1
172661,-90.9090909090909,4,2,2,75,0,1
172772,-90.9090909090909,4,2,1,75,0,1
172884,-90.9090909090909,4,2,1,75,0,1
173106,-90.9090909090909,4,2,2,75,0,1
173217,-90.9090909090909,4,2,1,75,0,1
173550,-90.9090909090909,4,2,2,75,0,1
173661,-90.9090909090909,4,2,1,75,0,1
173995,-90.9090909090909,4,2,2,75,0,1
174106,-90.9090909090909,4,2,1,75,0,1
174439,-90.9090909090909,4,2,2,75,0,1
174550,-90.9090909090909,4,2,1,75,0,1
174884,-90.9090909090909,4,2,2,75,0,1
174995,-90.9090909090909,4,2,1,75,0,1
175328,-90.9090909090909,4,2,2,75,0,1
175439,-90.9090909090909,4,2,1,75,0,1
175772,-90.9090909090909,4,2,2,75,0,1
175884,-90.9090909090909,4,2,1,75,0,1
176217,-90.9090909090909,4,2,2,75,0,1
176328,-90.9090909090909,4,2,1,75,0,1
176661,-90.9090909090909,4,2,2,75,0,1
176772,-90.9090909090909,4,2,1,75,0,1
177106,-90.9090909090909,4,2,2,75,0,1
177217,-90.9090909090909,4,2,1,75,0,1
177550,-90.9090909090909,4,2,2,75,0,1
177661,-90.9090909090909,4,2,1,75,0,1
177995,-90.9090909090909,4,2,2,75,0,1
178106,-90.9090909090909,4,2,1,75,0,1
178439,-90.9090909090909,4,2,2,75,0,1
178550,-90.9090909090909,4,2,1,75,0,1
178884,-90.9090909090909,4,2,2,75,0,1
178995,-90.9090909090909,4,2,1,75,0,1
179328,-90.9090909090909,4,2,2,75,0,1
179439,-90.9090909090909,4,2,1,75,0,1
179772,-90.9090909090909,4,2,2,75,0,1
179884,-90.9090909090909,4,2,1,75,0,1
180217,-90.9090909090909,4,2,2,75,0,1
180328,-90.9090909090909,4,2,1,75,0,1
180661,-90.9090909090909,4,2,2,75,0,1
180772,-90.9090909090909,4,2,1,75,0,1
181106,-90.9090909090909,4,2,2,75,0,1
181217,-90.9090909090909,4,2,1,75,0,1
181550,-90.9090909090909,4,2,2,75,0,1
181661,-90.9090909090909,4,2,1,75,0,1
181995,-90.9090909090909,4,2,2,75,0,1
182106,-90.9090909090909,4,2,1,75,0,1
182439,-90.9090909090909,4,2,2,75,0,1
182550,-90.9090909090909,4,2,1,75,0,1
182884,-90.9090909090909,4,2,2,75,0,1
182995,-90.9090909090909,4,2,1,75,0,1
183328,-90.9090909090909,4,2,2,75,0,1
183439,-90.9090909090909,4,2,1,75,0,1
183772,-90.9090909090909,4,2,2,75,0,1
183884,-90.9090909090909,4,2,1,75,0,1
184217,-90.9090909090909,4,2,2,75,0,1
184328,-90.9090909090909,4,2,1,75,0,1
184661,-100,4,2,1,75,0,0
188329,-100,4,2,1,5,0,0
188440,-100,4,2,1,75,0,0
189662,-100,4,2,1,5,0,0
189773,-100,4,2,1,75,0,0
190885,-100,4,2,2,75,0,0
191107,-100,4,2,1,75,0,0
191329,-100,4,2,2,75,0,0
191551,-100,4,2,1,75,0,0
192662,-100,4,2,2,75,0,0
192885,-100,4,2,1,75,0,0
193107,-100,4,2,2,75,0,0
193329,-100,4,2,1,75,0,0
193996,-100,4,2,2,75,0,0
194218,-100,4,2,1,75,0,0
194440,-100,4,2,2,75,0,0
194662,-100,4,2,1,75,0,0
194885,-100,4,2,2,75,0,0
195107,-100,4,2,1,75,0,0
195773,-100,4,2,2,75,0,0
196218,-100,4,2,1,75,0,0
205773,-100,4,2,1,5,0,0

[Colours]
Combo1 : 159,156,151
Combo2 : 103,145,152
Combo3 : 107,104,168
Combo4 : 194,99,71

[HitObjects]
50,244,662,6,0,L|48:118,2,105,4|4|4,0:2|0:2|0:2,0:0:0:0:
79,340,1551,2,0,P|113:327|174:333,1,70,0|0,3:0|3:0,0:0:0:0:
243,349,1996,6,0,L|251:238,2,105,4|4|4,0:2|0:2|0:2,0:0:0:0:
375,384,3107,1,10,0:2:0:0:
375,384,3329,2,0,B|407:371|407:371|459:379,1,70,0|2,3:0|3:2,0:0:0:0:
476,293,3773,6,0,L|484:199,1,70,6|0,3:2|0:0,0:0:0:0:
453,192,4107,2,0,L|445:98,1,70,6|0,0:2|2:0,0:0:0:0:
469,86,4440,1,6,0:2:0:0:
394,27,4662,2,0,P|348:13|317:19,1,70,0|0,3:0|3:0,0:0:0:0:
239,41,5107,6,0,P|223:88|236:127,1,70,6|0,0:2|0:0,0:0:0:0:
245,144,5440,2,0,P|259:175|255:217,1,70,6|0,0:2|2:0,0:0:0:0:
230,242,5773,1,6,0:2:0:0:
114,364,6218,1,2,0:2:0:0:
40,261,6551,1,0,0:0:0:0:
53,135,6885,6,0,L|43:54,1,70,6|2,0:2|0:2,0:0:0:0:
131,42,7329,2,0,L|212:32,1,70,10|2,0:2|3:2,0:0:0:0:
246,13,7662,1,8,3:2:0:0:
246,13,7773,2,0,L|327:23,1,70,2|2,0:3|3:2,0:0:0:0:
360,100,8218,2,0,P|373:153|357:193,1,70,10|2,0:3|0:2,0:0:0:0:
271,216,8662,6,0,P|268:181|281:148,2,70,2|2|10,3:2|0:2|0:2,0:0:0:0:
319,293,9329,2,0,B|386:314|386:314|465:291,1,140,2|2,3:2|3:2,0:0:0:0:
509,222,9996,1,10,0:2:0:0:
482,134,10218,1,2,3:2:0:0:
492,43,10440,6,0,L|408:46,1,70,2|2,3:2|0:2,0:0:0:0:
338,82,10885,2,0,L|254:79,1,70,10|2,0:2|3:2,0:0:0:0:
228,109,11218,1,8,3:2:0:0:
228,109,11329,2,0,P|218:153|230:187,1,70,2|2,0:3|3:2,0:0:0:0:
275,261,11773,2,0,P|285:305|273:339,1,70,10|2,0:2|3:2,0:0:0:0:
183,356,12218,5,10,0:2:0:0:
86,320,12440,1,10,0:2:0:0:
84,125,12885,6,0,B|156:134|140:84|224:94,1,140,6|0,0:2|3:0,0:0:0:0:
258,118,13440,1,0,3:0:0:0:
258,118,13551,2,0,L|289:60,3,35,0|0|0|0,3:0|3:0|3:0|3:0,0:0:0:0:
292,48,13996,1,6,0:2:0:0:
462,49,20218,5,10,0:3:0:0:
273,103,20662,1,10,0:3:0:0:
90,30,21107,6,0,B|70:154,1,105,6|0,3:2|3:0,0:0:0:0:
48,167,21551,2,0,B|59:238,1,70,10|2,0:3|3:2,0:0:0:0:
42,275,21885,2,0,P|104:256|135:268,1,70,8|0,0:2|3:0,0:0:0:0:
140,281,22218,1,0,3:0:0:0:
239,254,22440,1,10,0:2:0:0:
357,350,22885,6,0,B|389:322|389:322|395:241,1,105,2|0,3:3|3:0,0:0:0:0:
413,222,23329,2,0,P|370:226|304:192,2,105,10|8|0,0:3|0:2|3:0,0:0:0:0:
394,108,24218,1,10,0:3:0:0:
498,145,24440,1,0,3:0:0:0:
498,145,24551,1,0,3:0:0:0:
498,145,24662,6,0,B|511:178|511:178|497:253,1,105,2|0,3:2|3:0,0:0:0:0:
493,311,25107,2,0,P|444:293|402:305,1,70,10|0,0:3|3:0,0:0:0:0:
387,308,25440,2,0,P|338:326|296:314,1,70,8|0,0:2|3:0,0:0:0:0:
287,299,25773,1,0,3:0:0:0:
192,329,25996,1,10,0:2:0:0:
107,187,26440,6,0,B|155:179|155:179|172:188|172:188|217:181,1,105,2|0,3:3|3:0,0:0:0:0:
244,159,26885,2,0,L|364:168,2,105,10|8|0,0:3|0:2|3:0,0:0:0:0:
282,64,27773,2,0,L|270:32,3,35,10|0|0|0,3:3|3:0|3:0|3:0,0:0:0:0:
232,11,28218,6,0,L|104:28,1,105,6|0,3:2|3:0,0:0:0:0:
90,44,28662,2,0,P|80:90|95:134,1,70,10|0,0:3|3:0,0:0:0:0:
107,147,28996,2,0,P|117:193|102:237,1,70,8|0,0:2|3:0,0:0:0:0:
96,253,29329,1,0,3:0:0:0:
167,325,29551,1,10,0:2:0:0:
258,184,29996,6,0,B|243:130|243:130|264:76,1,105,2|0,3:3|3:0,0:0:0:0:
291,56,30440,2,0,L|399:50,2,105,10|8|0,0:3|0:2|3:0,0:0:0:0:
352,137,31329,1,10,0:3:0:0:
418,217,31551,1,0,3:0:0:0:
418,217,31662,1,0,3:0:0:0:
418,217,31773,6,0,P|369:241|304:223,1,105,2|0,3:2|3:0,0:0:0:0:
282,215,32218,2,0,L|199:226,1,70,10|2,0:3|3:2,0:0:0:0:
176,246,32551,2,0,L|93:235,1,70,8|0,0:2|3:0,0:0:0:0:
68,218,32885,1,0,3:0:0:0:
51,317,33107,1,10,0:2:0:0:
211,364,33551,6,0,L|329:352,1,105,2|0,3:3|2:0,0:0:0:0:
351,330,33996,2,0,P|362:284|347:244,1,70,10|2,0:3|3:2,0:0:0:0:
333,228,34329,2,0,P|322:182|340:120,1,105,8|2,0:2|3:2,0:0:0:0:
365,96,34773,1,2,3:2:0:0:
365,96,34885,2,0,L|313:75,3,35,10|0|0|0,3:2|3:0|3:0|3:0,0:0:0:0:
298,57,35329,6,0,L|217:42,2,70,6|0|0,3:2|0:0|0:0,0:0:0:0:
221,127,35996,2,0,L|140:112,2,70,2|8|2,0:2|0:2|0:2,0:0:0:0:
213,224,36662,1,2,0:2:0:0:
301,191,36885,1,12,0:2:0:0:
384,250,37107,1,0,0:0:0:0:
388,339,37329,6,0,B|328:340|328:340|316:331|316:331|239:331,1,140,14|0,0:2|3:0,0:0:0:0:
159,363,37996,1,2,3:2:0:0:
71,311,38218,1,2,3:2:0:0:
71,311,38329,1,2,3:2:0:0:
71,311,38440,2,0,B|68:291|68:291|73:256,3,35,2|0|2|0,3:2|3:0|3:2|3:0,0:0:0:0:
69,234,38885,6,0,B|199:203|160:282|285:248,1,210,6|2,0:2|0:2,0:0:0:0:
364,208,39773,2,0,P|371:158|352:122,1,70,8|0,0:2|0:0,0:0:0:0:
307,55,40218,1,2,3:2:0:0:
214,72,40440,2,0,L|136:81,1,70,12|0,0:2|0:0,0:0:0:0:
87,5,40885,6,0,P|50:83|69:137,1,140,14|0,0:2|3:0,0:0:0:0:
148,187,41551,2,0,L|226:196,1,70,2|2,0:2|0:2,0:0:0:0:
262,206,41885,1,2,0:2:0:0:
262,206,41996,1,2,0:2:0:0:
345,157,42218,1,2,0:2:0:0:
419,220,42440,6,0,L|433:293,2,70,6|0|0,0:2|0:0|3:0,0:0:0:0:
335,268,43107,2,0,L|349:341,2,70,2|8|2,0:2|0:2|0:2,0:0:0:0:
251,316,43773,1,2,0:2:0:0:
163,315,43996,5,12,0:2:0:0:
42,197,44440,2,0,P|9:134|52:68,1,140,14|0,0:2|0:0,0:0:0:0:
108,13,45107,2,0,P|140:75|97:141,1,140,14|10,0:2|3:2,0:0:0:0:
260,55,45996,6,0,L|357:40,1,70,14|0,3:2|3:0,0:0:0:0:
374,42,46329,1,0,3:0:0:0:
374,42,46440,1,0,3:0:0:0:
377,140,46662,2,0,L|280:155,1,70,14|0,3:2|3:2,0:0:0:0:
263,153,46996,1,0,3:0:0:0:
263,153,47107,1,0,3:0:0:0:
200,222,47329,1,10,0:2:0:0:
260,298,47551,6,0,B|188:283|202:356|116:342,1,140,12|10,0:2|0:2,0:0:0:0:
55,290,48218,1,8,0:2:0:0:
63,196,48440,1,8,0:2:0:0:
382,4,49551,6,0,L|372:131,1,115.50000352478,6|2,3:2|0:2,0:0:0:0:
370,165,49996,2,0,P|319:150|279:167,1,77.0000023498536,10|2,0:2|3:2,0:0:0:0:
227,86,50440,2,0,P|176:101|136:84,1,77.0000023498536,2|2,3:2|3:2,0:0:0:0:
65,135,50885,1,10,0:2:0:0:
74,231,51107,1,2,3:2:0:0:
35,329,51329,6,0,B|101:315|101:315|166:333,1,115.50000352478,2|2,3:2|0:2,0:0:0:0:
190,344,51773,1,10,3:2:0:0:
274,291,51996,1,2,3:2:0:0:
274,291,52107,1,2,0:2:0:0:
274,291,52218,2,0,L|358:297,2,77.0000023498536,2|2|10,3:2|3:2|0:2,0:0:0:0:
264,195,52885,1,2,3:2:0:0:
304,99,53107,6,0,P|374:120|426:91,1,115.50000352478,6|2,3:2|0:2,0:0:0:0:
444,73,53551,2,0,L|430:173,1,77.0000023498536,10|2,0:2|3:2,0:0:0:0:
402,243,53996,2,0,L|412:319,1,77.0000023498536,2|2,3:2|3:2,0:0:0:0:
323,369,54440,1,10,0:2:0:0:
251,297,54662,1,2,3:2:0:0:
156,317,54885,6,0,L|150:187,1,115.50000352478,6|2,3:2|0:2,0:0:0:0:
147,155,55329,1,10,3:2:0:0:
220,80,55551,1,2,3:2:0:0:
220,80,55662,1,2,0:2:0:0:
220,80,55773,2,0,L|216:-3,2,77.0000023498536,2|2|10,3:2|3:2|0:2,0:0:0:0:
326,102,56440,1,2,3:2:0:0:
370,202,56662,6,0,L|220:187,1,115.50000352478,6|2,3:2|0:2,0:0:0:0:
211,207,57107,2,0,L|111:217,1,77.0000023498536,10|2,0:2|3:2,0:0:0:0:
50,156,57551,2,0,P|28:213|32:235,1,77.0000023498536,2|2,3:2|3:2,0:0:0:0:
56,322,57996,1,10,0:2:0:0:
155,322,58218,1,2,3:2:0:0:
248,353,58440,6,0,B|305:335|305:335|371:346,1,115.50000352478,6|2,3:2|0:2,0:0:0:0:
405,354,58885,2,0,L|415:268,1,77.0000023498536,10|2,0:2|3:2,0:0:0:0:
387,186,59329,2,0,L|377:100,1,77.0000023498536,2|2,3:2|3:2,0:0:0:0:
357,18,59773,1,10,3:2:0:0:
262,44,59996,1,2,3:2:0:0:
172,0,60218,6,0,P|158:58|194:116,1,115.50000352478,6|2,3:2|0:2,0:0:0:0:
219,131,60662,2,0,L|216:217,1,77.0000023498536,10|2,0:2|3:2,0:0:0:0:
293,306,61107,2,0,P|235:292|177:328,1,115.50000352478,2|2,3:2|3:2,0:0:0:0:
162,353,61551,2,0,L|76:350,1,77.0000023498536,10|2,3:2|3:2,0:0:0:0:
28,272,61996,2,0,P|23:229|30:191,2,70,6|2|14,3:2|3:2|3:2,0:0:0:0:
118,225,62662,2,0,P|123:182|116:144,1,77.0000023498536,6|2,3:2|3:2,0:0:0:0:
53,78,63107,1,2,3:2:0:0:
53,78,63218,1,2,3:2:0:0:
53,78,63329,2,0,L|44:25,3,38.5000011749268,10|2|2|2,3:2|3:2|3:2|3:2,0:0:0:0:
81,9,63773,6,0,L|205:4,1,115.50000352478,6|2,3:2|0:2,0:0:0:0:
237,26,64218,2,0,P|257:73|248:118,1,77.0000023498536,10|2,0:2|3:2,0:0:0:0:
202,176,64662,2,0,P|155:156|110:165,1,77.0000023498536,2|2,3:2|3:2,0:0:0:0:
35,122,65107,1,10,0:2:0:0:
12,220,65329,1,2,3:2:0:0:
33,319,65551,6,0,B|95:301|91:352|164:323,1,115.50000352478,2|2,3:2|0:2,0:0:0:0:
182,302,65996,1,10,3:2:0:0:
287,311,66218,1,2,3:2:0:0:
287,311,66329,1,2,0:2:0:0:
287,311,66440,2,0,L|371:317,2,77.0000023498536,2|2|10,3:2|3:2|0:2,0:0:0:0:
270,211,67107,1,2,3:2:0:0:
210,137,67329,6,0,P|272:115|332:142,1,115.50000352478,6|2,3:2|0:2,0:0:0:0:
351,160,67773,2,0,L|429:149,1,77.0000023498536,10|2,0:2|3:2,0:0:0:0:
492,218,68218,2,0,L|481:296,1,77.0000023498536,2|2,3:2|3:2,0:0:0:0:
462,384,68662,1,10,0:2:0:0:
383,313,68885,1,2,3:2:0:0:
295,353,69107,6,0,L|161:334,1,115.50000352478,6|2,3:2|0:2,0:0:0:0:
135,326,69551,1,10,3:2:0:0:
61,273,69773,1,2,3:2:0:0:
61,273,69885,1,2,0:2:0:0:
61,273,69996,2,0,P|49:219|60:184,2,77.0000023498536,2|2|10,3:2|3:2|0:2,0:0:0:0:
146,226,70662,1,2,3:2:0:0:
148,132,70885,6,0,B|206:115|206:115|261:129,1,115.50000352478,6|2,3:2|0:2,0:0:0:0:
303,142,71329,2,0,B|337:150|337:150|377:138,1,77.0000023498536,10|2,0:2|3:2,0:0:0:0:
414,111,71662,1,2,3:2:0:0:
414,111,71773,2,0,L|409:215,2,77.0000023498536,2|2|10,0:2|0:2|3:2,0:0:0:0:
339,39,72440,1,2,3:2:0:0:
245,34,72662,6,0,P|190:59|132:37,1,115.50000352478,6|2,3:2|0:2,0:0:0:0:
84,29,73107,2,0,P|95:67|88:107,1,77.0000023498536,10|14,0:2|3:2,0:0:0:0:
100,145,73440,1,2,0:2:0:0:
100,145,73551,2,0,L|95:249,1,77.0000023498536,2|2,3:2|3:2,0:0:0:0:
105,324,73996,2,0,L|143:321,3,38.5000011749268,10|2|2|2,3:2|3:2|3:2|3:2,0:0:0:0:
183,334,74440,6,0,L|265:348,2,70,14|2|2,3:2|3:2|3:2,0:0:0:0:
217,244,75107,2,0,L|299:258,2,70,14|2|2,3:2|3:2|3:2,0:0:0:0:
251,154,75773,2,0,L|333:168,1,70,10|2,3:2|3:2,0:0:0:0:
416,135,76218,5,14,3:2:0:0:
343,67,76440,2,0,B|272:68|286:21|187:22,1,140,2|14,3:2|3:2,0:0:0:0:
51,70,77329,1,0,3:0:0:0:
56,153,77551,2,0,L|46:195,3,35,2|0|2|0,3:2|3:0|3:2|3:0,0:0:0:0:
68,223,77996,6,0,P|105:213|152:223,2,70,14|2|2,3:2|3:2|3:2,0:0:0:0:
79,320,78662,2,0,P|113:323|147:313,2,70,14|2|2,3:2|3:2|3:2,0:0:0:0:
68,223,79329,2,0,L|63:70,1,140,14|0,3:2|3:0,0:0:0:0:
141,28,79996,5,8,3:2:0:0:
211,86,80218,2,0,P|266:69|295:75,1,70,8|0,3:2|3:0,0:0:0:0:
316,84,80551,1,0,3:0:0:0:
316,84,80662,2,0,L|326:42,3,35,0|0|8|0,3:0|3:0|3:2|3:0,0:0:0:0:
342,11,81107,1,0,3:0:0:0:
414,93,81329,1,0,3:0:0:0:
384,193,81551,6,0,P|313:177|250:213,1,140,6|0,3:2|0:0,0:0:0:0:
180,285,82218,1,2,0:3:0:0:
24,228,82662,2,0,L|16:158,2,70,2|8|2,0:2|0:2|0:2,0:0:0:0:
111,178,83329,6,0,B|144:154|144:154|246:157,1,140,2|0,0:3|0:0,0:0:0:0:
326,119,83996,1,2,0:3:0:0:
191,18,84440,2,0,P|146:16|107:30,1,70,6|0,0:2|0:0,0:0:0:0:
76,23,84773,2,0,P|83:57|80:91,1,70,4|0,0:2|2:0,0:0:0:0:
53,129,85107,6,0,B|108:124|108:124|115:131|115:131|165:126,1,105,2|8,3:3|0:0,0:0:0:0:
200,126,85551,1,0,0:0:0:0:
216,222,85773,2,0,P|263:203|300:204,1,70,2|2,0:3|0:2,0:0:0:0:
364,149,86218,2,0,P|379:186|376:228,1,70,2|0,0:2|3:0,0:0:0:0:
366,256,86551,1,0,3:0:0:0:
366,256,86662,1,0,3:0:0:0:
400,356,86885,6,0,L|239:348,1,140,2|0,0:3|0:0,0:0:0:0:
165,357,87551,1,2,0:3:0:0:
42,241,87996,1,0,3:0:0:0:
20,159,88218,2,0,L|17:115,3,35,0|0|0|0,3:0|3:0|3:0|3:0,0:0:0:0:
34,85,88662,6,0,B|158:105,1,105,6|0,3:2|3:0,0:0:0:0:
174,121,89107,2,0,B|245:110,1,70,10|0,0:3|3:0,0:0:0:0:
280,90,89440,2,0,P|261:152|273:183,1,70,8|0,0:2|3:0,0:0:0:0:
286,188,89773,1,0,3:0:0:0:
259,287,89996,1,10,0:3:0:0:
104,353,90440,6,0,B|72:325|72:325|66:244,1,105,2|0,3:3|3:0,0:0:0:0:
48,225,90885,2,0,P|72:193|157:195,2,105,10|8|0,0:3|0:2|3:0,0:0:0:0:
148,265,91773,1,10,0:3:0:0:
251,252,91996,1,0,3:0:0:0:
251,252,92107,1,0,3:0:0:0:
251,252,92218,6,0,B|359:253,1,105,2|0,3:3|3:0,0:0:0:0:
389,226,92662,2,0,P|407:177|395:135,1,70,10|0,0:3|3:0,0:0:0:0:
392,120,92996,2,0,P|374:71|386:29,1,70,8|0,0:2|3:0,0:0:0:0:
401,20,93329,1,0,3:0:0:0:
297,1,93551,1,10,0:3:0:0:
139,57,93996,6,0,B|163:106|123:108|145:167,1,105,2|0,3:3|3:0,0:0:0:0:
162,196,94440,2,0,L|282:205,2,105,10|8|0,0:3|0:2|3:0,0:0:0:0:
108,291,95329,2,0,L|142:293,3,35,10|0|0|0,3:3|3:0|3:0|3:0,0:0:0:0:
175,319,95773,6,0,P|237:315|281:354,1,105,6|0,3:2|3:0,0:0:0:0:
297,370,96218,2,0,L|384:355,1,70,10|0,0:3|3:0,0:0:0:0:
407,351,96551,2,0,L|392:264,1,70,8|0,0:2|3:0,0:0:0:0:
388,240,96885,1,0,3:0:0:0:
284,256,97107,1,10,0:3:0:0:
241,93,97551,6,0,P|189:78|133:99,1,105,2|0,3:3|3:0,0:0:0:0:
114,124,97996,2,0,L|108:232,2,105,10|8|0,0:3|0:2|3:0,0:0:0:0:
196,188,98885,1,10,0:3:0:0:
295,163,99107,1,0,3:0:0:0:
295,163,99218,1,0,3:0:0:0:
295,163,99329,6,0,P|346:148|395:170,1,105,2|0,3:3|3:0,0:0:0:0:
413,203,99773,2,0,L|406:284,1,70,10|0,0:3|3:0,0:0:0:0:
403,314,100107,2,0,L|322:307,1,70,8|0,0:2|3:0,0:0:0:0:
291,304,100440,1,0,3:0:0:0:
212,332,100662,1,10,0:3:0:0:
50,285,101107,6,0,B|44:236|44:236|62:167,1,105,2|0,3:3|3:0,0:0:0:0:
81,146,101551,2,0,P|127:135|167:150,1,70,10|0,0:3|3:0,0:0:0:0:
185,158,101885,2,0,P|231:169|293:151,1,105,8|0,0:2|3:0,0:0:0:0:
326,123,102329,1,0,3:0:0:0:
326,123,102440,2,0,L|328:80,3,35,10|0|0|0,3:3|3:0|3:0|3:0,0:0:0:0:
364,66,102885,6,0,L|474:55,2,105,6|2|2,3:2|3:2|3:2,0:0:0:0:
277,28,103773,2,0,L|117:12,1,140,10|0,3:2|0:0,0:0:0:0:
66,77,104440,6,0,L|56:151,1,70,10|0,3:2|0:0,0:0:0:0:
107,225,104885,2,0,L|116:299,1,70,2|8,3:2|0:0,0:0:0:0:
201,352,105329,1,2,3:2:0:0:
258,278,105551,2,0,P|214:259|180:261,2,70,2|0|0,3:2|3:0|3:0,0:0:0:0:
294,308,106107,1,0,3:0:0:0:
294,308,106218,1,0,3:0:0:0:
382,266,106440,6,0,B|441:262|430:292|495:288,2,105,6|2|2,3:2|3:2|3:2,0:0:0:0:
303,206,107329,2,0,P|277:138|306:67,1,140,10|0,3:2|3:0,0:0:0:0:
382,30,107996,6,0,L|460:29,1,70,10|0,3:2|3:0,0:0:0:0:
496,118,108440,2,0,L|418:119,1,70,10|8,3:2|3:2,0:0:0:0:
390,206,108885,1,2,3:2:0:0:
438,289,109107,2,0,P|383:306|329:276,1,105,2|0,3:2|3:0,0:0:0:0:
305,266,109551,2,0,P|272:255|238:264,1,70,0|0,3:0|3:0,0:0:0:0:
161,318,109996,6,0,L|38:310,2,105,6|2|2,3:2|3:2|3:2,0:0:0:0:
245,362,110885,2,0,L|394:352,1,140,10|0,3:2|0:0,0:0:0:0:
459,298,111551,6,0,P|468:253|457:224,1,70,14|0,3:2|0:0,0:0:0:0:
407,151,111996,2,0,P|398:106|409:77,1,70,2|12,3:2|0:2,0:0:0:0:
337,18,112440,1,2,3:2:0:0:
247,44,112662,2,0,L|169:33,2,70,2|2|2,3:2|3:2|3:2,0:0:0:0:
275,81,113218,1,0,3:0:0:0:
275,81,113329,1,0,3:0:0:0:
182,117,113551,6,0,B|157:142|157:142|154:182,1,70,14|0,3:2|3:0,0:0:0:0:
155,222,113885,1,0,3:0:0:0:
155,222,113996,1,0,3:0:0:0:
108,304,114218,2,0,B|133:329|133:329|173:332,1,70,12|0,3:2|3:0,0:0:0:0:
213,331,114551,1,0,3:0:0:0:
213,331,114662,1,0,3:0:0:0:
291,272,114885,1,0,3:0:0:0:
389,314,115107,1,14,0:2:0:0:
459,163,115551,6,0,L|469:78,2,70,10|10|10,0:2|0:2|0:2,0:0:0:0:
374,125,116218,2,0,P|329:117|299:121,1,70,6|2,3:2|3:2,0:0:0:0:
268,140,116551,1,2,3:2:0:0:
268,140,116662,2,0,P|223:148|193:144,1,70,2|0,3:2|3:0,0:0:0:0:
98,109,117107,6,0,L|90:218,1,105,6|2,3:2|0:2,0:0:0:0:
55,243,117551,2,0,L|63:352,1,77.0000023498536,10|2,0:2|0:2,0:0:0:0:
87,357,117885,1,10,0:2:0:0:
87,357,117996,2,0,L|138:345,3,38.5000011749268,2|2|2|2,0:2|0:2|3:2|0:2,0:0:0:0:
165,368,118440,1,10,0:2:0:0:
260,324,118662,1,2,0:2:0:0:
260,324,118773,1,2,0:2:0:0:
260,324,118885,6,0,P|331:346|371:327,1,115.50000352478,2|2,3:2|0:2,0:0:0:0:
396,296,119329,2,0,L|402:210,1,77.0000023498536,10|2,0:2|0:2,0:0:0:0:
364,183,119662,1,10,0:2:0:0:
364,183,119773,2,0,L|360:125,3,38.5000011749268,2|2|2|2,0:2|0:2|3:2|0:2,0:0:0:0:
357,98,120218,2,0,P|398:84|447:101,1,77.0000023498536,10|2,0:2|0:2,0:0:0:0:
491,169,120662,6,0,L|488:249,1,77.0000023498536,2|2,3:2|0:2,0:0:0:0:
489,292,120996,2,0,L|409:289,1,77.0000023498536,2|2,0:2|0:2,0:0:0:0:
358,289,121329,1,2,0:2:0:0:
286,208,121551,2,0,L|192:211,1,77.0000023498536,0|0,0:0|3:0,0:0:0:0:
162,208,121885,2,0,P|149:150|158:124,1,77.0000023498536,2|0,3:2|2:0,0:0:0:0:
173,93,122218,1,2,0:2:0:0:
66,105,122440,6,0,B|21:130|21:130|12:248,1,154.000004699707,2|10,3:2|0:2,0:0:0:0:
7,278,122996,1,2,0:2:0:0:
7,278,123107,2,0,P|88:262|145:325,1,154.000004699707,2|0,0:2|3:0,0:0:0:0:
149,354,123662,1,0,0:0:0:0:
149,354,123773,1,8,0:2:0:0:
362,323,124218,6,0,L|375:173,1,115.50000352478,6|2,3:2|0:2,0:0:0:0:
375,154,124662,1,10,0:2:0:0:
280,120,124885,1,2,0:2:0:0:
280,120,124996,1,10,0:2:0:0:
280,120,125107,2,0,L|188:112,1,77.0000023498536,2|2,0:2|3:2,0:0:0:0:
133,179,125551,2,0,L|41:184,1,77.0000023498536,10|2,0:2|0:2,0:0:0:0:
22,84,125996,6,0,P|42:30|102:22,1,115.50000352478,6|2,3:2|0:2,0:0:0:0:
138,32,126440,1,10,0:2:0:0:
241,17,126662,1,2,0:2:0:0:
241,17,126773,1,10,0:2:0:0:
241,17,126885,2,0,L|333:25,1,77.0000023498536,2|2,0:2|3:2,0:0:0:0:
388,92,127329,2,0,L|480:84,1,77.0000023498536,10|2,0:2|0:2,0:0:0:0:
472,180,127773,6,0,B|426:214|426:214|426:280,1,115.50000352478,6|2,3:2|0:2,0:0:0:0:
427,318,128218,2,0,P|373:308|334:333,1,77.0000023498536,10|2,0:2|0:2,0:0:0:0:
313,338,128551,1,10,0:2:0:0:
313,338,128662,2,0,L|266:327,3,38.5000011749268,2|2|2|2,0:2|0:2|3:2|0:2,0:0:0:0:
230,341,129107,2,0,P|193:350|156:338,1,77.0000023498536,10|2,0:2|0:2,0:0:0:0:
82,268,129551,6,0,L|69:144,2,115.50000352478,12|2|8,3:2|3:2|0:2,0:0:0:0:
169,226,130440,1,0,3:0:0:0:
169,226,130551,1,0,3:0:0:0:
169,226,130662,2,0,L|162:163,3,38.5000011749268,0|0|0|0,3:0|3:0|3:0|3:0,0:0:0:0:
178,143,131107,1,0,3:0:0:0:
178,143,131218,1,0,3:0:0:0:
80,59,138440,5,6,3:2:0:0:
69,218,138885,1,2,3:2:0:0:
228,229,139329,1,2,3:2:0:0:
239,70,139773,2,0,L|308:60,1,70,2|2,3:2|3:2,0:0:0:0:
400,28,140218,5,2,3:2:0:0:
509,144,140662,1,2,3:2:0:0:
393,253,141107,1,2,3:2:0:0:
284,137,141551,1,2,3:2:0:0:
129,173,141996,2,0,L|121:88,2,70,10|0|0,3:2|3:0|3:0,0:0:0:0:
77,265,142662,6,0,P|159:262|185:282,1,105,10|0,3:2|3:0,0:0:0:0:
200,306,143107,1,10,3:2:0:0:
297,281,143329,2,0,P|347:282|363:270,1,70,10|2,3:2|3:2,0:0:0:0:
429,204,143773,2,0,L|436:62,1,140,6|2,3:2|3:2,0:0:0:0:
352,20,144440,1,6,3:2:0:0:
262,55,144662,2,0,L|258:124,1,70,2|0,0:2|3:0,0:0:0:0:
259,167,144996,1,0,3:0:0:0:
259,167,145107,2,0,L|254:222,3,35,0|0|0|0,3:0|3:0|3:0|3:0,0:0:0:0:
252,243,145551,6,0,B|141:238|179:313|50:304,1,210,6|0,3:2|3:0,0:0:0:0:
30,198,146440,2,0,L|25:92,2,105,10|0|0,0:2|0:0|3:0,0:0:0:0:
62,225,147218,1,0,3:0:0:0:
62,225,147329,6,0,P|132:128|210:155,1,210,2|0,3:2|3:0,0:0:0:0:
258,260,148218,2,0,L|253:366,2,105,10|10|0,0:2|0:0|3:0,0:0:0:0:
292,234,148996,1,0,3:0:0:0:
292,234,149107,6,0,B|285:133|285:133|300:115|300:115|294:21,1,210,6|0,3:2|3:0,0:0:0:0:
198,34,149996,2,0,P|155:34|88:81,2,105,10|2|2,0:2|0:2|3:2,0:0:0:0:
193,78,150773,1,0,3:0:0:0:
193,78,150885,2,0,B|198:145|161:175|161:175|208:194|199:281,1,210,2|2,3:2|3:2,0:0:0:0:
222,355,151773,2,0,P|171:357|120:308,2,105,10|0|0,0:2|3:0|3:0,0:0:0:0:
261,340,152551,1,0,3:0:0:0:
261,340,152662,6,0,P|342:349|342:242,1,210,2|2,3:2|3:2,0:0:0:0:
360,150,153551,2,0,L|465:142,2,105,10|2|2,0:2|0:2|3:2,0:0:0:0:
318,156,154329,1,0,3:0:0:0:
318,156,154440,2,0,B|200:165|245:85|102:96,1,210,2|2,3:2|3:2,0:0:0:0:
48,163,155329,1,10,3:2:0:0:
77,257,155551,1,0,3:0:0:0:
77,257,155662,1,0,3:0:0:0:
77,257,155773,2,0,P|129:243|152:245,1,70,2|2,3:3|3:2,0:0:0:0:
234,280,156218,6,0,P|266:291|301:293,1,70,14|2,3:2|3:2,0:0:0:0:
345,286,156551,1,2,3:2:0:0:
345,286,156662,1,2,3:2:0:0:
392,198,156885,2,0,P|359:186|324:184,1,70,14|2,3:2|3:2,0:0:0:0:
281,192,157218,1,2,3:2:0:0:
281,192,157329,1,2,3:2:0:0:
239,104,157551,1,10,0:2:0:0:
306,34,157773,1,14,0:2:0:0:
456,106,158218,6,0,L|466:28,2,70,10|10|10,0:2|0:2|0:2,0:0:0:0:
122,313,159773,5,6,3:2:0:0:
86,69,163329,6,0,P|72:125|107:177,1,115.50000352478,6|2,3:2|0:2,0:0:0:0:
144,186,163773,2,0,L|236:171,1,77.0000023498536,10|2,0:2|3:2,0:0:0:0:
309,208,164218,2,0,L|397:220,1,77.0000023498536,2|2,3:2|3:2,0:0:0:0:
477,189,164662,1,10,0:2:0:0:
497,93,164885,1,2,3:2:0:0:
442,21,165107,6,0,L|312:27,1,115.50000352478,6|2,3:2|0:2,0:0:0:0:
228,22,165551,1,10,3:2:0:0:
147,77,165773,1,2,3:2:0:0:
147,77,165885,1,2,0:2:0:0:
147,77,165996,2,0,P|133:40|143:-6,2,77.0000023498536,2|2|10,3:2|3:2|0:2,0:0:0:0:
240,120,166662,1,2,3:2:0:0:
157,177,166885,6,0,L|168:291,1,115.50000352478,6|2,3:2|0:2,0:0:0:0:
177,337,167329,2,0,L|253:329,1,77.0000023498536,10|2,0:2|3:2,0:0:0:0:
346,310,167773,2,0,L|422:317,1,77.0000023498536,2|2,3:2|3:2,0:0:0:0:
481,238,168218,1,10,0:2:0:0:
456,143,168440,1,2,3:2:0:0:
359,124,168662,6,0,P|281:148|248:132,1,115.50000352478,6|2,3:2|0:2,0:0:0:0:
218,105,169107,2,0,L|226:181,1,77.0000023498536,10|2,0:2|3:2,0:0:0:0:
293,257,169551,2,0,L|301:333,1,77.0000023498536,2|2,3:2|3:2,0:0:0:0:
213,366,169996,1,10,3:2:0:0:
115,337,170218,1,2,3:2:0:0:
26,366,170440,6,0,B|11:310|11:310|27:231,1,115.50000352478,6|2,3:2|0:2,0:0:0:0:
57,223,170885,2,0,L|143:226,1,77.0000023498536,10|2,0:2|3:2,0:0:0:0:
234,255,171329,2,0,B|249:199|249:199|233:120,1,115.50000352478,2|2,3:2|3:2,0:0:0:0:
205,110,171773,2,0,L|119:113,1,77.0000023498536,10|2,3:2|3:2,0:0:0:0:
137,24,172218,2,0,P|92:26|46:55,2,77.0000023498536,6|2|14,3:2|3:2|3:2,0:0:0:0:
234,13,172885,2,0,P|269:28|307:28,1,77.0000023498536,6|2,3:2|3:2,0:0:0:0:
413,21,173329,1,2,3:2:0:0:
413,21,173440,1,2,3:2:0:0:
413,21,173551,2,0,L|466:12,3,38.5000011749268,10|2|2|2,3:2|3:2|3:2|3:2,0:0:0:0:
478,51,173996,6,0,P|495:104|483:175,1,115.50000352478,6|2,3:2|0:2,0:0:0:0:
460,199,174440,2,0,L|371:200,1,77.0000023498536,10|2,0:2|3:2,0:0:0:0:
313,134,174885,2,0,L|224:135,1,77.0000023498536,2|2,3:2|3:2,0:0:0:0:
162,205,175329,1,10,0:2:0:0:
67,186,175551,1,2,3:2:0:0:
42,281,175773,6,0,B|101:289|101:289|108:300|108:300|162:309,1,115.50000352478,2|2,3:2|0:2,0:0:0:0:
196,309,176218,1,10,3:2:0:0:
304,291,176440,1,2,3:2:0:0:
304,291,176551,1,2,0:2:0:0:
304,291,176662,2,0,L|310:375,2,77.0000023498536,2|2|10,3:2|3:2|0:2,0:0:0:0:
269,196,177329,1,2,3:2:0:0:
295,106,177551,6,0,B|240:123|240:123|173:101,1,115.50000352478,6|2,3:2|0:2,0:0:0:0:
141,89,177996,2,0,L|130:167,1,77.0000023498536,10|2,0:2|3:2,0:0:0:0:
50,214,178440,2,0,L|61:292,1,77.0000023498536,2|2,3:2|3:2,0:0:0:0:
155,329,178885,1,10,0:2:0:0:
249,312,179107,1,2,3:2:0:0:
309,243,179329,6,0,L|443:262,1,115.50000352478,6|2,3:2|0:2,0:0:0:0:
468,267,179773,1,10,3:2:0:0:
506,183,179996,1,2,3:2:0:0:
506,183,180107,1,2,0:2:0:0:
506,183,180218,2,0,B|517:145|517:145|507:94,2,77.0000023498536,2|2|10,3:2|3:2|0:2,0:0:0:0:
410,141,180885,1,2,3:2:0:0:
311,182,181107,6,0,B|259:188|267:150|200:163,1,115.50000352478,6|2,3:2|0:2,0:0:0:0:
156,178,181551,2,0,P|136:132|146:99,1,77.0000023498536,10|2,0:2|3:2,0:0:0:0:
170,71,181885,1,2,3:2:0:0:
170,71,181996,2,0,P|216:51|249:61,2,77.0000023498536,2|2|10,0:2|0:2|3:2,0:0:0:0:
79,28,182662,1,2,3:2:0:0:
20,110,182885,6,0,L|28:237,1,115.50000352478,6|2,3:2|0:2,0:0:0:0:
29,271,183329,2,0,L|119:265,1,77.0000023498536,10|14,0:2|3:2,0:0:0:0:
146,287,183662,1,2,0:2:0:0:
146,287,183773,2,0,L|222:291,1,77.0000023498536,2|2,3:2|3:2,0:0:0:0:
318,302,184218,2,0,L|317:244,3,38.5000011749268,10|2|2|2,3:2|3:2|3:2|3:2,0:0:0:0:
295,222,184662,6,0,P|276:165|301:112,2,105,4|4|4,0:2|0:2|0:2,0:0:0:0:
373,171,185551,2,0,L|456:166,1,70,0|0,3:0|3:0,0:0:0:0:
485,71,185996,6,0,L|360:78,2,105,4|4|4,0:2|0:2|0:2,0:0:0:0:
290,8,187107,1,10,0:2:0:0:
290,8,187329,2,0,P|262:33|218:29,1,70,0|2,3:0|3:2,0:0:0:0:
135,13,187773,6,0,P|146:83|145:113,1,70,6|0,3:2|0:0,0:0:0:0:
116,112,188107,2,0,P|105:182|106:212,1,70,6|0,0:2|2:0,0:0:0:0:
118,220,188440,1,6,0:2:0:0:
214,201,188662,2,0,P|260:196|289:211,1,70,0|0,3:0|3:0,0:0:0:0:
378,261,189107,6,0,B|394:223|394:223|390:164,1,70,6|0,0:2|0:0,0:0:0:0:
377,154,189440,2,0,B|361:116|361:116|365:57,1,70,6|0,0:2|2:0,0:0:0:0:
403,72,189773,1,6,0:2:0:0:
234,132,190218,1,2,0:2:0:0:
247,257,190551,1,0,0:0:0:0:
122,280,190885,6,0,P|115:245|124:203,1,70,6|2,0:2|0:2,0:0:0:0:
164,123,191329,2,0,L|245:133,1,70,10|2,0:2|3:2,0:0:0:0:
279,152,191662,1,8,3:2:0:0:
279,152,191773,2,0,L|360:142,1,70,2|2,0:3|3:2,0:0:0:0:
442,172,192218,2,0,P|448:137|440:95,1,70,10|2,0:3|0:2,0:0:0:0:
412,13,192662,6,0,L|342:4,2,70,2|2|10,3:2|0:2|0:2,0:0:0:0:
345,92,193329,2,0,B|364:181|303:137|321:232,1,140,2|2,3:2|3:2,0:0:0:0:
375,303,193996,1,10,0:2:0:0:
276,325,194218,1,2,3:2:0:0:
276,325,194329,1,0,3:0:0:0:
276,325,194440,6,0,P|237:332|192:319,1,70,2|2,3:2|0:2,0:0:0:0:
131,270,194885,2,0,P|124:231|137:186,1,70,10|2,0:2|3:2,0:0:0:0:
157,171,195218,1,8,3:2:0:0:
157,171,195329,2,0,L|235:169,1,70,2|2,0:3|3:2,0:0:0:0:
318,138,195773,2,0,L|396:136,1,70,10|0,0:2|3:0,0:0:0:0:
472,63,196218,5,10,0:2:0:0:
375,27,196440,1,10,0:2:0:0:
211,64,196885,1,6,3:2:0:0:
160,134,197107,6,0,B|146:176|146:176|154:215,1,70,0|2,3:0|3:2,0:0:0:0:
168,239,197440,1,2,0:2:0:0:
168,239,197551,1,2,0:2:0:0:
256,192,197773,5,14,0:2:0:0:
256,192,197885,12,0,205773,3:0:0:0:
