osu file format v14

[General]
AudioFilename: audio.mp3
AudioLeadIn: 0
PreviewTime: 100279
Countdown: 0
SampleSet: None
StackLeniency: 0.7
Mode: 3
LetterboxInBreaks: 0
SpecialStyle: 0
WidescreenStoryboard: 1

[Editor]
Bookmarks: 100932
DistanceSpacing: 2.6
BeatDivisor: 4
GridSize: 4
TimelineZoom: 1.9

[Metadata]
Title:Angel (Sean Tyas Remix)
TitleUnicode:Angel (Sean Tyas Remix)
Artist:Giuseppe Ottaviani feat. Faith
ArtistUnicode:Giuseppe Ottaviani feat. Faith
Creator:X_Devil
Version:7k Insane
Source:
Tags:
BeatmapID:1626152
BeatmapSetID:773520

[Difficulty]
HPDrainRate:7
CircleSize:7
OverallDifficulty:7
ApproachRate:5
SliderMultiplier:1.4
SliderTickRate:1

[Events]
//Background and Video events
0,0,"angel.png",0,0
//Break Periods
//Storyboard Layer 0 (Background)
//Storyboard Layer 1 (Fail)
//Storyboard Layer 2 (Pass)
//Storyboard Layer 3 (Foreground)
//Storyboard Sound Samples

[TimingPoints]
3550.45693369518,434.739479392625,4,1,0,0,1,0

[HitObjects]
182,192,3550,5,0,0:0:0:0:
329,192,3550,1,0,0:0:0:0:
475,192,3550,1,0,0:0:0:0:
256,192,3659,1,0,0:0:0:0:
109,192,3767,1,0,0:0:0:0:
402,192,3767,1,0,0:0:0:0:
329,192,3876,1,0,0:0:0:0:
36,192,3985,1,0,0:0:0:0:
256,192,3985,1,0,0:0:0:0:
475,192,3985,1,0,0:0:0:0:
182,192,4093,1,0,0:0:0:0:
36,192,4202,1,0,0:0:0:0:
402,192,4202,1,0,0:0:0:0:
109,192,4311,1,0,0:0:0:0:
182,192,4419,1,0,0:0:0:0:
402,192,4419,1,0,0:0:0:0:
475,192,4419,1,0,0:0:0:0:
329,192,4528,1,0,0:0:0:0:
109,192,4637,1,0,0:0:0:0:
475,192,4637,1,0,0:0:0:0:
182,192,4745,1,0,0:0:0:0:
36,192,4854,1,0,0:0:0:0:
256,192,4854,1,0,0:0:0:0:
402,192,4854,1,0,0:0:0:0:
329,192,4963,1,0,0:0:0:0:
36,192,5072,1,0,0:0:0:0:
475,192,5072,1,0,0:0:0:0:
109,192,5180,1,0,0:0:0:0:
182,192,5289,1,0,0:0:0:0:
36,192,5289,1,0,0:0:0:0:
329,192,5289,1,0,0:0:0:0:
256,192,5398,1,0,0:0:0:0:
182,192,5506,1,0,0:0:0:0:
402,192,5506,1,0,0:0:0:0:
329,192,5615,1,0,0:0:0:0:
109,192,5724,1,0,0:0:0:0:
182,192,5724,1,0,0:0:0:0:
402,192,5724,1,0,0:0:0:0:
256,192,5832,1,0,0:0:0:0:
109,192,5941,1,0,0:0:0:0:
329,192,5941,1,0,0:0:0:0:
402,192,5941,1,0,0:0:0:0:
182,192,6050,1,0,0:0:0:0:
36,192,6158,1,0,0:0:0:0:
256,192,6158,1,0,0:0:0:0:
329,192,6158,1,0,0:0:0:0:
109,192,6267,1,0,0:0:0:0:
36,192,6376,1,0,0:0:0:0:
402,192,6376,1,0,0:0:0:0:
182,192,6484,1,0,0:0:0:0:
256,192,6593,1,0,0:0:0:0:
109,192,6593,1,0,0:0:0:0:
475,192,6593,1,0,0:0:0:0:
329,192,6702,1,0,0:0:0:0:
182,192,6811,1,0,0:0:0:0:
36,192,6811,1,0,0:0:0:0:
402,192,6919,1,0,0:0:0:0:
36,192,7028,1,0,0:0:0:0:
182,192,7028,1,0,0:0:0:0:
109,192,7028,1,0,0:0:0:0:
329,192,7137,1,0,0:0:0:0:
182,192,7245,1,0,0:0:0:0:
402,192,7245,1,0,0:0:0:0:
256,192,7354,1,0,0:0:0:0:
109,192,7463,1,0,0:0:0:0:
329,192,7463,1,0,0:0:0:0:
402,192,7463,1,0,0:0:0:0:
182,192,7571,1,0,0:0:0:0:
36,192,7680,1,0,0:0:0:0:
256,192,7680,1,0,0:0:0:0:
109,192,7789,1,0,0:0:0:0:
182,192,7897,1,0,0:0:0:0:
329,192,7897,1,0,0:0:0:0:
475,192,7897,1,0,0:0:0:0:
402,192,8006,1,0,0:0:0:0:
256,192,8115,1,0,0:0:0:0:
475,192,8115,1,0,0:0:0:0:
329,192,8223,1,0,0:0:0:0:
109,192,8332,1,0,0:0:0:0:
182,192,8332,1,0,0:0:0:0:
402,192,8332,1,0,0:0:0:0:
329,192,8441,1,0,0:0:0:0:
36,192,8549,1,0,0:0:0:0:
182,192,8549,1,0,0:0:0:0:
256,192,8658,1,0,0:0:0:0:
109,192,8767,1,0,0:0:0:0:
329,192,8767,1,0,0:0:0:0:
402,192,8767,1,0,0:0:0:0:
182,192,8876,1,0,0:0:0:0:
109,192,8984,1,0,0:0:0:0:
329,192,8984,1,0,0:0:0:0:
256,192,9093,1,0,0:0:0:0:
109,192,9202,1,0,0:0:0:0:
329,192,9202,1,0,0:0:0:0:
475,192,9202,1,0,0:0:0:0:
182,192,9310,1,0,0:0:0:0:
402,192,9419,1,0,0:0:0:0:
475,192,9419,1,0,0:0:0:0:
329,192,9528,1,0,0:0:0:0:
36,192,9636,1,0,0:0:0:0:
109,192,9636,1,0,0:0:0:0:
256,192,9636,1,0,0:0:0:0:
182,192,9745,1,0,0:0:0:0:
329,192,9854,1,0,0:0:0:0:
36,192,9854,1,0,0:0:0:0:
109,192,9962,1,0,0:0:0:0:
36,192,10071,1,0,0:0:0:0:
182,192,10071,1,0,0:0:0:0:
329,192,10071,1,0,0:0:0:0:
256,192,10180,1,0,0:0:0:0:
182,192,10288,1,0,0:0:0:0:
402,192,10288,1,0,0:0:0:0:
329,192,10397,1,0,0:0:0:0:
402,192,10506,1,0,0:0:0:0:
475,192,10506,1,0,0:0:0:0:
182,192,10506,1,0,0:0:0:0:
256,192,10614,1,0,0:0:0:0:
182,192,10723,1,0,0:0:0:0:
36,192,10723,1,0,0:0:0:0:
329,192,10832,1,0,0:0:0:0:
36,192,10941,1,0,0:0:0:0:
109,192,10941,1,0,0:0:0:0:
182,192,10941,1,0,0:0:0:0:
256,192,11049,1,0,0:0:0:0:
109,192,11158,1,0,0:0:0:0:
329,192,11158,1,0,0:0:0:0:
182,192,11267,1,0,0:0:0:0:
109,192,11375,1,0,0:0:0:0:
402,192,11375,1,0,0:0:0:0:
475,192,11375,1,0,0:0:0:0:
256,192,11484,1,0,0:0:0:0:
182,192,11593,1,0,0:0:0:0:
402,192,11593,1,0,0:0:0:0:
329,192,11701,1,0,0:0:0:0:
36,192,11810,1,0,0:0:0:0:
109,192,11810,1,0,0:0:0:0:
182,192,11810,1,0,0:0:0:0:
256,192,11919,1,0,0:0:0:0:
109,192,12027,1,0,0:0:0:0:
402,192,12027,1,0,0:0:0:0:
182,192,12136,1,0,0:0:0:0:
109,192,12245,1,0,0:0:0:0:
329,192,12245,1,0,0:0:0:0:
475,192,12245,1,0,0:0:0:0:
256,192,12353,1,0,0:0:0:0:
182,192,12462,1,0,0:0:0:0:
402,192,12462,1,0,0:0:0:0:
329,192,12571,1,0,0:0:0:0:
36,192,12679,1,0,0:0:0:0:
109,192,12679,1,0,0:0:0:0:
182,192,12679,1,0,0:0:0:0:
256,192,12788,1,0,0:0:0:0:
109,192,12897,1,0,0:0:0:0:
402,192,12897,1,0,0:0:0:0:
329,192,12897,1,0,0:0:0:0:
182,192,13006,1,0,0:0:0:0:
36,192,13114,1,0,0:0:0:0:
109,192,13114,1,0,0:0:0:0:
256,192,13114,1,0,0:0:0:0:
182,192,13223,1,0,0:0:0:0:
329,192,13332,1,0,0:0:0:0:
475,192,13332,1,0,0:0:0:0:
402,192,13440,1,0,0:0:0:0:
109,192,13549,1,0,0:0:0:0:
182,192,13549,1,0,0:0:0:0:
256,192,13549,1,0,0:0:0:0:
329,192,13658,1,0,0:0:0:0:
36,192,13766,1,0,0:0:0:0:
256,192,13766,1,0,0:0:0:0:
182,192,13875,1,0,0:0:0:0:
256,192,13984,1,0,0:0:0:0:
329,192,13984,1,0,0:0:0:0:
402,192,13984,1,0,0:0:0:0:
109,192,14092,1,0,0:0:0:0:
36,192,14201,1,0,0:0:0:0:
256,192,14201,1,0,0:0:0:0:
182,192,14310,1,0,0:0:0:0:
36,192,14418,1,0,0:0:0:0:
109,192,14418,1,0,0:0:0:0:
329,192,14418,1,0,0:0:0:0:
182,192,14527,1,0,0:0:0:0:
329,192,14636,1,0,0:0:0:0:
475,192,14636,1,0,0:0:0:0:
402,192,14744,1,0,0:0:0:0:
36,192,14853,1,0,0:0:0:0:
256,192,14853,1,0,0:0:0:0:
329,192,14853,1,0,0:0:0:0:
182,192,14962,1,0,0:0:0:0:
36,192,15071,1,0,0:0:0:0:
256,192,15071,1,0,0:0:0:0:
109,192,15179,1,0,0:0:0:0:
182,192,15288,1,0,0:0:0:0:
329,192,15288,1,0,0:0:0:0:
402,192,15288,1,0,0:0:0:0:
256,192,15397,1,0,0:0:0:0:
109,192,15505,1,0,0:0:0:0:
329,192,15505,1,0,0:0:0:0:
182,192,15614,1,0,0:0:0:0:
36,192,15723,1,0,0:0:0:0:
256,192,15723,1,0,0:0:0:0:
329,192,15723,1,0,0:0:0:0:
182,192,15831,1,0,0:0:0:0:
36,192,15940,1,0,0:0:0:0:
256,192,15940,1,0,0:0:0:0:
109,192,16049,1,0,0:0:0:0:
182,192,16157,1,0,0:0:0:0:
329,192,16157,1,0,0:0:0:0:
402,192,16157,1,0,0:0:0:0:
256,192,16266,1,0,0:0:0:0:
182,192,16375,1,0,0:0:0:0:
402,192,16375,1,0,0:0:0:0:
329,192,16483,1,0,0:0:0:0:
182,192,16592,1,0,0:0:0:0:
109,192,16592,1,0,0:0:0:0:
36,192,16592,1,0,0:0:0:0:
402,192,16701,1,0,0:0:0:0:
329,192,16810,1,0,0:0:0:0:
475,192,16810,1,0,0:0:0:0:
256,192,16918,1,0,0:0:0:0:
36,192,17027,1,0,0:0:0:0:
109,192,17027,1,0,0:0:0:0:
329,192,17027,1,0,0:0:0:0:
182,192,17136,1,0,0:0:0:0:
109,192,17244,1,0,0:0:0:0:
329,192,17244,1,0,0:0:0:0:
256,192,17353,1,0,0:0:0:0:
182,192,17462,1,0,0:0:0:0:
329,192,17462,1,0,0:0:0:0:
402,192,17462,1,0,0:0:0:0:
109,192,17570,1,0,0:0:0:0:
36,192,17679,1,0,0:0:0:0:
256,192,17679,1,0,0:0:0:0:
182,192,17788,1,0,0:0:0:0:
109,192,17896,128,0,18005:0:0:0:0:
256,192,17896,128,0,18005:0:0:0:0:
329,192,17896,128,0,18005:0:0:0:0:
182,192,18005,128,0,18114:0:0:0:0:
329,192,18114,1,0,0:0:0:0:
475,192,18114,1,0,0:0:0:0:
256,192,18222,1,0,0:0:0:0:
109,192,18331,1,0,0:0:0:0:
36,192,18331,1,0,0:0:0:0:
329,192,18331,1,0,0:0:0:0:
182,192,18440,1,0,0:0:0:0:
36,192,18548,1,0,0:0:0:0:
256,192,18548,1,0,0:0:0:0:
109,192,18657,1,0,0:0:0:0:
182,192,18766,128,0,18875:0:0:0:0:
256,192,18766,128,0,18875:0:0:0:0:
329,192,18766,128,0,18875:0:0:0:0:
109,192,18875,128,0,18983:0:0:0:0:
256,192,18983,1,0,0:0:0:0:
402,192,18983,1,0,0:0:0:0:
329,192,19092,1,0,0:0:0:0:
182,192,19201,1,0,0:0:0:0:
402,192,19201,1,0,0:0:0:0:
109,192,19201,1,0,0:0:0:0:
256,192,19309,1,0,0:0:0:0:
109,192,19418,1,0,0:0:0:0:
329,192,19418,1,0,0:0:0:0:
182,192,19527,1,0,0:0:0:0:
36,192,19635,128,0,19744:0:0:0:0:
109,192,19635,128,0,19744:0:0:0:0:
182,192,19635,128,0,19744:0:0:0:0:
256,192,19744,128,0,19853:0:0:0:0:
402,192,19853,1,0,0:0:0:0:
109,192,19853,1,0,0:0:0:0:
182,192,19961,1,0,0:0:0:0:
329,192,20070,1,0,0:0:0:0:
475,192,20070,1,0,0:0:0:0:
109,192,20070,1,0,0:0:0:0:
256,192,20179,1,0,0:0:0:0:
109,192,20287,1,0,0:0:0:0:
329,192,20287,1,0,0:0:0:0:
182,192,20396,1,0,0:0:0:0:
109,192,20505,128,0,20613:0:0:0:0:
256,192,20505,128,0,20613:0:0:0:0:
329,192,20505,128,0,20613:0:0:0:0:
182,192,20613,128,0,20722:0:0:0:0:
36,192,20722,1,0,0:0:0:0:
256,192,20722,1,0,0:0:0:0:
109,192,20831,1,0,0:0:0:0:
182,192,20940,1,0,0:0:0:0:
329,192,20940,1,0,0:0:0:0:
402,192,20940,1,0,0:0:0:0:
256,192,21048,1,0,0:0:0:0:
182,192,21157,1,0,0:0:0:0:
402,192,21157,1,0,0:0:0:0:
329,192,21266,1,0,0:0:0:0:
256,192,21374,128,0,21483:0:0:0:0:
402,192,21374,128,0,21483:0:0:0:0:
475,192,21374,128,0,21483:0:0:0:0:
329,192,21483,128,0,21592:0:0:0:0:
109,192,21592,1,0,0:0:0:0:
256,192,21592,1,0,0:0:0:0:
182,192,21700,1,0,0:0:0:0:
36,192,21809,1,0,0:0:0:0:
109,192,21809,1,0,0:0:0:0:
256,192,21809,1,0,0:0:0:0:
182,192,21918,1,0,0:0:0:0:
109,192,22026,1,0,0:0:0:0:
329,192,22026,1,0,0:0:0:0:
256,192,22135,1,0,0:0:0:0:
182,192,22244,128,0,22352:0:0:0:0:
402,192,22244,128,0,22352:0:0:0:0:
475,192,22244,128,0,22352:0:0:0:0:
329,192,22352,128,0,22461:0:0:0:0:
256,192,22461,1,0,0:0:0:0:
475,192,22461,1,0,0:0:0:0:
402,192,22570,1,0,0:0:0:0:
109,192,22678,1,0,0:0:0:0:
256,192,22678,1,0,0:0:0:0:
329,192,22678,1,0,0:0:0:0:
182,192,22787,1,0,0:0:0:0:
256,192,22896,1,0,0:0:0:0:
36,192,22896,1,0,0:0:0:0:
109,192,23005,1,0,0:0:0:0:
182,192,23113,128,0,23222:0:0:0:0:
256,192,23113,128,0,23222:0:0:0:0:
329,192,23113,128,0,23222:0:0:0:0:
36,192,23222,128,0,23331:0:0:0:0:
109,192,23331,1,0,0:0:0:0:
402,192,23331,1,0,0:0:0:0:
329,192,23439,1,0,0:0:0:0:
182,192,23548,1,0,0:0:0:0:
402,192,23548,1,0,0:0:0:0:
109,192,23548,1,0,0:0:0:0:
256,192,23657,1,0,0:0:0:0:
329,192,23765,1,0,0:0:0:0:
36,192,23765,1,0,0:0:0:0:
109,192,23874,1,0,0:0:0:0:
182,192,23983,128,0,24091:0:0:0:0:
256,192,23983,128,0,24091:0:0:0:0:
402,192,23983,128,0,24091:0:0:0:0:
329,192,24091,128,0,24200:0:0:0:0:
109,192,24200,1,0,0:0:0:0:
182,192,24200,1,0,0:0:0:0:
256,192,24309,1,0,0:0:0:0:
109,192,24417,1,0,0:0:0:0:
329,192,24417,1,0,0:0:0:0:
402,192,24417,1,0,0:0:0:0:
182,192,24526,1,0,0:0:0:0:
36,192,24635,1,0,0:0:0:0:
256,192,24635,1,0,0:0:0:0:
109,192,24744,1,0,0:0:0:0:
182,192,24852,128,0,24961:0:0:0:0:
329,192,24852,128,0,24961:0:0:0:0:
402,192,24852,128,0,24961:0:0:0:0:
256,192,24961,128,0,25070:0:0:0:0:
182,192,25070,1,0,0:0:0:0:
402,192,25070,1,0,0:0:0:0:
329,192,25178,1,0,0:0:0:0:
36,192,25287,1,0,0:0:0:0:
182,192,25287,1,0,0:0:0:0:
256,192,25287,1,0,0:0:0:0:
109,192,25396,1,0,0:0:0:0:
36,192,25504,1,0,0:0:0:0:
256,192,25504,1,0,0:0:0:0:
182,192,25613,1,0,0:0:0:0:
109,192,25722,128,0,25830:0:0:0:0:
256,192,25722,128,0,25830:0:0:0:0:
329,192,25722,128,0,25830:0:0:0:0:
182,192,25830,128,0,25939:0:0:0:0:
329,192,25939,1,0,0:0:0:0:
475,192,25939,1,0,0:0:0:0:
402,192,26048,1,0,0:0:0:0:
109,192,26156,1,0,0:0:0:0:
182,192,26156,1,0,0:0:0:0:
329,192,26156,1,0,0:0:0:0:
256,192,26265,1,0,0:0:0:0:
109,192,26374,1,0,0:0:0:0:
329,192,26374,1,0,0:0:0:0:
182,192,26482,1,0,0:0:0:0:
109,192,26591,128,0,26700:0:0:0:0:
256,192,26591,128,0,26700:0:0:0:0:
36,192,26591,128,0,26700:0:0:0:0:
182,192,26700,128,0,26809:0:0:0:0:
329,192,26809,1,0,0:0:0:0:
402,192,26809,1,0,0:0:0:0:
256,192,26917,1,0,0:0:0:0:
109,192,27026,1,0,0:0:0:0:
329,192,27026,1,0,0:0:0:0:
402,192,27026,1,0,0:0:0:0:
182,192,27135,1,0,0:0:0:0:
36,192,27243,1,0,0:0:0:0:
256,192,27243,1,0,0:0:0:0:
109,192,27352,1,0,0:0:0:0:
182,192,27461,128,0,27569:0:0:0:0:
256,192,27461,128,0,27569:0:0:0:0:
402,192,27461,128,0,27569:0:0:0:0:
329,192,27569,128,0,27678:0:0:0:0:
109,192,27678,1,0,0:0:0:0:
36,192,27678,1,0,0:0:0:0:
182,192,27787,1,0,0:0:0:0:
256,192,27895,1,0,0:0:0:0:
329,192,27895,1,0,0:0:0:0:
402,192,27895,1,0,0:0:0:0:
109,192,28004,1,0,0:0:0:0:
182,192,28113,1,0,0:0:0:0:
256,192,28113,1,0,0:0:0:0:
36,192,28221,1,0,0:0:0:0:
109,192,28330,128,0,28439:0:0:0:0:
182,192,28330,128,0,28439:0:0:0:0:
256,192,28330,128,0,28439:0:0:0:0:
329,192,28439,128,0,28547:0:0:0:0:
182,192,28547,1,0,0:0:0:0:
402,192,28547,1,0,0:0:0:0:
256,192,28656,1,0,0:0:0:0:
36,192,28765,1,0,0:0:0:0:
109,192,28765,1,0,0:0:0:0:
329,192,28765,1,0,0:0:0:0:
182,192,28874,1,0,0:0:0:0:
36,192,28982,1,0,0:0:0:0:
256,192,28982,1,0,0:0:0:0:
109,192,29091,1,0,0:0:0:0:
329,192,29200,128,0,29308:0:0:0:0:
402,192,29200,128,0,29308:0:0:0:0:
475,192,29200,128,0,29308:0:0:0:0:
256,192,29308,128,0,29417:0:0:0:0:
109,192,29417,1,0,0:0:0:0:
182,192,29417,1,0,0:0:0:0:
329,192,29526,1,0,0:0:0:0:
36,192,29634,1,0,0:0:0:0:
109,192,29634,1,0,0:0:0:0:
256,192,29634,1,0,0:0:0:0:
182,192,29743,1,0,0:0:0:0:
109,192,29852,1,0,0:0:0:0:
329,192,29852,1,0,0:0:0:0:
256,192,29960,1,0,0:0:0:0:
182,192,30069,128,0,30178:0:0:0:0:
329,192,30069,128,0,30178:0:0:0:0:
475,192,30069,128,0,30178:0:0:0:0:
402,192,30178,128,0,30286:0:0:0:0:
256,192,30286,1,0,0:0:0:0:
475,192,30286,1,0,0:0:0:0:
329,192,30395,1,0,0:0:0:0:
109,192,30504,1,0,0:0:0:0:
182,192,30504,1,0,0:0:0:0:
402,192,30504,1,0,0:0:0:0:
256,192,30612,1,0,0:0:0:0:
36,192,30721,1,0,0:0:0:0:
329,192,30721,1,0,0:0:0:0:
109,192,30830,1,0,0:0:0:0:
182,192,30939,128,0,31047:0:0:0:0:
402,192,30939,128,0,31047:0:0:0:0:
329,192,30939,128,0,31047:0:0:0:0:
256,192,31047,128,0,31156:0:0:0:0:
109,192,31156,1,0,0:0:0:0:
329,192,31156,1,0,0:0:0:0:
182,192,31265,1,0,0:0:0:0:
329,192,31373,1,0,0:0:0:0:
402,192,31373,1,0,0:0:0:0:
475,192,31373,1,0,0:0:0:0:
256,192,31373,1,0,0:0:0:0:
182,192,31482,1,0,0:0:0:0:
109,192,31591,1,0,0:0:0:0:
329,192,31591,1,0,0:0:0:0:
256,192,31699,1,0,0:0:0:0:
475,192,31808,128,0,32025:0:0:0:0:
182,192,31808,1,0,0:0:0:0:
329,192,31808,1,0,0:0:0:0:
109,192,31808,1,0,0:0:0:0:
256,192,31917,1,0,0:0:0:0:
402,192,32025,128,0,32243:0:0:0:0:
182,192,32025,1,0,0:0:0:0:
475,192,32134,128,0,32351:0:0:0:0:
109,192,32134,1,0,0:0:0:0:
329,192,32243,128,0,32460:0:0:0:0:
36,192,32243,1,0,0:0:0:0:
402,192,32351,128,0,32569:0:0:0:0:
109,192,32351,1,0,0:0:0:0:
182,192,32460,128,0,32895:0:0:0:0:
329,192,32569,128,0,32786:0:0:0:0:
36,192,32569,1,0,0:0:0:0:
109,192,32678,1,0,0:0:0:0:
402,192,32786,1,0,0:0:0:0:
256,192,32895,128,0,33764:0:0:0:0:
475,192,32895,1,0,0:0:0:0:
182,192,33004,128,0,33221:0:0:0:0:
402,192,33004,1,0,0:0:0:0:
329,192,33112,1,0,0:0:0:0:
475,192,33112,1,0,0:0:0:0:
402,192,33221,1,0,0:0:0:0:
329,192,33330,1,0,0:0:0:0:
182,192,33438,1,0,0:0:0:0:
109,192,33547,1,0,0:0:0:0:
36,192,33547,1,0,0:0:0:0:
402,192,33547,1,0,0:0:0:0:
182,192,33656,1,0,0:0:0:0:
329,192,33764,1,0,0:0:0:0:
402,192,33873,1,0,0:0:0:0:
256,192,33982,1,0,0:0:0:0:
475,192,33982,1,0,0:0:0:0:
329,192,33982,1,0,0:0:0:0:
182,192,34090,1,0,0:0:0:0:
109,192,34199,1,0,0:0:0:0:
329,192,34199,1,0,0:0:0:0:
256,192,34308,1,0,0:0:0:0:
36,192,34416,1,0,0:0:0:0:
182,192,34416,1,0,0:0:0:0:
329,192,34416,1,0,0:0:0:0:
109,192,34525,1,0,0:0:0:0:
36,192,34634,1,0,0:0:0:0:
256,192,34634,1,0,0:0:0:0:
182,192,34743,1,0,0:0:0:0:
256,192,34851,1,0,0:0:0:0:
402,192,34851,1,0,0:0:0:0:
475,192,34851,1,0,0:0:0:0:
329,192,34960,1,0,0:0:0:0:
182,192,35069,1,0,0:0:0:0:
402,192,35069,1,0,0:0:0:0:
256,192,35177,1,0,0:0:0:0:
329,192,35286,128,0,35503:0:0:0:0:
109,192,35286,1,0,0:0:0:0:
402,192,35286,1,0,0:0:0:0:
182,192,35395,1,0,0:0:0:0:
256,192,35503,128,0,35721:0:0:0:0:
475,192,35503,1,0,0:0:0:0:
402,192,35612,1,0,0:0:0:0:
182,192,35721,128,0,35938:0:0:0:0:
329,192,35721,1,0,0:0:0:0:
402,192,35829,1,0,0:0:0:0:
109,192,35938,128,0,36373:0:0:0:0:
329,192,35938,1,0,0:0:0:0:
256,192,36047,1,0,0:0:0:0:
182,192,36155,1,0,0:0:0:0:
36,192,36264,1,0,0:0:0:0:
329,192,36373,128,0,36808:0:0:0:0:
182,192,36373,1,0,0:0:0:0:
256,192,36481,1,0,0:0:0:0:
402,192,36590,1,0,0:0:0:0:
475,192,36699,1,0,0:0:0:0:
256,192,36808,128,0,37242:0:0:0:0:
402,192,36808,1,0,0:0:0:0:
329,192,36916,1,0,0:0:0:0:
182,192,37025,1,0,0:0:0:0:
109,192,37134,1,0,0:0:0:0:
36,192,37242,128,0,38329:0:0:0:0:
475,192,37242,128,0,38329:0:0:0:0:
402,192,37242,1,0,0:0:0:0:
329,192,37351,1,0,0:0:0:0:
182,192,37460,1,0,0:0:0:0:
402,192,37460,1,0,0:0:0:0:
256,192,37568,1,0,0:0:0:0:
109,192,37677,1,0,0:0:0:0:
329,192,37677,1,0,0:0:0:0:
182,192,37786,1,0,0:0:0:0:
109,192,37894,1,0,0:0:0:0:
329,192,37894,1,0,0:0:0:0:
256,192,38003,1,0,0:0:0:0:
182,192,38112,1,0,0:0:0:0:
402,192,38112,1,0,0:0:0:0:
329,192,38220,1,0,0:0:0:0:
182,192,38329,1,0,0:0:0:0:
256,192,38329,1,0,0:0:0:0:
329,192,38438,1,0,0:0:0:0:
109,192,38546,1,0,0:0:0:0:
402,192,38546,1,0,0:0:0:0:
256,192,38655,1,0,0:0:0:0:
475,192,38655,1,0,0:0:0:0:
182,192,38764,1,0,0:0:0:0:
329,192,38764,1,0,0:0:0:0:
402,192,38764,1,0,0:0:0:0:
256,192,38873,1,0,0:0:0:0:
182,192,38981,1,0,0:0:0:0:
402,192,38981,1,0,0:0:0:0:
109,192,39090,1,0,0:0:0:0:
329,192,39090,1,0,0:0:0:0:
182,192,39199,1,0,0:0:0:0:
402,192,39199,1,0,0:0:0:0:
475,192,39199,1,0,0:0:0:0:
256,192,39307,1,0,0:0:0:0:
109,192,39416,1,0,0:0:0:0:
329,192,39416,1,0,0:0:0:0:
36,192,39525,1,0,0:0:0:0:
256,192,39525,1,0,0:0:0:0:
182,192,39633,1,0,0:0:0:0:
329,192,39633,1,0,0:0:0:0:
402,192,39633,1,0,0:0:0:0:
109,192,39742,1,0,0:0:0:0:
36,192,39851,1,0,0:0:0:0:
329,192,39851,1,0,0:0:0:0:
182,192,39959,1,0,0:0:0:0:
402,192,39959,1,0,0:0:0:0:
256,192,40068,1,0,0:0:0:0:
109,192,40068,1,0,0:0:0:0:
475,192,40068,1,0,0:0:0:0:
182,192,40177,1,0,0:0:0:0:
329,192,40285,1,0,0:0:0:0:
36,192,40285,1,0,0:0:0:0:
256,192,40394,1,0,0:0:0:0:
329,192,40503,1,0,0:0:0:0:
402,192,40503,1,0,0:0:0:0:
109,192,40503,1,0,0:0:0:0:
182,192,40611,1,0,0:0:0:0:
109,192,40720,1,0,0:0:0:0:
402,192,40720,1,0,0:0:0:0:
329,192,40829,1,0,0:0:0:0:
182,192,40938,1,0,0:0:0:0:
36,192,40938,1,0,0:0:0:0:
256,192,40938,1,0,0:0:0:0:
109,192,41046,1,0,0:0:0:0:
256,192,41155,1,0,0:0:0:0:
402,192,41155,1,0,0:0:0:0:
329,192,41264,1,0,0:0:0:0:
475,192,41264,1,0,0:0:0:0:
182,192,41372,1,0,0:0:0:0:
256,192,41372,1,0,0:0:0:0:
109,192,41372,1,0,0:0:0:0:
36,192,41481,1,0,0:0:0:0:
109,192,41590,1,0,0:0:0:0:
329,192,41590,1,0,0:0:0:0:
182,192,41698,1,0,0:0:0:0:
402,192,41698,1,0,0:0:0:0:
256,192,41807,1,0,0:0:0:0:
329,192,41807,1,0,0:0:0:0:
475,192,41807,1,0,0:0:0:0:
182,192,41916,1,0,0:0:0:0:
109,192,42024,1,0,0:0:0:0:
329,192,42024,1,0,0:0:0:0:
256,192,42133,1,0,0:0:0:0:
109,192,42242,1,0,0:0:0:0:
329,192,42242,1,0,0:0:0:0:
402,192,42242,1,0,0:0:0:0:
182,192,42350,1,0,0:0:0:0:
36,192,42459,1,0,0:0:0:0:
256,192,42459,1,0,0:0:0:0:
109,192,42568,1,0,0:0:0:0:
475,192,42677,1,0,0:0:0:0:
402,192,42677,1,0,0:0:0:0:
329,192,42677,1,0,0:0:0:0:
256,192,42785,1,0,0:0:0:0:
182,192,42894,1,0,0:0:0:0:
402,192,42894,1,0,0:0:0:0:
329,192,43003,1,0,0:0:0:0:
109,192,43111,1,0,0:0:0:0:
256,192,43111,1,0,0:0:0:0:
402,192,43111,1,0,0:0:0:0:
182,192,43220,1,0,0:0:0:0:
109,192,43329,1,0,0:0:0:0:
329,192,43329,1,0,0:0:0:0:
182,192,43437,1,0,0:0:0:0:
36,192,43437,1,0,0:0:0:0:
109,192,43546,1,0,0:0:0:0:
256,192,43546,1,0,0:0:0:0:
329,192,43546,1,0,0:0:0:0:
182,192,43655,1,0,0:0:0:0:
256,192,43763,1,0,0:0:0:0:
402,192,43763,1,0,0:0:0:0:
329,192,43872,1,0,0:0:0:0:
475,192,43872,1,0,0:0:0:0:
182,192,43981,1,0,0:0:0:0:
36,192,43981,1,0,0:0:0:0:
109,192,43981,1,0,0:0:0:0:
256,192,44089,1,0,0:0:0:0:
402,192,44089,1,0,0:0:0:0:
182,192,44198,1,0,0:0:0:0:
329,192,44198,1,0,0:0:0:0:
109,192,44307,1,0,0:0:0:0:
475,192,44307,1,0,0:0:0:0:
36,192,44415,1,0,0:0:0:0:
256,192,44415,128,0,44524:0:0:0:0:
329,192,44415,128,0,44524:0:0:0:0:
402,192,44524,128,0,44633:0:0:0:0:
182,192,44524,128,0,44633:0:0:0:0:
329,192,44633,128,0,44742:0:0:0:0:
109,192,44633,128,0,44742:0:0:0:0:
256,192,44742,128,0,44850:0:0:0:0:
36,192,44742,128,0,44850:0:0:0:0:
109,192,44850,128,0,44959:0:0:0:0:
329,192,44850,128,0,44959:0:0:0:0:
182,192,44959,128,0,45068:0:0:0:0:
402,192,44959,128,0,45068:0:0:0:0:
256,192,45068,128,0,45176:0:0:0:0:
475,192,45068,128,0,45176:0:0:0:0:
329,192,45176,128,0,45285:0:0:0:0:
402,192,45176,128,0,45285:0:0:0:0:
36,192,45285,1,0,0:0:0:0:
182,192,45285,1,0,0:0:0:0:
256,192,45285,1,0,0:0:0:0:
109,192,45394,1,0,0:0:0:0:
182,192,45502,1,0,0:0:0:0:
329,192,45502,1,0,0:0:0:0:
256,192,45611,1,0,0:0:0:0:
36,192,45720,128,0,45937:0:0:0:0:
182,192,45720,1,0,0:0:0:0:
402,192,45720,1,0,0:0:0:0:
329,192,45720,1,0,0:0:0:0:
475,192,45828,1,0,0:0:0:0:
109,192,45937,128,0,46372:0:0:0:0:
402,192,45937,1,0,0:0:0:0:
182,192,45937,1,0,0:0:0:0:
329,192,46046,1,0,0:0:0:0:
182,192,46154,1,0,0:0:0:0:
402,192,46154,1,0,0:0:0:0:
475,192,46154,1,0,0:0:0:0:
329,192,46263,1,0,0:0:0:0:
182,192,46372,128,0,46807:0:0:0:0:
256,192,46372,1,0,0:0:0:0:
402,192,46372,1,0,0:0:0:0:
329,192,46480,1,0,0:0:0:0:
109,192,46589,1,0,0:0:0:0:
256,192,46589,1,0,0:0:0:0:
475,192,46589,1,0,0:0:0:0:
329,192,46698,1,0,0:0:0:0:
256,192,46807,128,0,47676:0:0:0:0:
36,192,46807,1,0,0:0:0:0:
402,192,46807,1,0,0:0:0:0:
109,192,46915,1,0,0:0:0:0:
182,192,47024,1,0,0:0:0:0:
329,192,47024,1,0,0:0:0:0:
402,192,47024,1,0,0:0:0:0:
475,192,47133,1,0,0:0:0:0:
109,192,47241,1,0,0:0:0:0:
402,192,47241,1,0,0:0:0:0:
182,192,47350,1,0,0:0:0:0:
36,192,47459,1,0,0:0:0:0:
109,192,47459,1,0,0:0:0:0:
329,192,47459,1,0,0:0:0:0:
182,192,47567,1,0,0:0:0:0:
402,192,47676,1,0,0:0:0:0:
329,192,47676,1,0,0:0:0:0:
475,192,47676,1,0,0:0:0:0:
109,192,47785,1,0,0:0:0:0:
182,192,47893,1,0,0:0:0:0:
329,192,47893,1,0,0:0:0:0:
475,192,47893,1,0,0:0:0:0:
256,192,48002,1,0,0:0:0:0:
109,192,48111,1,0,0:0:0:0:
329,192,48111,1,0,0:0:0:0:
182,192,48219,1,0,0:0:0:0:
36,192,48328,1,0,0:0:0:0:
109,192,48328,1,0,0:0:0:0:
402,192,48328,1,0,0:0:0:0:
329,192,48437,1,0,0:0:0:0:
182,192,48545,1,0,0:0:0:0:
402,192,48545,1,0,0:0:0:0:
109,192,48654,1,0,0:0:0:0:
36,192,48763,1,0,0:0:0:0:
182,192,48763,1,0,0:0:0:0:
256,192,48763,1,0,0:0:0:0:
329,192,48872,1,0,0:0:0:0:
182,192,48980,1,0,0:0:0:0:
402,192,48980,1,0,0:0:0:0:
109,192,49089,1,0,0:0:0:0:
182,192,49198,1,0,0:0:0:0:
329,192,49198,1,0,0:0:0:0:
475,192,49198,1,0,0:0:0:0:
256,192,49306,1,0,0:0:0:0:
402,192,49415,128,0,49632:0:0:0:0:
109,192,49415,1,0,0:0:0:0:
329,192,49415,1,0,0:0:0:0:
182,192,49524,1,0,0:0:0:0:
329,192,49632,128,0,49850:0:0:0:0:
36,192,49632,1,0,0:0:0:0:
109,192,49632,1,0,0:0:0:0:
256,192,49632,1,0,0:0:0:0:
402,192,49741,1,0,0:0:0:0:
256,192,49850,128,0,50284:0:0:0:0:
182,192,49850,1,0,0:0:0:0:
475,192,49850,1,0,0:0:0:0:
329,192,49958,1,0,0:0:0:0:
36,192,50067,1,0,0:0:0:0:
109,192,50067,1,0,0:0:0:0:
182,192,50067,1,0,0:0:0:0:
402,192,50176,1,0,0:0:0:0:
182,192,50284,128,0,52676:0:0:0:0:
329,192,50284,1,0,0:0:0:0:
475,192,50284,1,0,0:0:0:0:
256,192,50393,1,0,0:0:0:0:
36,192,50502,1,0,0:0:0:0:
109,192,50502,1,0,0:0:0:0:
329,192,50502,1,0,0:0:0:0:
402,192,50611,1,0,0:0:0:0:
475,192,50719,1,0,0:0:0:0:
256,192,50719,1,0,0:0:0:0:
329,192,50828,1,0,0:0:0:0:
475,192,50937,1,0,0:0:0:0:
109,192,50937,1,0,0:0:0:0:
36,192,50937,1,0,0:0:0:0:
402,192,51045,1,0,0:0:0:0:
329,192,51154,1,0,0:0:0:0:
256,192,51154,1,0,0:0:0:0:
109,192,51263,1,0,0:0:0:0:
36,192,51371,1,0,0:0:0:0:
329,192,51371,1,0,0:0:0:0:
402,192,51371,1,0,0:0:0:0:
475,192,51480,1,0,0:0:0:0:
109,192,51589,1,0,0:0:0:0:
256,192,51589,1,0,0:0:0:0:
36,192,51697,1,0,0:0:0:0:
329,192,51806,1,0,0:0:0:0:
109,192,51806,1,0,0:0:0:0:
402,192,51915,1,0,0:0:0:0:
256,192,51915,1,0,0:0:0:0:
475,192,52023,1,0,0:0:0:0:
329,192,52023,1,0,0:0:0:0:
402,192,52132,1,0,0:0:0:0:
475,192,52241,1,0,0:0:0:0:
402,192,52349,1,0,0:0:0:0:
329,192,52458,1,0,0:0:0:0:
256,192,52567,1,0,0:0:0:0:
109,192,52676,1,0,0:0:0:0:
402,192,52676,1,0,0:0:0:0:
329,192,52784,1,0,0:0:0:0:
256,192,52893,1,0,0:0:0:0:
182,192,53002,1,0,0:0:0:0:
402,192,53002,1,0,0:0:0:0:
36,192,53110,128,0,53328:0:0:0:0:
475,192,53110,128,0,53328:0:0:0:0:
109,192,53110,1,0,0:0:0:0:
329,192,53110,1,0,0:0:0:0:
256,192,53219,1,0,0:0:0:0:
109,192,53328,128,0,53762:0:0:0:0:
402,192,53328,128,0,53762:0:0:0:0:
182,192,53328,1,0,0:0:0:0:
329,192,53328,1,0,0:0:0:0:
256,192,53436,1,0,0:0:0:0:
182,192,53545,1,0,0:0:0:0:
36,192,53654,1,0,0:0:0:0:
329,192,53654,1,0,0:0:0:0:
256,192,53762,128,0,54197:0:0:0:0:
182,192,53762,1,0,0:0:0:0:
475,192,53762,1,0,0:0:0:0:
109,192,53871,1,0,0:0:0:0:
402,192,53871,1,0,0:0:0:0:
36,192,53980,1,0,0:0:0:0:
329,192,53980,1,0,0:0:0:0:
109,192,54088,1,0,0:0:0:0:
475,192,54088,1,0,0:0:0:0:
182,192,54197,128,0,54414:0:0:0:0:
329,192,54197,128,0,54414:0:0:0:0:
402,192,54197,1,0,0:0:0:0:
36,192,54306,1,0,0:0:0:0:
256,192,54306,1,0,0:0:0:0:
109,192,54414,128,0,55719:0:0:0:0:
402,192,54414,128,0,55719:0:0:0:0:
182,192,54523,1,0,0:0:0:0:
329,192,54523,1,0,0:0:0:0:
256,192,54632,1,0,0:0:0:0:
182,192,54741,1,0,0:0:0:0:
475,192,54741,1,0,0:0:0:0:
36,192,54849,1,0,0:0:0:0:
329,192,54849,1,0,0:0:0:0:
256,192,54958,1,0,0:0:0:0:
182,192,55067,1,0,0:0:0:0:
36,192,55175,1,0,0:0:0:0:
329,192,55175,1,0,0:0:0:0:
256,192,55284,1,0,0:0:0:0:
329,192,55393,1,0,0:0:0:0:
36,192,55393,1,0,0:0:0:0:
475,192,55501,1,0,0:0:0:0:
182,192,55501,1,0,0:0:0:0:
256,192,55610,1,0,0:0:0:0:
36,192,55610,1,0,0:0:0:0:
329,192,55719,1,0,0:0:0:0:
182,192,55719,1,0,0:0:0:0:
475,192,55719,1,0,0:0:0:0:
36,192,55827,1,0,0:0:0:0:
109,192,55936,1,0,0:0:0:0:
329,192,55936,1,0,0:0:0:0:
182,192,56045,1,0,0:0:0:0:
329,192,56153,1,0,0:0:0:0:
402,192,56153,1,0,0:0:0:0:
475,192,56153,1,0,0:0:0:0:
256,192,56262,1,0,0:0:0:0:
109,192,56371,1,0,0:0:0:0:
329,192,56371,1,0,0:0:0:0:
182,192,56479,1,0,0:0:0:0:
36,192,56588,1,0,0:0:0:0:
256,192,56588,1,0,0:0:0:0:
402,192,56588,1,0,0:0:0:0:
109,192,56697,1,0,0:0:0:0:
182,192,56806,1,0,0:0:0:0:
329,192,56806,1,0,0:0:0:0:
256,192,56914,1,0,0:0:0:0:
402,192,56914,1,0,0:0:0:0:
109,192,57023,1,0,0:0:0:0:
475,192,57023,1,0,0:0:0:0:
329,192,57023,1,0,0:0:0:0:
182,192,57132,1,0,0:0:0:0:
109,192,57240,1,0,0:0:0:0:
329,192,57240,1,0,0:0:0:0:
36,192,57349,1,0,0:0:0:0:
256,192,57349,1,0,0:0:0:0:
182,192,57458,1,0,0:0:0:0:
329,192,57458,1,0,0:0:0:0:
402,192,57458,1,0,0:0:0:0:
109,192,57566,1,0,0:0:0:0:
36,192,57675,1,0,0:0:0:0:
182,192,57675,1,0,0:0:0:0:
109,192,57784,1,0,0:0:0:0:
256,192,57784,1,0,0:0:0:0:
329,192,57892,1,0,0:0:0:0:
402,192,57892,1,0,0:0:0:0:
475,192,57892,1,0,0:0:0:0:
256,192,58001,1,0,0:0:0:0:
109,192,58110,1,0,0:0:0:0:
329,192,58110,1,0,0:0:0:0:
182,192,58218,1,0,0:0:0:0:
36,192,58327,1,0,0:0:0:0:
256,192,58327,1,0,0:0:0:0:
329,192,58327,1,0,0:0:0:0:
182,192,58436,1,0,0:0:0:0:
256,192,58545,1,0,0:0:0:0:
329,192,58653,1,0,0:0:0:0:
109,192,58762,1,0,0:0:0:0:
182,192,58762,1,0,0:0:0:0:
256,192,58762,1,0,0:0:0:0:
329,192,58871,1,0,0:0:0:0:
402,192,58979,1,0,0:0:0:0:
475,192,59088,1,0,0:0:0:0:
182,192,59197,1,0,0:0:0:0:
256,192,59197,1,0,0:0:0:0:
329,192,59197,1,0,0:0:0:0:
402,192,59305,1,0,0:0:0:0:
329,192,59414,1,0,0:0:0:0:
256,192,59523,1,0,0:0:0:0:
36,192,59631,128,0,59849:0:0:0:0:
182,192,59631,1,0,0:0:0:0:
329,192,59631,1,0,0:0:0:0:
402,192,59631,1,0,0:0:0:0:
475,192,59740,1,0,0:0:0:0:
109,192,59849,128,0,60066:0:0:0:0:
329,192,59849,1,0,0:0:0:0:
402,192,59849,1,0,0:0:0:0:
256,192,59957,1,0,0:0:0:0:
182,192,60066,128,0,60283:0:0:0:0:
475,192,60066,1,0,0:0:0:0:
402,192,60066,1,0,0:0:0:0:
329,192,60066,1,0,0:0:0:0:
109,192,60175,1,0,0:0:0:0:
256,192,60283,128,0,60718:0:0:0:0:
402,192,60283,1,0,0:0:0:0:
182,192,60392,1,0,0:0:0:0:
36,192,60501,1,0,0:0:0:0:
109,192,60501,1,0,0:0:0:0:
329,192,60501,1,0,0:0:0:0:
182,192,60610,1,0,0:0:0:0:
329,192,60718,128,0,61153:0:0:0:0:
402,192,60718,1,0,0:0:0:0:
475,192,60718,1,0,0:0:0:0:
256,192,60827,1,0,0:0:0:0:
36,192,60936,1,0,0:0:0:0:
109,192,60936,1,0,0:0:0:0:
182,192,60936,1,0,0:0:0:0:
475,192,61044,1,0,0:0:0:0:
402,192,61153,128,0,61588:0:0:0:0:
256,192,61153,1,0,0:0:0:0:
182,192,61153,1,0,0:0:0:0:
329,192,61262,1,0,0:0:0:0:
36,192,61370,1,0,0:0:0:0:
182,192,61370,1,0,0:0:0:0:
256,192,61370,1,0,0:0:0:0:
109,192,61479,1,0,0:0:0:0:
475,192,61588,128,0,62675:0:0:0:0:
36,192,61588,1,0,0:0:0:0:
256,192,61588,1,0,0:0:0:0:
182,192,61696,1,0,0:0:0:0:
109,192,61805,1,0,0:0:0:0:
329,192,61805,1,0,0:0:0:0:
402,192,61805,1,0,0:0:0:0:
256,192,61914,1,0,0:0:0:0:
182,192,62022,1,0,0:0:0:0:
402,192,62022,1,0,0:0:0:0:
329,192,62131,1,0,0:0:0:0:
109,192,62240,1,0,0:0:0:0:
182,192,62240,1,0,0:0:0:0:
402,192,62240,1,0,0:0:0:0:
256,192,62348,1,0,0:0:0:0:
36,192,62457,1,0,0:0:0:0:
329,192,62457,1,0,0:0:0:0:
182,192,62566,1,0,0:0:0:0:
109,192,62675,1,0,0:0:0:0:
256,192,62675,1,0,0:0:0:0:
329,192,62675,1,0,0:0:0:0:
36,192,62783,1,0,0:0:0:0:
109,192,62892,1,0,0:0:0:0:
329,192,62892,1,0,0:0:0:0:
182,192,63001,1,0,0:0:0:0:
256,192,63109,128,0,63327:0:0:0:0:
329,192,63109,1,0,0:0:0:0:
475,192,63109,1,0,0:0:0:0:
402,192,63109,1,0,0:0:0:0:
109,192,63218,1,0,0:0:0:0:
182,192,63327,128,0,63544:0:0:0:0:
329,192,63327,1,0,0:0:0:0:
475,192,63327,1,0,0:0:0:0:
256,192,63435,1,0,0:0:0:0:
109,192,63544,128,0,63761:0:0:0:0:
329,192,63544,1,0,0:0:0:0:
475,192,63544,1,0,0:0:0:0:
402,192,63544,1,0,0:0:0:0:
182,192,63653,1,0,0:0:0:0:
36,192,63761,128,0,64196:0:0:0:0:
256,192,63761,1,0,0:0:0:0:
402,192,63761,1,0,0:0:0:0:
109,192,63870,1,0,0:0:0:0:
182,192,63979,1,0,0:0:0:0:
329,192,63979,1,0,0:0:0:0:
402,192,63979,1,0,0:0:0:0:
256,192,64087,1,0,0:0:0:0:
402,192,64196,128,0,67022:0:0:0:0:
475,192,64196,128,0,67457:0:0:0:0:
109,192,64196,1,0,0:0:0:0:
329,192,64196,1,0,0:0:0:0:
182,192,64305,1,0,0:0:0:0:
36,192,64413,1,0,0:0:0:0:
109,192,64413,1,0,0:0:0:0:
329,192,64413,1,0,0:0:0:0:
256,192,64522,1,0,0:0:0:0:
109,192,64631,1,0,0:0:0:0:
329,192,64631,1,0,0:0:0:0:
36,192,64740,1,0,0:0:0:0:
109,192,64848,1,0,0:0:0:0:
256,192,64848,1,0,0:0:0:0:
329,192,64848,1,0,0:0:0:0:
182,192,64957,1,0,0:0:0:0:
36,192,65066,1,0,0:0:0:0:
256,192,65066,1,0,0:0:0:0:
109,192,65174,1,0,0:0:0:0:
329,192,65283,1,0,0:0:0:0:
256,192,65283,1,0,0:0:0:0:
182,192,65283,1,0,0:0:0:0:
36,192,65392,1,0,0:0:0:0:
109,192,65500,1,0,0:0:0:0:
182,192,65609,1,0,0:0:0:0:
36,192,65718,1,0,0:0:0:0:
109,192,65718,1,0,0:0:0:0:
256,192,65718,1,0,0:0:0:0:
329,192,65826,1,0,0:0:0:0:
256,192,65935,1,0,0:0:0:0:
182,192,66044,1,0,0:0:0:0:
36,192,66152,1,0,0:0:0:0:
109,192,66152,1,0,0:0:0:0:
256,192,66152,1,0,0:0:0:0:
182,192,66261,1,0,0:0:0:0:
256,192,66370,1,0,0:0:0:0:
329,192,66478,1,0,0:0:0:0:
109,192,66587,1,0,0:0:0:0:
36,192,66587,1,0,0:0:0:0:
182,192,66587,1,0,0:0:0:0:
329,192,66696,1,0,0:0:0:0:
256,192,66805,1,0,0:0:0:0:
182,192,66913,1,0,0:0:0:0:
36,192,67022,1,0,0:0:0:0:
109,192,67022,1,0,0:0:0:0:
256,192,67022,1,0,0:0:0:0:
182,192,67131,1,0,0:0:0:0:
329,192,67239,128,0,67457:0:0:0:0:
256,192,67239,1,0,0:0:0:0:
402,192,67348,1,0,0:0:0:0:
256,192,67457,128,0,67674:0:0:0:0:
36,192,67457,1,0,0:0:0:0:
109,192,67457,1,0,0:0:0:0:
182,192,67457,1,0,0:0:0:0:
402,192,67565,1,0,0:0:0:0:
182,192,67674,128,0,69630:0:0:0:0:
329,192,67674,1,0,0:0:0:0:
256,192,67783,1,0,0:0:0:0:
36,192,67891,1,0,0:0:0:0:
109,192,67891,1,0,0:0:0:0:
329,192,67891,1,0,0:0:0:0:
475,192,68000,1,0,0:0:0:0:
402,192,68109,1,0,0:0:0:0:
329,192,68217,1,0,0:0:0:0:
256,192,68326,1,0,0:0:0:0:
402,192,68326,1,0,0:0:0:0:
475,192,68326,1,0,0:0:0:0:
36,192,68435,1,0,0:0:0:0:
109,192,68544,1,0,0:0:0:0:
256,192,68652,1,0,0:0:0:0:
329,192,68761,1,0,0:0:0:0:
402,192,68761,1,0,0:0:0:0:
475,192,68761,1,0,0:0:0:0:
256,192,68870,1,0,0:0:0:0:
109,192,68978,1,0,0:0:0:0:
36,192,69087,1,0,0:0:0:0:
256,192,69196,1,0,0:0:0:0:
329,192,69196,1,0,0:0:0:0:
475,192,69196,1,0,0:0:0:0:
402,192,69304,1,0,0:0:0:0:
329,192,69413,1,0,0:0:0:0:
256,192,69522,1,0,0:0:0:0:
36,192,69630,1,0,0:0:0:0:
109,192,69630,1,0,0:0:0:0:
329,192,69630,1,0,0:0:0:0:
475,192,69739,1,0,0:0:0:0:
402,192,69848,1,0,0:0:0:0:
329,192,69956,1,0,0:0:0:0:
256,192,70065,128,0,70174:0:0:0:0:
182,192,70065,128,0,70174:0:0:0:0:
109,192,70065,128,0,70174:0:0:0:0:
36,192,70065,128,0,70174:0:0:0:0:
402,192,70174,128,0,70282:0:0:0:0:
329,192,70282,1,0,0:0:0:0:
256,192,70391,1,0,0:0:0:0:
182,192,70500,1,0,0:0:0:0:
109,192,70500,1,0,0:0:0:0:
36,192,70500,1,0,0:0:0:0:
329,192,70500,1,0,0:0:0:0:
256,192,70609,1,0,0:0:0:0:
182,192,70717,1,0,0:0:0:0:
109,192,70826,1,0,0:0:0:0:
329,192,70935,128,0,71043:0:0:0:0:
256,192,70935,128,0,71043:0:0:0:0:
182,192,70935,128,0,71043:0:0:0:0:
36,192,70935,128,0,71043:0:0:0:0:
109,192,71043,128,0,71152:0:0:0:0:
402,192,71152,1,0,0:0:0:0:
329,192,71261,1,0,0:0:0:0:
256,192,71369,1,0,0:0:0:0:
182,192,71369,1,0,0:0:0:0:
109,192,71369,1,0,0:0:0:0:
36,192,71369,1,0,0:0:0:0:
329,192,71478,1,0,0:0:0:0:
256,192,71587,1,0,0:0:0:0:
182,192,71695,1,0,0:0:0:0:
109,192,71804,128,0,71913:0:0:0:0:
36,192,71804,128,0,71913:0:0:0:0:
329,192,71804,128,0,71913:0:0:0:0:
402,192,71804,128,0,71913:0:0:0:0:
256,192,71913,128,0,72021:0:0:0:0:
182,192,72021,1,0,0:0:0:0:
109,192,72130,1,0,0:0:0:0:
36,192,72239,1,0,0:0:0:0:
182,192,72239,1,0,0:0:0:0:
256,192,72239,1,0,0:0:0:0:
329,192,72239,1,0,0:0:0:0:
402,192,72347,1,0,0:0:0:0:
329,192,72456,1,0,0:0:0:0:
256,192,72565,1,0,0:0:0:0:
109,192,72674,128,0,72782:0:0:0:0:
182,192,72674,128,0,72782:0:0:0:0:
329,192,72674,128,0,72782:0:0:0:0:
402,192,72674,128,0,72782:0:0:0:0:
256,192,72782,128,0,72891:0:0:0:0:
475,192,72891,1,0,0:0:0:0:
402,192,73000,1,0,0:0:0:0:
329,192,73108,1,0,0:0:0:0:
256,192,73108,1,0,0:0:0:0:
182,192,73108,1,0,0:0:0:0:
109,192,73108,1,0,0:0:0:0:
36,192,73217,1,0,0:0:0:0:
109,192,73326,1,0,0:0:0:0:
182,192,73434,1,0,0:0:0:0:
475,192,73543,128,0,73760:0:0:0:0:
256,192,73543,1,0,0:0:0:0:
36,192,73543,1,0,0:0:0:0:
109,192,73543,1,0,0:0:0:0:
329,192,73652,1,0,0:0:0:0:
402,192,73760,128,0,73978:0:0:0:0:
256,192,73760,1,0,0:0:0:0:
182,192,73869,1,0,0:0:0:0:
329,192,73978,128,0,74195:0:0:0:0:
36,192,73978,1,0,0:0:0:0:
109,192,73978,1,0,0:0:0:0:
256,192,73978,1,0,0:0:0:0:
182,192,74086,1,0,0:0:0:0:
256,192,74195,128,0,74630:0:0:0:0:
109,192,74195,1,0,0:0:0:0:
36,192,74304,1,0,0:0:0:0:
109,192,74412,1,0,0:0:0:0:
329,192,74412,1,0,0:0:0:0:
402,192,74412,1,0,0:0:0:0:
182,192,74521,1,0,0:0:0:0:
36,192,74630,128,0,76151:0:0:0:0:
475,192,74630,128,0,76151:0:0:0:0:
329,192,74630,1,0,0:0:0:0:
402,192,74739,1,0,0:0:0:0:
109,192,74847,1,0,0:0:0:0:
182,192,74847,1,0,0:0:0:0:
256,192,74847,1,0,0:0:0:0:
329,192,74956,1,0,0:0:0:0:
256,192,75065,1,0,0:0:0:0:
182,192,75173,1,0,0:0:0:0:
256,192,75282,1,0,0:0:0:0:
329,192,75282,1,0,0:0:0:0:
402,192,75282,1,0,0:0:0:0:
109,192,75391,1,0,0:0:0:0:
182,192,75499,1,0,0:0:0:0:
256,192,75608,1,0,0:0:0:0:
109,192,75717,1,0,0:0:0:0:
182,192,75717,1,0,0:0:0:0:
329,192,75717,1,0,0:0:0:0:
402,192,75825,1,0,0:0:0:0:
329,192,75934,1,0,0:0:0:0:
256,192,76043,1,0,0:0:0:0:
109,192,76151,1,0,0:0:0:0:
182,192,76151,1,0,0:0:0:0:
329,192,76151,1,0,0:0:0:0:
256,192,76260,1,0,0:0:0:0:
109,192,76369,1,0,0:0:0:0:
329,192,76369,1,0,0:0:0:0:
182,192,76478,1,0,0:0:0:0:
36,192,76586,1,0,0:0:0:0:
256,192,76586,1,0,0:0:0:0:
109,192,76695,1,0,0:0:0:0:
475,192,76804,1,0,0:0:0:0:
329,192,76804,1,0,0:0:0:0:
182,192,76912,1,0,0:0:0:0:
109,192,77021,1,0,0:0:0:0:
329,192,77021,1,0,0:0:0:0:
256,192,77130,1,0,0:0:0:0:
36,192,77238,1,0,0:0:0:0:
182,192,77238,1,0,0:0:0:0:
109,192,77347,1,0,0:0:0:0:
182,192,77456,1,0,0:0:0:0:
329,192,77456,1,0,0:0:0:0:
402,192,77456,1,0,0:0:0:0:
256,192,77564,1,0,0:0:0:0:
109,192,77673,1,0,0:0:0:0:
329,192,77673,1,0,0:0:0:0:
182,192,77782,1,0,0:0:0:0:
36,192,77890,1,0,0:0:0:0:
109,192,77890,1,0,0:0:0:0:
329,192,77890,1,0,0:0:0:0:
402,192,77999,1,0,0:0:0:0:
256,192,78108,1,0,0:0:0:0:
475,192,78108,1,0,0:0:0:0:
329,192,78216,1,0,0:0:0:0:
36,192,78325,1,0,0:0:0:0:
182,192,78325,1,0,0:0:0:0:
109,192,78325,1,0,0:0:0:0:
256,192,78434,1,0,0:0:0:0:
109,192,78543,1,0,0:0:0:0:
329,192,78543,1,0,0:0:0:0:
182,192,78651,1,0,0:0:0:0:
36,192,78760,1,0,0:0:0:0:
256,192,78760,1,0,0:0:0:0:
109,192,78869,1,0,0:0:0:0:
329,192,78869,1,0,0:0:0:0:
182,192,78977,1,0,0:0:0:0:
36,192,79086,1,0,0:0:0:0:
402,192,79086,1,0,0:0:0:0:
109,192,79195,1,0,0:0:0:0:
329,192,79195,1,0,0:0:0:0:
182,192,79303,1,0,0:0:0:0:
256,192,79303,1,0,0:0:0:0:
475,192,79412,1,0,0:0:0:0:
329,192,79521,1,0,0:0:0:0:
109,192,79521,1,0,0:0:0:0:
182,192,79629,1,0,0:0:0:0:
36,192,79738,1,0,0:0:0:0:
109,192,79847,1,0,0:0:0:0:
256,192,79847,1,0,0:0:0:0:
182,192,79955,1,0,0:0:0:0:
109,192,80064,1,0,0:0:0:0:
329,192,80064,1,0,0:0:0:0:
402,192,80064,1,0,0:0:0:0:
256,192,80173,1,0,0:0:0:0:
109,192,80281,1,0,0:0:0:0:
329,192,80281,1,0,0:0:0:0:
182,192,80390,1,0,0:0:0:0:
402,192,80390,1,0,0:0:0:0:
256,192,80499,1,0,0:0:0:0:
329,192,80499,1,0,0:0:0:0:
475,192,80499,1,0,0:0:0:0:
182,192,80608,1,0,0:0:0:0:
109,192,80716,1,0,0:0:0:0:
402,192,80716,1,0,0:0:0:0:
36,192,80825,1,0,0:0:0:0:
182,192,80825,1,0,0:0:0:0:
256,192,80934,1,0,0:0:0:0:
329,192,80934,1,0,0:0:0:0:
109,192,80934,1,0,0:0:0:0:
182,192,81042,1,0,0:0:0:0:
109,192,81151,1,0,0:0:0:0:
329,192,81151,1,0,0:0:0:0:
256,192,81260,1,0,0:0:0:0:
402,192,81368,1,0,0:0:0:0:
182,192,81368,1,0,0:0:0:0:
329,192,81477,1,0,0:0:0:0:
256,192,81586,1,0,0:0:0:0:
475,192,81586,1,0,0:0:0:0:
402,192,81694,1,0,0:0:0:0:
36,192,81803,1,0,0:0:0:0:
109,192,81803,1,0,0:0:0:0:
182,192,81803,1,0,0:0:0:0:
256,192,81912,1,0,0:0:0:0:
109,192,82020,1,0,0:0:0:0:
329,192,82020,1,0,0:0:0:0:
182,192,82129,1,0,0:0:0:0:
36,192,82238,1,0,0:0:0:0:
256,192,82238,1,0,0:0:0:0:
109,192,82346,1,0,0:0:0:0:
36,192,82455,1,0,0:0:0:0:
256,192,82455,1,0,0:0:0:0:
402,192,82455,1,0,0:0:0:0:
329,192,82564,1,0,0:0:0:0:
182,192,82673,1,0,0:0:0:0:
402,192,82673,1,0,0:0:0:0:
109,192,82781,1,0,0:0:0:0:
36,192,82890,1,0,0:0:0:0:
256,192,82890,1,0,0:0:0:0:
182,192,82999,1,0,0:0:0:0:
329,192,82999,1,0,0:0:0:0:
109,192,83107,1,0,0:0:0:0:
402,192,83107,1,0,0:0:0:0:
256,192,83216,1,0,0:0:0:0:
109,192,83325,1,0,0:0:0:0:
402,192,83325,1,0,0:0:0:0:
182,192,83433,1,0,0:0:0:0:
36,192,83542,1,0,0:0:0:0:
256,192,83542,1,0,0:0:0:0:
109,192,83651,1,0,0:0:0:0:
182,192,83759,1,0,0:0:0:0:
329,192,83759,1,0,0:0:0:0:
402,192,83868,1,0,0:0:0:0:
256,192,83977,1,0,0:0:0:0:
329,192,83977,1,0,0:0:0:0:
109,192,83977,1,0,0:0:0:0:
182,192,84085,1,0,0:0:0:0:
36,192,84194,1,0,0:0:0:0:
256,192,84194,1,0,0:0:0:0:
109,192,84303,1,0,0:0:0:0:
36,192,84412,1,0,0:0:0:0:
329,192,84412,1,0,0:0:0:0:
402,192,84412,1,0,0:0:0:0:
182,192,84520,1,0,0:0:0:0:
109,192,84629,1,0,0:0:0:0:
329,192,84629,1,0,0:0:0:0:
256,192,84738,1,0,0:0:0:0:
182,192,84846,1,0,0:0:0:0:
402,192,84846,1,0,0:0:0:0:
475,192,84846,1,0,0:0:0:0:
329,192,84955,1,0,0:0:0:0:
402,192,85064,1,0,0:0:0:0:
182,192,85064,1,0,0:0:0:0:
256,192,85172,1,0,0:0:0:0:
36,192,85281,1,0,0:0:0:0:
109,192,85281,1,0,0:0:0:0:
182,192,85281,1,0,0:0:0:0:
329,192,85390,1,0,0:0:0:0:
402,192,85498,1,0,0:0:0:0:
475,192,85498,1,0,0:0:0:0:
256,192,85607,1,0,0:0:0:0:
109,192,85716,1,0,0:0:0:0:
182,192,85716,1,0,0:0:0:0:
329,192,85716,1,0,0:0:0:0:
36,192,85824,1,0,0:0:0:0:
109,192,85933,1,0,0:0:0:0:
256,192,85933,1,0,0:0:0:0:
182,192,86042,1,0,0:0:0:0:
256,192,86150,1,0,0:0:0:0:
329,192,86150,1,0,0:0:0:0:
475,192,86150,1,0,0:0:0:0:
402,192,86259,1,0,0:0:0:0:
182,192,86368,1,0,0:0:0:0:
256,192,86368,1,0,0:0:0:0:
109,192,86477,1,0,0:0:0:0:
36,192,86585,1,0,0:0:0:0:
182,192,86585,1,0,0:0:0:0:
256,192,86585,1,0,0:0:0:0:
329,192,86694,1,0,0:0:0:0:
182,192,86803,1,0,0:0:0:0:
402,192,86803,1,0,0:0:0:0:
256,192,86911,1,0,0:0:0:0:
109,192,87020,1,0,0:0:0:0:
182,192,87020,1,0,0:0:0:0:
475,192,87020,1,0,0:0:0:0:
402,192,87129,1,0,0:0:0:0:
256,192,87237,1,0,0:0:0:0:
475,192,87237,1,0,0:0:0:0:
329,192,87346,1,0,0:0:0:0:
256,192,87455,128,0,87672:0:0:0:0:
402,192,87455,1,0,0:0:0:0:
329,192,87563,1,0,0:0:0:0:
109,192,87563,1,0,0:0:0:0:
182,192,87672,128,0,87889:0:0:0:0:
36,192,87672,1,0,0:0:0:0:
329,192,87781,1,0,0:0:0:0:
402,192,87781,1,0,0:0:0:0:
475,192,87889,128,0,88107:0:0:0:0:
256,192,87889,1,0,0:0:0:0:
109,192,87998,1,0,0:0:0:0:
329,192,87998,1,0,0:0:0:0:
402,192,88107,128,0,88542:0:0:0:0:
182,192,88107,1,0,0:0:0:0:
36,192,88215,1,0,0:0:0:0:
256,192,88215,1,0,0:0:0:0:
109,192,88324,1,0,0:0:0:0:
36,192,88433,1,0,0:0:0:0:
256,192,88433,1,0,0:0:0:0:
329,192,88542,128,0,89628:0:0:0:0:
182,192,88542,1,0,0:0:0:0:
109,192,88650,1,0,0:0:0:0:
402,192,88650,1,0,0:0:0:0:
475,192,88759,1,0,0:0:0:0:
182,192,88868,1,0,0:0:0:0:
256,192,88868,1,0,0:0:0:0:
36,192,88976,1,0,0:0:0:0:
109,192,89085,1,0,0:0:0:0:
182,192,89085,1,0,0:0:0:0:
402,192,89194,1,0,0:0:0:0:
182,192,89302,1,0,0:0:0:0:
475,192,89302,1,0,0:0:0:0:
109,192,89411,1,0,0:0:0:0:
36,192,89520,1,0,0:0:0:0:
256,192,89520,1,0,0:0:0:0:
182,192,89628,1,0,0:0:0:0:
109,192,89737,1,0,0:0:0:0:
402,192,89737,1,0,0:0:0:0:
36,192,89846,128,0,90063:0:0:0:0:
475,192,89846,128,0,90063:0:0:0:0:
256,192,89846,1,0,0:0:0:0:
182,192,89954,1,0,0:0:0:0:
329,192,89954,1,0,0:0:0:0:
109,192,90063,128,0,90280:0:0:0:0:
402,192,90063,128,0,90280:0:0:0:0:
256,192,90063,1,0,0:0:0:0:
36,192,90172,1,0,0:0:0:0:
475,192,90172,1,0,0:0:0:0:
182,192,90280,128,0,90715:0:0:0:0:
329,192,90280,128,0,90715:0:0:0:0:
109,192,90389,1,0,0:0:0:0:
402,192,90389,1,0,0:0:0:0:
256,192,90498,1,0,0:0:0:0:
109,192,90607,1,0,0:0:0:0:
402,192,90607,1,0,0:0:0:0:
36,192,90715,1,0,0:0:0:0:
475,192,90715,1,0,0:0:0:0:
109,192,90824,1,0,0:0:0:0:
402,192,90824,1,0,0:0:0:0:
256,192,90933,128,0,91150:0:0:0:0:
182,192,90933,1,0,0:0:0:0:
329,192,90933,1,0,0:0:0:0:
182,192,91041,1,0,0:0:0:0:
329,192,91150,128,0,91367:0:0:0:0:
109,192,91150,1,0,0:0:0:0:
475,192,91150,1,0,0:0:0:0:
36,192,91259,1,0,0:0:0:0:
402,192,91259,1,0,0:0:0:0:
475,192,91367,128,0,91585:0:0:0:0:
109,192,91367,1,0,0:0:0:0:
182,192,91476,1,0,0:0:0:0:
402,192,91585,128,0,91802:0:0:0:0:
109,192,91585,1,0,0:0:0:0:
36,192,91693,1,0,0:0:0:0:
256,192,91693,1,0,0:0:0:0:
329,192,91802,128,0,92019:0:0:0:0:
182,192,91802,1,0,0:0:0:0:
109,192,91911,1,0,0:0:0:0:
256,192,92019,128,0,92454:0:0:0:0:
475,192,92019,128,0,92454:0:0:0:0:
36,192,92019,1,0,0:0:0:0:
109,192,92128,1,0,0:0:0:0:
182,192,92237,1,0,0:0:0:0:
329,192,92345,1,0,0:0:0:0:
182,192,92454,128,0,92889:0:0:0:0:
402,192,92454,128,0,92889:0:0:0:0:
475,192,92563,1,0,0:0:0:0:
329,192,92672,1,0,0:0:0:0:
256,192,92780,1,0,0:0:0:0:
329,192,92889,128,0,93324:0:0:0:0:
109,192,92889,128,0,93324:0:0:0:0:
36,192,92889,1,0,0:0:0:0:
182,192,92998,1,0,0:0:0:0:
256,192,93106,1,0,0:0:0:0:
402,192,93215,1,0,0:0:0:0:
36,192,93324,128,0,93758:0:0:0:0:
256,192,93324,128,0,93758:0:0:0:0:
475,192,93324,1,0,0:0:0:0:
402,192,93432,1,0,0:0:0:0:
329,192,93541,1,0,0:0:0:0:
182,192,93650,1,0,0:0:0:0:
109,192,93758,128,0,94193:0:0:0:0:
402,192,93758,128,0,94193:0:0:0:0:
329,192,93867,1,0,0:0:0:0:
256,192,93976,1,0,0:0:0:0:
182,192,94084,1,0,0:0:0:0:
36,192,94193,128,0,95715:0:0:0:0:
475,192,94193,128,0,95715:0:0:0:0:
329,192,94193,1,0,0:0:0:0:
256,192,94193,1,0,0:0:0:0:
182,192,94302,1,0,0:0:0:0:
109,192,94411,1,0,0:0:0:0:
256,192,94411,1,0,0:0:0:0:
329,192,94411,1,0,0:0:0:0:
402,192,94411,1,0,0:0:0:0:
182,192,94519,1,0,0:0:0:0:
256,192,94628,1,0,0:0:0:0:
329,192,94737,1,0,0:0:0:0:
109,192,94845,1,0,0:0:0:0:
182,192,94845,1,0,0:0:0:0:
256,192,94845,1,0,0:0:0:0:
402,192,94845,1,0,0:0:0:0:
329,192,94954,1,0,0:0:0:0:
256,192,95063,1,0,0:0:0:0:
182,192,95171,1,0,0:0:0:0:
109,192,95280,1,0,0:0:0:0:
256,192,95280,1,0,0:0:0:0:
329,192,95280,1,0,0:0:0:0:
402,192,95280,1,0,0:0:0:0:
182,192,95389,1,0,0:0:0:0:
109,192,95497,1,0,0:0:0:0:
329,192,95606,1,0,0:0:0:0:
109,192,95715,1,0,0:0:0:0:
256,192,95715,1,0,0:0:0:0:
182,192,95715,1,0,0:0:0:0:
402,192,95715,1,0,0:0:0:0:
329,192,95823,1,0,0:0:0:0:
256,192,95932,1,0,0:0:0:0:
402,192,95932,1,0,0:0:0:0:
182,192,96041,1,0,0:0:0:0:
36,192,96149,1,0,0:0:0:0:
109,192,96149,1,0,0:0:0:0:
256,192,96149,1,0,0:0:0:0:
182,192,96258,1,0,0:0:0:0:
109,192,96367,1,0,0:0:0:0:
329,192,96367,1,0,0:0:0:0:
256,192,96476,1,0,0:0:0:0:
182,192,96584,1,0,0:0:0:0:
329,192,96584,1,0,0:0:0:0:
402,192,96584,1,0,0:0:0:0:
475,192,96693,1,0,0:0:0:0:
402,192,96802,1,0,0:0:0:0:
329,192,96802,1,0,0:0:0:0:
109,192,96910,1,0,0:0:0:0:
182,192,97019,1,0,0:0:0:0:
256,192,97019,1,0,0:0:0:0:
329,192,97019,1,0,0:0:0:0:
36,192,97128,1,0,0:0:0:0:
402,192,97128,1,0,0:0:0:0:
109,192,97236,1,0,0:0:0:0:
329,192,97236,1,0,0:0:0:0:
182,192,97345,1,0,0:0:0:0:
256,192,97345,1,0,0:0:0:0:
329,192,97454,1,0,0:0:0:0:
109,192,97454,1,0,0:0:0:0:
36,192,97562,1,0,0:0:0:0:
402,192,97562,1,0,0:0:0:0:
109,192,97671,1,0,0:0:0:0:
475,192,97671,1,0,0:0:0:0:
182,192,97780,1,0,0:0:0:0:
329,192,97780,1,0,0:0:0:0:
402,192,97888,1,0,0:0:0:0:
256,192,97888,1,0,0:0:0:0:
182,192,97997,1,0,0:0:0:0:
475,192,97997,1,0,0:0:0:0:
109,192,98106,1,0,0:0:0:0:
402,192,98106,1,0,0:0:0:0:
36,192,98214,1,0,0:0:0:0:
329,192,98214,1,0,0:0:0:0:
109,192,98323,1,0,0:0:0:0:
256,192,98323,1,0,0:0:0:0:
182,192,98432,1,0,0:0:0:0:
402,192,98432,1,0,0:0:0:0:
36,192,98541,1,0,0:0:0:0:
256,192,98541,1,0,0:0:0:0:
329,192,98649,1,0,0:0:0:0:
109,192,98649,1,0,0:0:0:0:
182,192,98758,1,0,0:0:0:0:
475,192,98758,1,0,0:0:0:0:
256,192,98867,1,0,0:0:0:0:
402,192,98867,1,0,0:0:0:0:
329,192,98975,1,0,0:0:0:0:
182,192,98975,1,0,0:0:0:0:
109,192,99084,1,0,0:0:0:0:
256,192,99084,1,0,0:0:0:0:
36,192,99193,1,0,0:0:0:0:
182,192,99193,1,0,0:0:0:0:
402,192,99193,1,0,0:0:0:0:
329,192,99301,1,0,0:0:0:0:
109,192,99301,1,0,0:0:0:0:
256,192,99410,1,0,0:0:0:0:
36,192,99410,1,0,0:0:0:0:
182,192,99519,1,0,0:0:0:0:
329,192,99519,1,0,0:0:0:0:
402,192,99627,1,0,0:0:0:0:
109,192,99627,1,0,0:0:0:0:
475,192,99736,1,0,0:0:0:0:
36,192,99736,1,0,0:0:0:0:
256,192,99736,1,0,0:0:0:0:
109,192,99845,1,0,0:0:0:0:
329,192,99845,1,0,0:0:0:0:
182,192,99953,1,0,0:0:0:0:
402,192,99953,1,0,0:0:0:0:
256,192,100062,1,0,0:0:0:0:
475,192,100062,1,0,0:0:0:0:
329,192,100171,1,0,0:0:0:0:
256,192,100279,1,0,0:0:0:0:
36,192,100279,1,0,0:0:0:0:
329,192,100388,1,0,0:0:0:0:
402,192,100388,1,0,0:0:0:0:
109,192,100497,1,0,0:0:0:0:
182,192,100497,1,0,0:0:0:0:
329,192,100606,1,0,0:0:0:0:
402,192,100606,1,0,0:0:0:0:
182,192,100714,1,0,0:0:0:0:
109,192,100714,1,0,0:0:0:0:
329,192,100823,1,0,0:0:0:0:
402,192,100823,1,0,0:0:0:0:
36,192,100932,128,0,101040:0:0:0:0:
475,192,100932,128,0,101040:0:0:0:0:
256,192,100932,128,0,101366:0:0:0:0:
109,192,101040,128,0,101149:0:0:0:0:
402,192,101040,128,0,101149:0:0:0:0:
182,192,101149,128,0,101258:0:0:0:0:
329,192,101149,128,0,101258:0:0:0:0:
36,192,101366,128,0,101475:0:0:0:0:
475,192,101366,128,0,101475:0:0:0:0:
402,192,101475,128,0,101584:0:0:0:0:
109,192,101475,128,0,101584:0:0:0:0:
329,192,101584,128,0,101692:0:0:0:0:
182,192,101584,128,0,101692:0:0:0:0:
256,192,101801,128,0,102236:0:0:0:0:
182,192,101910,128,0,102018:0:0:0:0:
329,192,101910,128,0,102018:0:0:0:0:
109,192,102018,128,0,102127:0:0:0:0:
402,192,102018,128,0,102127:0:0:0:0:
36,192,102127,128,0,102236:0:0:0:0:
475,192,102127,128,0,102236:0:0:0:0:
182,192,102236,128,0,102345:0:0:0:0:
329,192,102236,128,0,102345:0:0:0:0:
402,192,102345,128,0,102453:0:0:0:0:
109,192,102345,128,0,102453:0:0:0:0:
36,192,102453,128,0,102562:0:0:0:0:
475,192,102453,128,0,102562:0:0:0:0:
109,192,102671,128,0,102779:0:0:0:0:
256,192,102671,128,0,102779:0:0:0:0:
329,192,102671,128,0,102779:0:0:0:0:
182,192,102779,128,0,102888:0:0:0:0:
329,192,102888,128,0,102997:0:0:0:0:
36,192,102888,128,0,102997:0:0:0:0:
109,192,102997,128,0,103105:0:0:0:0:
182,192,103105,128,0,103214:0:0:0:0:
256,192,103105,128,0,103214:0:0:0:0:
402,192,103105,128,0,103214:0:0:0:0:
329,192,103214,128,0,103323:0:0:0:0:
475,192,103323,128,0,103431:0:0:0:0:
256,192,103323,128,0,103431:0:0:0:0:
402,192,103431,128,0,103540:0:0:0:0:
36,192,103540,128,0,103649:0:0:0:0:
109,192,103540,128,0,103649:0:0:0:0:
182,192,103540,128,0,103649:0:0:0:0:
329,192,103649,128,0,103757:0:0:0:0:
256,192,103757,128,0,103866:0:0:0:0:
475,192,103757,128,0,103866:0:0:0:0:
329,192,103866,128,0,103975:0:0:0:0:
109,192,103975,128,0,104083:0:0:0:0:
182,192,103975,128,0,104083:0:0:0:0:
402,192,103975,128,0,104083:0:0:0:0:
36,192,104083,128,0,104192:0:0:0:0:
329,192,104192,128,0,104301:0:0:0:0:
182,192,104192,128,0,104301:0:0:0:0:
256,192,104301,128,0,104410:0:0:0:0:
36,192,104410,128,0,104518:0:0:0:0:
402,192,104410,128,0,104518:0:0:0:0:
109,192,104518,128,0,104627:0:0:0:0:
475,192,104518,128,0,104627:0:0:0:0:
182,192,104627,128,0,104736:0:0:0:0:
329,192,104627,128,0,104736:0:0:0:0:
402,192,104736,128,0,104844:0:0:0:0:
256,192,104736,128,0,104844:0:0:0:0:
475,192,104844,128,0,104953:0:0:0:0:
329,192,104844,128,0,104953:0:0:0:0:
402,192,104953,128,0,105062:0:0:0:0:
182,192,104953,128,0,105062:0:0:0:0:
109,192,105062,128,0,105170:0:0:0:0:
329,192,105062,128,0,105170:0:0:0:0:
36,192,105170,128,0,105279:0:0:0:0:
256,192,105170,128,0,105279:0:0:0:0:
182,192,105279,128,0,105388:0:0:0:0:
402,192,105279,128,0,105388:0:0:0:0:
109,192,105388,128,0,105496:0:0:0:0:
329,192,105388,128,0,105496:0:0:0:0:
36,192,105496,128,0,105605:0:0:0:0:
256,192,105496,128,0,105605:0:0:0:0:
182,192,105605,128,0,105714:0:0:0:0:
402,192,105605,128,0,105714:0:0:0:0:
329,192,105714,128,0,105822:0:0:0:0:
109,192,105714,128,0,105822:0:0:0:0:
36,192,105822,128,0,105931:0:0:0:0:
256,192,105822,128,0,105931:0:0:0:0:
475,192,105931,128,0,106040:0:0:0:0:
182,192,105931,128,0,106040:0:0:0:0:
109,192,106040,128,0,106148:0:0:0:0:
402,192,106040,128,0,106148:0:0:0:0:
329,192,106148,128,0,106257:0:0:0:0:
36,192,106148,128,0,106257:0:0:0:0:
256,192,106257,128,0,106366:0:0:0:0:
109,192,106257,128,0,106366:0:0:0:0:
182,192,106366,128,0,106475:0:0:0:0:
402,192,106366,128,0,106475:0:0:0:0:
329,192,106475,128,0,106583:0:0:0:0:
475,192,106475,128,0,106583:0:0:0:0:
256,192,106583,128,0,106692:0:0:0:0:
182,192,106692,128,0,106801:0:0:0:0:
402,192,106692,128,0,106801:0:0:0:0:
329,192,106801,128,0,106909:0:0:0:0:
109,192,106801,128,0,106909:0:0:0:0:
36,192,106909,128,0,107018:0:0:0:0:
256,192,106909,128,0,107018:0:0:0:0:
182,192,107018,128,0,107127:0:0:0:0:
402,192,107018,128,0,107127:0:0:0:0:
475,192,107018,128,0,107127:0:0:0:0:
329,192,107127,128,0,107235:0:0:0:0:
109,192,107235,128,0,107344:0:0:0:0:
402,192,107235,128,0,107344:0:0:0:0:
182,192,107344,128,0,107453:0:0:0:0:
256,192,107453,128,0,107561:0:0:0:0:
329,192,107453,128,0,107561:0:0:0:0:
402,192,107453,128,0,107561:0:0:0:0:
109,192,107561,128,0,107670:0:0:0:0:
36,192,107670,128,0,107779:0:0:0:0:
256,192,107670,128,0,107779:0:0:0:0:
109,192,107887,1,0,0:0:0:0:
329,192,107887,1,0,0:0:0:0:
475,192,107887,1,0,0:0:0:0:
402,192,107960,1,0,0:0:0:0:
256,192,108032,1,0,0:0:0:0:
36,192,108032,1,0,0:0:0:0:
182,192,108105,1,0,0:0:0:0:
109,192,108177,1,0,0:0:0:0:
329,192,108177,1,0,0:0:0:0:
402,192,108177,1,0,0:0:0:0:
256,192,108250,1,0,0:0:0:0:
36,192,108322,1,0,0:0:0:0:
182,192,108322,1,0,0:0:0:0:
109,192,108395,1,0,0:0:0:0:
475,192,108467,1,0,0:0:0:0:
329,192,108467,1,0,0:0:0:0:
402,192,108467,1,0,0:0:0:0:
182,192,108540,1,0,0:0:0:0:
329,192,108612,1,0,0:0:0:0:
256,192,108612,1,0,0:0:0:0:
109,192,108684,1,0,0:0:0:0:
182,192,108757,1,0,0:0:0:0:
256,192,108757,1,0,0:0:0:0:
329,192,108757,1,0,0:0:0:0:
36,192,108829,1,0,0:0:0:0:
109,192,108902,1,0,0:0:0:0:
182,192,108902,1,0,0:0:0:0:
36,192,108974,1,0,0:0:0:0:
256,192,109047,1,0,0:0:0:0:
402,192,109047,1,0,0:0:0:0:
475,192,109047,1,0,0:0:0:0:
329,192,109119,1,0,0:0:0:0:
182,192,109192,1,0,0:0:0:0:
36,192,109192,1,0,0:0:0:0:
402,192,109264,1,0,0:0:0:0:
475,192,109337,1,0,0:0:0:0:
256,192,109337,1,0,0:0:0:0:
109,192,109337,1,0,0:0:0:0:
36,192,109337,1,0,0:0:0:0:
329,192,109409,1,0,0:0:0:0:
182,192,109481,1,0,0:0:0:0:
36,192,109481,1,0,0:0:0:0:
329,192,109554,1,0,0:0:0:0:
256,192,109626,1,0,0:0:0:0:
109,192,109626,1,0,0:0:0:0:
402,192,109626,1,0,0:0:0:0:
182,192,109699,1,0,0:0:0:0:
329,192,109771,1,0,0:0:0:0:
475,192,109771,1,0,0:0:0:0:
109,192,109844,1,0,0:0:0:0:
36,192,109916,1,0,0:0:0:0:
256,192,109916,1,0,0:0:0:0:
329,192,109916,1,0,0:0:0:0:
402,192,109916,1,0,0:0:0:0:
182,192,109989,1,0,0:0:0:0:
109,192,110061,1,0,0:0:0:0:
402,192,110061,1,0,0:0:0:0:
329,192,110134,1,0,0:0:0:0:
256,192,110206,1,0,0:0:0:0:
402,192,110206,1,0,0:0:0:0:
475,192,110206,1,0,0:0:0:0:
109,192,110278,1,0,0:0:0:0:
329,192,110351,1,0,0:0:0:0:
475,192,110351,1,0,0:0:0:0:
182,192,110423,1,0,0:0:0:0:
36,192,110496,1,0,0:0:0:0:
109,192,110496,1,0,0:0:0:0:
329,192,110496,1,0,0:0:0:0:
402,192,110496,1,0,0:0:0:0:
256,192,110568,1,0,0:0:0:0:
109,192,110641,1,0,0:0:0:0:
402,192,110641,1,0,0:0:0:0:
182,192,110713,1,0,0:0:0:0:
36,192,110786,1,0,0:0:0:0:
329,192,110786,1,0,0:0:0:0:
475,192,110786,1,0,0:0:0:0:
256,192,110858,1,0,0:0:0:0:
329,192,110931,1,0,0:0:0:0:
475,192,110931,1,0,0:0:0:0:
109,192,111003,1,0,0:0:0:0:
182,192,111076,1,0,0:0:0:0:
256,192,111076,1,0,0:0:0:0:
329,192,111148,1,0,0:0:0:0:
475,192,111148,1,0,0:0:0:0:
36,192,111220,1,0,0:0:0:0:
109,192,111220,1,0,0:0:0:0:
402,192,111293,1,0,0:0:0:0:
329,192,111293,1,0,0:0:0:0:
109,192,111365,1,0,0:0:0:0:
256,192,111365,1,0,0:0:0:0:
329,192,111438,1,0,0:0:0:0:
475,192,111438,1,0,0:0:0:0:
402,192,111438,1,0,0:0:0:0:
36,192,111510,1,0,0:0:0:0:
182,192,111510,1,0,0:0:0:0:
109,192,111510,1,0,0:0:0:0:
329,192,111583,1,0,0:0:0:0:
475,192,111583,1,0,0:0:0:0:
402,192,111583,1,0,0:0:0:0:
36,192,111655,1,0,0:0:0:0:
182,192,111655,1,0,0:0:0:0:
109,192,111655,1,0,0:0:0:0:
256,192,111728,1,0,0:0:0:0:
402,192,111728,1,0,0:0:0:0:
475,192,111728,1,0,0:0:0:0:
109,192,111800,1,0,0:0:0:0:
182,192,111800,1,0,0:0:0:0:
329,192,111873,1,0,0:0:0:0:
402,192,111873,1,0,0:0:0:0:
475,192,111873,1,0,0:0:0:0:
256,192,111945,1,0,0:0:0:0:
182,192,112017,1,0,0:0:0:0:
402,192,112017,1,0,0:0:0:0:
109,192,112090,1,0,0:0:0:0:
329,192,112090,1,0,0:0:0:0:
256,192,112162,1,0,0:0:0:0:
36,192,112162,1,0,0:0:0:0:
109,192,112235,1,0,0:0:0:0:
182,192,112235,1,0,0:0:0:0:
329,192,112307,1,0,0:0:0:0:
402,192,112307,1,0,0:0:0:0:
475,192,112380,1,0,0:0:0:0:
256,192,112452,1,0,0:0:0:0:
182,192,112452,1,0,0:0:0:0:
36,192,112452,1,0,0:0:0:0:
109,192,112525,1,0,0:0:0:0:
329,192,112597,1,0,0:0:0:0:
475,192,112597,1,0,0:0:0:0:
182,192,112670,1,0,0:0:0:0:
402,192,112742,1,0,0:0:0:0:
109,192,112742,1,0,0:0:0:0:
36,192,112742,1,0,0:0:0:0:
256,192,112814,1,0,0:0:0:0:
109,192,112887,1,0,0:0:0:0:
329,192,112887,1,0,0:0:0:0:
475,192,112887,1,0,0:0:0:0:
36,192,112887,1,0,0:0:0:0:
182,192,112959,1,0,0:0:0:0:
256,192,113032,1,0,0:0:0:0:
402,192,113032,1,0,0:0:0:0:
36,192,113104,1,0,0:0:0:0:
109,192,113104,1,0,0:0:0:0:
182,192,113104,1,0,0:0:0:0:
329,192,113177,1,0,0:0:0:0:
402,192,113177,1,0,0:0:0:0:
475,192,113177,1,0,0:0:0:0:
36,192,113249,1,0,0:0:0:0:
109,192,113249,1,0,0:0:0:0:
182,192,113249,1,0,0:0:0:0:
256,192,113322,1,0,0:0:0:0:
329,192,113322,1,0,0:0:0:0:
402,192,113322,1,0,0:0:0:0:
36,192,113394,1,0,0:0:0:0:
182,192,113394,1,0,0:0:0:0:
329,192,113467,1,0,0:0:0:0:
475,192,113467,1,0,0:0:0:0:
109,192,113539,1,0,0:0:0:0:
182,192,113539,1,0,0:0:0:0:
329,192,113612,1,0,0:0:0:0:
402,192,113612,1,0,0:0:0:0:
256,192,113684,1,0,0:0:0:0:
109,192,113756,1,0,0:0:0:0:
329,192,113756,1,0,0:0:0:0:
182,192,113829,1,0,0:0:0:0:
36,192,113901,1,0,0:0:0:0:
256,192,113901,1,0,0:0:0:0:
402,192,113901,1,0,0:0:0:0:
109,192,113974,1,0,0:0:0:0:
36,192,114046,1,0,0:0:0:0:
182,192,114046,1,0,0:0:0:0:
329,192,114046,1,0,0:0:0:0:
475,192,114046,1,0,0:0:0:0:
402,192,114119,1,0,0:0:0:0:
475,192,114191,128,0,114264:0:0:0:0:
36,192,114191,128,0,114264:0:0:0:0:
109,192,114264,128,0,114336:0:0:0:0:
402,192,114264,128,0,114336:0:0:0:0:
182,192,114336,128,0,114409:0:0:0:0:
329,192,114336,128,0,114409:0:0:0:0:
256,192,114481,128,0,114698:0:0:0:0:
36,192,114481,128,0,114553:0:0:0:0:
475,192,114481,128,0,114553:0:0:0:0:
109,192,114553,128,0,114626:0:0:0:0:
402,192,114553,128,0,114626:0:0:0:0:
182,192,114626,128,0,114698:0:0:0:0:
329,192,114626,128,0,114698:0:0:0:0:
475,192,114843,128,0,114952:0:0:0:0:
36,192,114843,128,0,114952:0:0:0:0:
256,192,114843,128,0,115169:0:0:0:0:
402,192,114952,128,0,115061:0:0:0:0:
109,192,114952,128,0,115061:0:0:0:0:
329,192,115061,128,0,115169:0:0:0:0:
182,192,115061,128,0,115169:0:0:0:0:
475,192,115278,128,0,115387:0:0:0:0:
36,192,115278,128,0,115387:0:0:0:0:
109,192,115387,128,0,115495:0:0:0:0:
402,192,115387,128,0,115495:0:0:0:0:
182,192,115495,128,0,115604:0:0:0:0:
329,192,115495,128,0,115604:0:0:0:0:
256,192,115713,128,0,116147:0:0:0:0:
329,192,115821,128,0,115930:0:0:0:0:
182,192,115821,128,0,115930:0:0:0:0:
402,192,115930,128,0,116039:0:0:0:0:
109,192,115930,128,0,116039:0:0:0:0:
475,192,116039,128,0,116147:0:0:0:0:
36,192,116039,128,0,116147:0:0:0:0:
329,192,116147,128,0,116256:0:0:0:0:
182,192,116147,128,0,116256:0:0:0:0:
109,192,116256,128,0,116365:0:0:0:0:
402,192,116256,128,0,116365:0:0:0:0:
475,192,116365,128,0,116474:0:0:0:0:
36,192,116365,128,0,116474:0:0:0:0:
402,192,116582,128,0,116691:0:0:0:0:
182,192,116582,128,0,116691:0:0:0:0:
109,192,116582,128,0,116691:0:0:0:0:
329,192,116691,128,0,116800:0:0:0:0:
182,192,116800,128,0,116908:0:0:0:0:
475,192,116800,128,0,116908:0:0:0:0:
402,192,116908,128,0,117017:0:0:0:0:
329,192,117017,128,0,117126:0:0:0:0:
256,192,117017,128,0,117126:0:0:0:0:
109,192,117017,128,0,117126:0:0:0:0:
182,192,117126,128,0,117234:0:0:0:0:
36,192,117234,128,0,117343:0:0:0:0:
256,192,117234,128,0,117343:0:0:0:0:
109,192,117343,128,0,117452:0:0:0:0:
475,192,117452,128,0,117560:0:0:0:0:
402,192,117452,128,0,117560:0:0:0:0:
329,192,117452,128,0,117560:0:0:0:0:
182,192,117560,128,0,117669:0:0:0:0:
256,192,117669,128,0,117778:0:0:0:0:
36,192,117669,128,0,117778:0:0:0:0:
182,192,117778,128,0,117886:0:0:0:0:
402,192,117886,128,0,117995:0:0:0:0:
329,192,117886,128,0,117995:0:0:0:0:
109,192,117886,128,0,117995:0:0:0:0:
475,192,117995,128,0,118104:0:0:0:0:
182,192,118104,128,0,118212:0:0:0:0:
329,192,118104,128,0,118212:0:0:0:0:
256,192,118212,128,0,118321:0:0:0:0:
475,192,118321,128,0,118430:0:0:0:0:
109,192,118321,128,0,118430:0:0:0:0:
402,192,118430,128,0,118539:0:0:0:0:
36,192,118430,128,0,118539:0:0:0:0:
329,192,118539,128,0,118647:0:0:0:0:
182,192,118539,128,0,118647:0:0:0:0:
109,192,118647,128,0,118756:0:0:0:0:
256,192,118647,128,0,118756:0:0:0:0:
36,192,118756,128,0,118865:0:0:0:0:
182,192,118756,128,0,118865:0:0:0:0:
109,192,118865,128,0,118973:0:0:0:0:
329,192,118865,128,0,118973:0:0:0:0:
402,192,118973,128,0,119082:0:0:0:0:
182,192,118973,128,0,119082:0:0:0:0:
475,192,119082,128,0,119191:0:0:0:0:
256,192,119082,128,0,119191:0:0:0:0:
329,192,119191,128,0,119299:0:0:0:0:
109,192,119191,128,0,119299:0:0:0:0:
402,192,119299,128,0,119408:0:0:0:0:
182,192,119299,128,0,119408:0:0:0:0:
475,192,119408,128,0,119517:0:0:0:0:
256,192,119408,128,0,119517:0:0:0:0:
329,192,119517,128,0,119625:0:0:0:0:
109,192,119517,128,0,119625:0:0:0:0:
182,192,119625,128,0,119734:0:0:0:0:
402,192,119625,128,0,119734:0:0:0:0:
475,192,119734,128,0,119843:0:0:0:0:
256,192,119734,128,0,119843:0:0:0:0:
36,192,119843,128,0,119951:0:0:0:0:
329,192,119843,128,0,119951:0:0:0:0:
402,192,119951,128,0,120060:0:0:0:0:
109,192,119951,128,0,120060:0:0:0:0:
182,192,120060,128,0,120169:0:0:0:0:
475,192,120060,128,0,120169:0:0:0:0:
256,192,120169,128,0,120278:0:0:0:0:
402,192,120169,128,0,120278:0:0:0:0:
329,192,120278,128,0,120386:0:0:0:0:
109,192,120278,128,0,120386:0:0:0:0:
182,192,120386,128,0,120495:0:0:0:0:
36,192,120386,128,0,120495:0:0:0:0:
256,192,120495,128,0,120604:0:0:0:0:
329,192,120604,128,0,120712:0:0:0:0:
109,192,120604,128,0,120712:0:0:0:0:
182,192,120712,128,0,120821:0:0:0:0:
402,192,120712,128,0,120821:0:0:0:0:
475,192,120821,128,0,120930:0:0:0:0:
256,192,120821,128,0,120930:0:0:0:0:
329,192,120930,128,0,121038:0:0:0:0:
109,192,120930,128,0,121038:0:0:0:0:
36,192,120930,128,0,121038:0:0:0:0:
182,192,121038,128,0,121147:0:0:0:0:
402,192,121147,128,0,121256:0:0:0:0:
109,192,121147,128,0,121256:0:0:0:0:
329,192,121256,128,0,121364:0:0:0:0:
256,192,121364,128,0,121473:0:0:0:0:
182,192,121364,128,0,121473:0:0:0:0:
109,192,121364,128,0,121473:0:0:0:0:
402,192,121473,128,0,121582:0:0:0:0:
475,192,121582,128,0,121690:0:0:0:0:
256,192,121582,128,0,121690:0:0:0:0:
109,192,121799,1,0,0:0:0:0:
329,192,121799,1,0,0:0:0:0:
402,192,121799,1,0,0:0:0:0:
182,192,121872,1,0,0:0:0:0:
256,192,121872,1,0,0:0:0:0:
109,192,121944,1,0,0:0:0:0:
36,192,122016,1,0,0:0:0:0:
256,192,122089,1,0,0:0:0:0:
329,192,122089,1,0,0:0:0:0:
402,192,122089,1,0,0:0:0:0:
109,192,122161,1,0,0:0:0:0:
475,192,122161,1,0,0:0:0:0:
182,192,122234,1,0,0:0:0:0:
256,192,122306,1,0,0:0:0:0:
36,192,122379,1,0,0:0:0:0:
109,192,122379,1,0,0:0:0:0:
182,192,122379,1,0,0:0:0:0:
329,192,122451,1,0,0:0:0:0:
402,192,122451,1,0,0:0:0:0:
256,192,122524,1,0,0:0:0:0:
182,192,122596,1,0,0:0:0:0:
329,192,122669,1,0,0:0:0:0:
475,192,122669,1,0,0:0:0:0:
402,192,122669,1,0,0:0:0:0:
36,192,122741,1,0,0:0:0:0:
109,192,122741,1,0,0:0:0:0:
182,192,122813,1,0,0:0:0:0:
256,192,122886,1,0,0:0:0:0:
329,192,122958,1,0,0:0:0:0:
36,192,122958,1,0,0:0:0:0:
109,192,122958,1,0,0:0:0:0:
182,192,123031,1,0,0:0:0:0:
402,192,123031,1,0,0:0:0:0:
329,192,123103,1,0,0:0:0:0:
256,192,123176,1,0,0:0:0:0:
36,192,123248,1,0,0:0:0:0:
402,192,123248,1,0,0:0:0:0:
475,192,123248,1,0,0:0:0:0:
109,192,123248,1,0,0:0:0:0:
182,192,123321,1,0,0:0:0:0:
329,192,123393,1,0,0:0:0:0:
475,192,123393,1,0,0:0:0:0:
182,192,123466,1,0,0:0:0:0:
256,192,123538,1,0,0:0:0:0:
402,192,123538,1,0,0:0:0:0:
109,192,123538,1,0,0:0:0:0:
329,192,123611,1,0,0:0:0:0:
182,192,123683,1,0,0:0:0:0:
36,192,123683,1,0,0:0:0:0:
402,192,123755,1,0,0:0:0:0:
475,192,123828,1,0,0:0:0:0:
256,192,123828,1,0,0:0:0:0:
182,192,123828,1,0,0:0:0:0:
109,192,123828,1,0,0:0:0:0:
329,192,123900,1,0,0:0:0:0:
402,192,123973,1,0,0:0:0:0:
109,192,123973,1,0,0:0:0:0:
182,192,124045,1,0,0:0:0:0:
256,192,124118,1,0,0:0:0:0:
109,192,124118,1,0,0:0:0:0:
36,192,124118,1,0,0:0:0:0:
402,192,124190,1,0,0:0:0:0:
182,192,124263,1,0,0:0:0:0:
36,192,124263,1,0,0:0:0:0:
329,192,124335,1,0,0:0:0:0:
475,192,124408,1,0,0:0:0:0:
402,192,124408,1,0,0:0:0:0:
182,192,124408,1,0,0:0:0:0:
109,192,124408,1,0,0:0:0:0:
256,192,124480,1,0,0:0:0:0:
402,192,124552,1,0,0:0:0:0:
109,192,124552,1,0,0:0:0:0:
329,192,124625,1,0,0:0:0:0:
475,192,124697,1,0,0:0:0:0:
182,192,124697,1,0,0:0:0:0:
36,192,124697,1,0,0:0:0:0:
256,192,124770,1,0,0:0:0:0:
182,192,124842,1,0,0:0:0:0:
36,192,124842,1,0,0:0:0:0:
402,192,124915,1,0,0:0:0:0:
329,192,124987,1,0,0:0:0:0:
256,192,124987,1,0,0:0:0:0:
182,192,125060,1,0,0:0:0:0:
36,192,125060,1,0,0:0:0:0:
475,192,125132,1,0,0:0:0:0:
402,192,125132,1,0,0:0:0:0:
109,192,125205,1,0,0:0:0:0:
182,192,125205,1,0,0:0:0:0:
402,192,125277,1,0,0:0:0:0:
256,192,125277,1,0,0:0:0:0:
182,192,125349,1,0,0:0:0:0:
36,192,125349,1,0,0:0:0:0:
109,192,125349,1,0,0:0:0:0:
475,192,125422,1,0,0:0:0:0:
329,192,125422,1,0,0:0:0:0:
402,192,125422,1,0,0:0:0:0:
182,192,125494,1,0,0:0:0:0:
36,192,125494,1,0,0:0:0:0:
109,192,125494,1,0,0:0:0:0:
475,192,125567,1,0,0:0:0:0:
329,192,125567,1,0,0:0:0:0:
402,192,125567,1,0,0:0:0:0:
256,192,125639,1,0,0:0:0:0:
109,192,125639,1,0,0:0:0:0:
36,192,125639,1,0,0:0:0:0:
402,192,125712,1,0,0:0:0:0:
329,192,125712,1,0,0:0:0:0:
182,192,125784,1,0,0:0:0:0:
109,192,125784,1,0,0:0:0:0:
36,192,125784,1,0,0:0:0:0:
256,192,125857,1,0,0:0:0:0:
329,192,125929,1,0,0:0:0:0:
109,192,125929,1,0,0:0:0:0:
402,192,126002,1,0,0:0:0:0:
182,192,126002,1,0,0:0:0:0:
256,192,126074,1,0,0:0:0:0:
475,192,126074,1,0,0:0:0:0:
402,192,126146,1,0,0:0:0:0:
329,192,126146,1,0,0:0:0:0:
182,192,126219,1,0,0:0:0:0:
109,192,126219,1,0,0:0:0:0:
36,192,126291,1,0,0:0:0:0:
256,192,126364,1,0,0:0:0:0:
329,192,126364,1,0,0:0:0:0:
475,192,126364,1,0,0:0:0:0:
402,192,126436,1,0,0:0:0:0:
182,192,126509,1,0,0:0:0:0:
36,192,126509,1,0,0:0:0:0:
329,192,126581,1,0,0:0:0:0:
109,192,126654,1,0,0:0:0:0:
402,192,126654,1,0,0:0:0:0:
475,192,126654,1,0,0:0:0:0:
256,192,126726,1,0,0:0:0:0:
402,192,126799,1,0,0:0:0:0:
182,192,126799,1,0,0:0:0:0:
36,192,126799,1,0,0:0:0:0:
475,192,126799,1,0,0:0:0:0:
329,192,126871,1,0,0:0:0:0:
256,192,126944,1,0,0:0:0:0:
109,192,126944,1,0,0:0:0:0:
475,192,127016,1,0,0:0:0:0:
402,192,127016,1,0,0:0:0:0:
329,192,127016,1,0,0:0:0:0:
182,192,127088,1,0,0:0:0:0:
109,192,127088,1,0,0:0:0:0:
36,192,127088,1,0,0:0:0:0:
475,192,127161,1,0,0:0:0:0:
402,192,127161,1,0,0:0:0:0:
329,192,127161,1,0,0:0:0:0:
256,192,127233,1,0,0:0:0:0:
182,192,127233,1,0,0:0:0:0:
109,192,127233,1,0,0:0:0:0:
475,192,127306,1,0,0:0:0:0:
329,192,127306,1,0,0:0:0:0:
182,192,127378,1,0,0:0:0:0:
36,192,127378,1,0,0:0:0:0:
402,192,127451,1,0,0:0:0:0:
329,192,127451,1,0,0:0:0:0:
182,192,127523,1,0,0:0:0:0:
109,192,127523,1,0,0:0:0:0:
256,192,127596,1,0,0:0:0:0:
402,192,127668,1,0,0:0:0:0:
182,192,127668,1,0,0:0:0:0:
329,192,127741,1,0,0:0:0:0:
475,192,127813,1,0,0:0:0:0:
256,192,127813,1,0,0:0:0:0:
109,192,127813,1,0,0:0:0:0:
402,192,127885,1,0,0:0:0:0:
475,192,127958,1,0,0:0:0:0:
329,192,127958,1,0,0:0:0:0:
182,192,127958,1,0,0:0:0:0:
36,192,127958,1,0,0:0:0:0:
109,192,128030,1,0,0:0:0:0:
36,192,128103,128,0,128175:0:0:0:0:
475,192,128103,128,0,128175:0:0:0:0:
402,192,128175,128,0,128248:0:0:0:0:
109,192,128175,128,0,128248:0:0:0:0:
329,192,128248,128,0,128320:0:0:0:0:
182,192,128248,128,0,128320:0:0:0:0:
256,192,128320,128,0,128393:0:0:0:0:
475,192,128393,128,0,128465:0:0:0:0:
36,192,128393,128,0,128465:0:0:0:0:
402,192,128465,128,0,128538:0:0:0:0:
109,192,128465,128,0,128538:0:0:0:0:
329,192,128538,128,0,128610:0:0:0:0:
182,192,128538,128,0,128610:0:0:0:0:
256,192,128610,128,0,128682:0:0:0:0:
