osu file format v14

[General]
AudioFilename: Girugamesh - Gravitation.mp3
AudioLeadIn: 0
PreviewTime: 48458
Countdown: 0
SampleSet: None
StackLeniency: 0.7
Mode: 0
LetterboxInBreaks: 1
WidescreenStoryboard: 1

[Editor]
Bookmarks: 354,5302,10250,20147,30044,39941,44890,49838,59735,69632,74580,79529,89426,99323,104271,109219,119116,129013,130250,140147,150044,154993,159941,169838,179735,184683,189632,199529,209426,219323
DistanceSpacing: 1.2
BeatDivisor: 4
GridSize: 4
TimelineZoom: 1.3

[Metadata]
Title:Gravitation
TitleUnicode:Gravitation
Artist:Girugamesh
ArtistUnicode:Girugamesh
Creator:EchoingFury
Version:Singularity
Source:
Tags:
BeatmapID:1468814
BeatmapSetID:694244

[Difficulty]
HPDrainRate:6.8
CircleSize:4.2
OverallDifficulty:8
ApproachRate:9.6
SliderMultiplier:1.92
SliderTickRate:2

[Events]
//Background and Video events
0,0,"364876-black-hole.jpg",0,0
//Break Periods
//Storyboard Layer 0 (Background)
//Storyboard Layer 1 (Fail)
//Storyboard Layer 2 (Pass)
//Storyboard Layer 3 (Foreground)
//Storyboard Sound Samples

[TimingPoints]
354,309.278350515464,4,1,0,100,1,0
354,-125,4,3,0,70,0,0
5302,-100,4,3,0,70,0,0
5611,-100,4,3,0,35,0,0
5766,-100,4,3,0,70,0,0
6075,-100,4,3,0,35,0,0
6230,-100,4,3,0,70,0,0
8085,-100,4,3,0,35,0,0
8240,-100,4,3,0,70,0,0
8549,-100,4,3,0,35,0,0
8704,-100,4,3,0,70,0,0
10250,-90.9090909090909,4,3,0,85,0,0
30044,-76.9230769230769,4,3,0,75,0,0
32364,-66.6666666666667,4,3,0,75,0,0
33137,-76.9230769230769,4,3,0,75,0,0
36384,-76.9230769230769,4,3,0,75,0,0
36848,-66.6666666666667,4,3,0,75,0,0
39013,-76.9230769230769,4,3,0,75,0,0
39941,-166.666666666667,4,3,0,60,0,0
41178,-125,4,3,0,70,0,0
42415,-100,4,3,0,70,0,0
49683,-76.9230769230769,4,3,0,90,0,1
49993,-83.3333333333333,4,3,0,90,0,1
59580,-76.9230769230769,4,3,0,90,0,1
59890,-83.3333333333333,4,3,0,90,0,1
69477,-100,4,3,0,90,0,0
79529,-90.9090909090909,4,3,0,85,0,0
89426,-76.9230769230769,4,3,0,75,0,0

[Colours]
Combo1 : 251,125,130
Combo2 : 160,0,64
Combo3 : 240,0,96
Combo4 : 248,71,80

[HitObjects]
32,88,354,5,8,0:0:0:0:
80,160,817,1,8,0:0:0:0:
48,240,1281,1,8,0:0:0:0:
112,300,1591,2,0,L|120:340,3,38.4
172,92,1900,1,0,0:0:0:0:
204,111,1977,1,0,0:0:0:0:
242,115,2055,1,0,0:0:0:0:
278,102,2132,1,0,0:0:0:0:
301,71,2209,1,0,0:0:0:0:
308,88,2286,1,0,0:0:0:0:
315,105,2364,1,0,0:0:0:0:
322,122,2441,1,0,0:0:0:0:
329,139,2518,1,0,0:0:0:0:
375,146,2595,1,0,0:0:0:0:
409,179,2672,1,0,0:0:0:0:
418,226,2749,1,0,0:0:0:0:
398,269,2828,6,8,P|292:292|232:200,2,230.4
345,15,4065,1,0,0:0:0:0:
345,15,4219,1,0,0:0:0:0:
409,179,4374,1,0,0:0:0:0:
215,108,4528,1,0,0:0:0:0:
454,73,4683,1,0,0:0:0:0:
336,304,4837,1,0,0:0:0:0:
309,306,4915,1,0,0:0:0:0:
281,310,4993,1,0,0:0:0:0:
253,314,5070,1,0,0:0:0:0:
225,318,5147,1,0,0:0:0:0:
197,322,5225,1,0,0:0:0:0:
169,326,5302,6,0,P|109:246|133:162,1,192,8|0,0:0|0:0,0:0:0:0:
208,96,5766,2,0,B|269:88|269:88|337:104|337:104|397:96,1,192,8|0,0:0|0:0,0:0:0:0:
480,144,6230,2,0,P|464:188|464:240,1,96
512,336,6539,1,0,0:0:0:0:
512,336,6694,1,0,0:0:0:0:
296,248,6848,1,0,0:0:0:0:
384,352,7003,1,0,0:0:0:0:
432,176,7158,1,0,0:0:0:0:
196,300,7312,1,0,0:0:0:0:
408,264,7467,1,0,0:0:0:0:
456,88,7776,6,0,P|396:44|292:80,1,192,8|0,0:0|0:0,0:0:0:0:
224,152,8240,2,0,B|130:171|130:171|37:152,1,192,8|0,0:0|0:0,0:0:0:0:
100,84,8704,2,0,P|127:174|67:240,1,192
164,308,9168,1,0,0:0:0:0:
164,308,9245,1,0,0:0:0:0:
164,308,9323,1,0,0:0:0:0:
172,288,9400,1,0,0:0:0:0:
180,268,9477,1,0,0:0:0:0:
188,244,9555,1,0,0:0:0:0:
196,224,9632,1,0,0:0:0:0:
228,244,9709,1,0,0:0:0:0:
264,252,9786,1,0,0:0:0:0:
304,244,9864,1,0,0:0:0:0:
336,220,9941,1,0,0:0:0:0:
392,200,10018,1,0,0:0:0:0:
448,224,10096,1,0,0:0:0:0:
460,284,10173,1,0,0:0:0:0:
420,332,10250,6,0,B|370:345|370:345|316:336,1,105.600003222656
112,192,10560,1,0,0:0:0:0:
112,192,10637,1,0,0:0:0:0:
112,192,10714,1,0,0:0:0:0:
312,192,10869,1,0,0:0:0:0:
216,336,11023,1,0,0:0:0:0:
216,112,11178,1,0,0:0:0:0:
216,112,11256,1,0,0:0:0:0:
216,112,11333,1,0,0:0:0:0:
336,256,11488,6,0,P|344:304|336:360,1,105.600003222656
216,112,11797,2,0,P|208:64|216:8,1,105.600003222656
312,192,12106,1,0,0:0:0:0:
160,288,12261,1,0,0:0:0:0:
364,320,12415,1,0,0:0:0:0:
364,320,12493,1,0,0:0:0:0:
364,320,12570,1,0,0:0:0:0:
364,320,12647,1,0,0:0:0:0:
364,320,12725,6,0,L|472:320,1,105.600003222656
220,200,13034,2,0,L|118:229,1,105.600003222656
72,336,13343,1,0,0:0:0:0:
248,324,13498,1,0,0:0:0:0:
128,128,13652,1,0,0:0:0:0:
128,128,13730,1,0,0:0:0:0:
128,128,13807,1,0,0:0:0:0:
0,228,13962,6,0,L|12:336,1,105.600003222656
128,128,14271,1,0,0:0:0:0:
128,128,14348,1,0,0:0:0:0:
128,128,14426,1,0,0:0:0:0:
300,192,14580,1,0,0:0:0:0:
300,192,14735,1,0,0:0:0:0:
232,347,14890,2,0,L|180:352,1,52.8000016113282
112,232,15044,2,0,L|164:227,1,52.8000016113282
32,340,15199,6,0,L|0:240,1,105.600003222656
95,27,15508,2,0,L|127:127,1,105.600003222656
72,232,15817,1,0,0:0:0:0:
24,4,15972,1,0,0:0:0:0:
248,72,16127,1,0,0:0:0:0:
252,92,16204,1,0,0:0:0:0:
256,112,16281,1,0,0:0:0:0:
260,132,16359,1,0,0:0:0:0:
264,152,16436,6,0,L|352:212,1,105.600003222656
496,140,16745,1,0,0:0:0:0:
496,140,16823,1,0,0:0:0:0:
496,140,16900,1,0,0:0:0:0:
352,93,17055,1,0,0:0:0:0:
382,241,17209,1,0,0:0:0:0:
448,44,17364,1,0,0:0:0:0:
448,44,17441,1,0,0:0:0:0:
448,44,17518,1,0,0:0:0:0:
248,72,17673,6,0,B|204:101|204:101|176:148,1,105.600003222656
172,340,17982,2,0,B|215:310|215:310|243:265,1,105.600003222656
176,146,18292,1,0,0:0:0:0:
176,146,18446,1,0,0:0:0:0:
382,241,18601,1,0,0:0:0:0:
390,233,18678,1,0,0:0:0:0:
398,225,18756,1,0,0:0:0:0:
404,216,18833,1,0,0:0:0:0:
412,208,18910,5,0,0:0:0:0:
436,180,18988,1,0,0:0:0:0:
446,144,19065,1,0,0:0:0:0:
437,108,19142,1,0,0:0:0:0:
409,83,19219,1,0,0:0:0:0:
372,78,19297,1,0,0:0:0:0:
338,92,19374,1,0,0:0:0:0:
314,120,19451,1,0,0:0:0:0:
286,145,19529,1,0,0:0:0:0:
239,152,19606,1,0,0:0:0:0:
196,130,19683,1,0,0:0:0:0:
176,86,19761,1,0,0:0:0:0:
138,56,19838,1,0,0:0:0:0:
90,57,19915,1,0,0:0:0:0:
54,89,19993,1,0,0:0:0:0:
47,135,20070,1,0,0:0:0:0:
65,178,20147,6,0,L|164:212,1,105.600003222656
352,144,20457,1,0,0:0:0:0:
352,144,20534,1,0,0:0:0:0:
352,144,20611,1,0,0:0:0:0:
260,260,20766,2,0,L|276:364,2,105.600003222656
276,228,21152,1,0,0:0:0:0:
276,228,21230,1,0,0:0:0:0:
65,297,21384,5,0,0:0:0:0:
276,228,21539,1,0,0:0:0:0:
65,160,21694,1,0,0:0:0:0:
196,340,21848,1,0,0:0:0:0:
196,117,22003,1,0,0:0:0:0:
65,297,22158,1,0,0:0:0:0:
276,228,22312,1,0,0:0:0:0:
296,236,22390,1,0,0:0:0:0:
316,244,22467,1,0,0:0:0:0:
336,252,22544,1,0,0:0:0:0:
356,260,22622,6,0,L|460:248,1,105.600003222656
240,160,22931,2,0,L|164:232,1,105.600003222656
196,340,23240,1,0,0:0:0:0:
196,340,23395,1,0,0:0:0:0:
336,252,23549,1,0,0:0:0:0:
340,224,23627,1,0,0:0:0:0:
344,196,23704,1,0,0:0:0:0:
456,60,23859,6,0,L|480:164,1,105.600003222656
336,252,24168,1,0,0:0:0:0:
336,252,24245,1,0,0:0:0:0:
336,252,24323,1,0,0:0:0:0:
232,180,24477,1,0,0:0:0:0:
196,340,24632,1,0,0:0:0:0:
147,111,24786,2,0,L|111:148,1,52.8000016113282
247,230,24941,2,0,L|232:180,1,52.8000016113282
196,340,25096,6,0,B|246:355|246:355|299:350,1,105.600003222656
110,149,25405,2,0,B|59:133|59:133|6:138,1,105.600003222656
152,260,25714,1,0,0:0:0:0:
188,72,25869,1,0,0:0:0:0:
48,220,26024,1,0,0:0:0:0:
280,172,26178,1,0,0:0:0:0:
380,248,26333,6,0,P|392:300|384:352,1,105.600003222656
268,304,26642,1,0,0:0:0:0:
268,304,26719,1,0,0:0:0:0:
268,304,26797,1,0,0:0:0:0:
456,208,26951,1,0,0:0:0:0:
296,120,27106,1,0,0:0:0:0:
400,324,27261,1,0,0:0:0:0:
400,324,27338,1,0,0:0:0:0:
400,324,27415,1,0,0:0:0:0:
400,324,27493,1,0,0:0:0:0:
400,324,27570,6,0,B|348:332|348:332|296:320,1,105.600003222656
130,171,27879,1,0,0:0:0:0:
351,194,28034,1,0,0:0:0:0:
160,305,28189,1,0,0:0:0:0:
250,103,28343,1,0,0:0:0:0:
296,320,28498,1,0,0:0:0:0:
130,171,28652,1,0,0:0:0:0:
351,194,28807,5,0,0:0:0:0:
296,320,28962,1,0,0:0:0:0:
253,339,29039,1,0,0:0:0:0:
205,339,29116,1,0,0:0:0:0:
162,316,29194,1,0,0:0:0:0:
143,272,29271,1,0,0:0:0:0:
101,248,29348,1,0,0:0:0:0:
55,261,29426,1,0,0:0:0:0:
42,306,29503,1,0,0:0:0:0:
63,348,29580,1,0,0:0:0:0:
110,357,29658,1,0,0:0:0:0:
144,324,29735,1,0,0:0:0:0:
151,277,29812,1,0,0:0:0:0:
174,235,29890,1,0,0:0:0:0:
218,218,29967,1,0,0:0:0:0:
263,232,30044,6,0,P|280:288|264:352,1,124.79999428711
148,152,30354,1,0,0:0:0:0:
148,152,30431,1,0,0:0:0:0:
148,152,30508,1,0,0:0:0:0:
328,120,30663,2,0,L|452:120,1,124.79999428711
263,232,30972,1,0,0:0:0:0:
263,232,31049,1,0,0:0:0:0:
263,232,31127,1,0,0:0:0:0:
78,195,31281,6,0,P|69:130|103:83,1,124.79999428711
328,120,31591,1,0,0:0:0:0:
328,120,31668,1,0,0:0:0:0:
328,120,31745,2,0,P|388:136|448:120,2,124.79999428711
256,180,32132,2,0,B|248:224|248:224|260:260|260:260|252:308,1,124.79999428711
168,344,32364,2,0,P|96:348|44:300,1,144.000005493164
253,301,32673,5,0,0:0:0:0:
80,228,32828,1,0,0:0:0:0:
80,228,32905,1,0,0:0:0:0:
80,228,32982,1,0,0:0:0:0:
256,180,33137,2,0,B|278:119|278:119|266:60,1,124.79999428711
80,228,33446,2,0,B|57:288|57:288|69:347,1,124.79999428711
176,264,33756,6,0,B|176:200|176:200|144:148|144:148|144:85,2,187.199991430664
236,116,34374,1,0,0:0:0:0:
264,104,34451,1,0,0:0:0:0:
292,92,34529,1,0,0:0:0:0:
320,80,34606,2,0,L|440:112,1,124.79999428711
456,132,34838,1,0,0:0:0:0:
236,116,34993,6,0,B|208:60|208:60|228:0,1,124.79999428711
388,168,35302,1,0,0:0:0:0:
388,168,35379,1,0,0:0:0:0:
388,168,35456,1,0,0:0:0:0:
248,312,35611,2,0,P|192:332|132:312,1,124.79999428711
68,116,35921,1,0,0:0:0:0:
68,116,35998,1,0,0:0:0:0:
68,116,36075,1,0,0:0:0:0:
24,272,36230,5,0,0:0:0:0:
184,144,36384,2,0,B|272:120|280:168|368:144,1,187.199991430664
432,80,36694,1,0,0:0:0:0:
364,224,36848,2,0,P|336:288|364:352,1,144.000005493164
256,320,37080,2,0,B|152:304|152:304|176:336,1,144.000005493164
268,244,37312,2,0,P|248:176|192:132,1,144.000005493164
40,256,37622,5,0,0:0:0:0:
154,240,37776,1,0,0:0:0:0:
154,240,37854,1,0,0:0:0:0:
154,240,37931,1,0,0:0:0:0:
192,132,38085,1,0,0:0:0:0:
225,329,38240,1,0,0:0:0:0:
40,256,38394,1,0,0:0:0:0:
40,256,38472,1,0,0:0:0:0:
40,256,38549,1,0,0:0:0:0:
264,192,38704,6,0,P|278:95|188:36,1,216.000008239746
124,84,39013,2,0,B|116:128|116:128|128:164|128:164|120:212,1,124.79999428711
124,244,39245,1,0,0:0:0:0:
144,274,39322,1,0,0:0:0:0:
177,293,39399,1,0,0:0:0:0:
214,294,39476,1,0,0:0:0:0:
248,280,39554,1,0,0:0:0:0:
272,251,39631,1,0,0:0:0:0:
356,108,39941,6,0,L|368:196,1,86.3999973632813
384,208,40250,1,0,0:0:0:0:
351,313,40405,1,0,0:0:0:0:
351,313,40560,1,0,0:0:0:0:
207,208,40714,1,0,0:0:0:0:
384,208,40869,1,0,0:0:0:0:
241,312,41024,1,0,0:0:0:0:
296,144,41178,6,0,P|344:104|404:100,1,115.2
428,116,41488,1,0,0:0:0:0:
351,313,41642,1,0,0:0:0:0:
180,160,41797,2,0,P|169:120|169:84,1,76.8
185,64,42029,1,0,0:0:0:0:
205,48,42106,2,0,P|245:40|285:44,1,76.8
249,286,42415,6,0,P|180:305|108:286,1,144
84,192,42725,2,0,P|84:144|108:100,1,96
200,72,43034,1,0,0:0:0:0:
182,169,43189,1,0,0:0:0:0:
88,20,43343,1,0,0:0:0:0:
312,20,43498,1,0,0:0:0:0:
220,188,43652,6,0,P|204:240|224:328,1,144
248,348,43962,2,0,P|204:340|152:352,1,96
324,276,44271,2,0,P|368:284|420:272,1,96
440,260,44503,1,0,0:0:0:0:
460,248,44580,2,0,L|484:340,1,96
508,108,44890,6,0,P|440:92|368:108,1,144
352,124,45199,1,0,0:0:0:0:
251,299,45354,1,0,0:0:0:0:
436,216,45508,1,0,0:0:0:0:
238,174,45663,1,0,0:0:0:0:
374,325,45817,1,0,0:0:0:0:
352,124,45972,1,0,0:0:0:0:
172,204,46127,6,0,P|152:272|172:340,1,144
248,360,46436,2,0,L|344:360,1,96
436,216,46745,1,0,0:0:0:0:
428,192,46823,1,0,0:0:0:0:
420,168,46900,1,0,0:0:0:0:
412,144,46977,1,0,0:0:0:0:
404,120,47055,1,0,0:0:0:0:
477,49,47364,5,0,0:0:0:0:
450,94,47441,1,0,0:0:0:0:
404,120,47518,1,0,0:0:0:0:
350,115,47596,1,0,0:0:0:0:
302,93,47673,1,0,0:0:0:0:
265,130,47750,1,0,0:0:0:0:
212,141,47828,1,0,0:0:0:0:
163,119,47905,1,0,0:0:0:0:
133,75,47982,1,0,0:0:0:0:
82,86,48059,1,0,0:0:0:0:
45,123,48136,1,0,0:0:0:0:
34,174,48213,1,0,0:0:0:0:
53,223,48291,1,0,0:0:0:0:
94,254,48368,1,0,0:0:0:0:
146,258,48445,1,0,0:0:0:0:
192,232,48524,1,0,0:0:0:0:
228,192,48601,6,0,B|256:192|288:180|288:180|308:216|308:216|334:192|367:182|404:184|435:208|461:244|457:290|436:332|389:344,1,384
392,343,49374,1,0,0:0:0:0:
96,296,49683,6,0,B|80:216|80:216|112:132|112:132|96:56,1,249.599988574219
95,55,50070,1,0,0:0:0:0:
95,55,50147,1,0,0:0:0:0:
172,224,50302,2,0,B|222:251|222:251|280:240,1,115.199996484375
392,212,50611,1,0,0:0:0:0:
472,295,50766,1,0,0:0:0:0:
279,240,50921,1,0,0:0:0:0:
279,240,50998,1,0,0:0:0:0:
279,240,51075,1,0,0:0:0:0:
416,104,51230,5,0,0:0:0:0:
364,332,51384,1,0,0:0:0:0:
128,316,51539,1,0,0:0:0:0:
279,240,51694,1,0,0:0:0:0:
72,176,51848,1,0,0:0:0:0:
72,176,51926,1,0,0:0:0:0:
72,176,52003,1,0,0:0:0:0:
260,112,52158,6,0,P|316:98|372:112,1,115.199996484375
212,240,52467,1,0,0:0:0:0:
212,240,52544,1,0,0:0:0:0:
212,240,52622,1,0,0:0:0:0:
152,48,52776,1,0,0:0:0:0:
316,204,52931,1,0,0:0:0:0:
308,32,53085,1,0,0:0:0:0:
72,176,53240,1,0,0:0:0:0:
256,316,53395,1,0,0:0:0:0:
272,320,53472,1,0,0:0:0:0:
288,324,53549,6,0,B|344:324|344:324|396:288,1,115.199996484375
176,142,53859,2,0,B|120:142|120:142|68:178,1,115.199996484375
316,204,54168,1,0,0:0:0:0:
328,180,54245,1,0,0:0:0:0:
332,152,54323,1,0,0:0:0:0:
328,124,54400,1,0,0:0:0:0:
316,96,54477,1,0,0:0:0:0:
180,60,54632,6,0,P|97:124|152:220,1,230.39999296875
176,224,55018,1,0,0:0:0:0:
176,224,55096,1,0,0:0:0:0:
332,152,55250,1,0,0:0:0:0:
280,328,55405,1,0,0:0:0:0:
216,112,55560,1,0,0:0:0:0:
448,112,55714,2,0,P|496:144|512:200,1,115.199996484375
504,224,55946,1,0,0:0:0:0:
492,252,56024,6,0,B|436:268|436:268|380:256,1,115.199996484375
216,112,56333,1,0,0:0:0:0:
380,256,56488,1,0,0:0:0:0:
192,240,56642,1,0,0:0:0:0:
392,132,56797,1,0,0:0:0:0:
392,132,56874,1,0,0:0:0:0:
392,132,56951,1,0,0:0:0:0:
246,323,57106,6,0,B|170:323|170:323|102:283|102:283|26:283,1,230.39999296875
192,240,57570,1,0,0:0:0:0:
192,240,57725,2,0,P|168:180|280:88,1,230.39999296875
304,96,58111,1,0,0:0:0:0:
304,96,58189,1,0,0:0:0:0:
304,288,58343,1,0,0:0:0:0:
468,180,58498,5,0,0:0:0:0:
259,178,58652,1,0,0:0:0:0:
259,178,58730,1,0,0:0:0:0:
259,178,58807,1,0,0:0:0:0:
444,292,58962,1,0,0:0:0:0:
304,96,59116,1,0,0:0:0:0:
288,92,59194,1,0,0:0:0:0:
272,88,59271,1,0,0:0:0:0:
256,84,59348,1,0,0:0:0:0:
240,80,59426,1,0,0:0:0:0:
96,172,59580,6,0,B|120:348|120:348|64:300,1,249.599988574219
65,301,59967,1,0,0:0:0:0:
65,301,60044,1,0,0:0:0:0:
259,178,60199,2,0,P|315:162|371:178,1,115.199996484375
316,344,60508,1,0,0:0:0:0:
96,172,60663,2,0,P|80:116|96:59,1,115.199996484375
116,44,60895,1,0,0:0:0:0:
116,44,60972,1,0,0:0:0:0:
259,178,61127,5,0,0:0:0:0:
65,301,61281,1,0,0:0:0:0:
288,300,61436,1,0,0:0:0:0:
240,100,61591,1,0,0:0:0:0:
416,276,61745,1,0,0:0:0:0:
416,276,61823,1,0,0:0:0:0:
416,276,61900,1,0,0:0:0:0:
226,244,62055,6,0,B|166:245|113:281|85:343|85:343|64:300,1,230.39999296875
58,284,62441,1,0,0:0:0:0:
52,269,62518,1,0,0:0:0:0:
124,74,62673,1,0,0:0:0:0:
288,300,62828,1,0,0:0:0:0:
389,160,62982,1,0,0:0:0:0:
123,246,63137,1,0,0:0:0:0:
288,20,63291,1,0,0:0:0:0:
288,20,63369,1,0,0:0:0:0:
288,20,63446,6,0,P|344:12|400:32,1,115.199996484375
147,186,63756,2,0,P|90:182|39:150,1,115.199996484375
276,128,64065,1,0,0:0:0:0:
284,148,64142,1,0,0:0:0:0:
292,168,64219,1,0,0:0:0:0:
300,188,64297,1,0,0:0:0:0:
308,208,64374,1,0,0:0:0:0:
312,336,64529,6,0,P|364:240|472:248,1,230.39999296875
492,276,64915,1,0,0:0:0:0:
496,312,64993,1,0,0:0:0:0:
388,120,65147,2,0,P|392:63|424:16,1,115.199996484375
492,200,65457,1,0,0:0:0:0:
284,200,65611,1,0,0:0:0:0:
412,328,65766,1,0,0:0:0:0:
412,328,65843,1,0,0:0:0:0:
412,328,65921,1,0,0:0:0:0:
388,120,66075,5,0,0:0:0:0:
168,224,66230,2,0,B|158:280|158:280|179:337,1,115.199996484375
296,140,66539,2,0,B|305:83|305:83|284:26,1,115.199996484375
264,8,66771,1,0,0:0:0:0:
236,0,66848,2,0,P|180:0|124:32,1,115.199996484375
62,120,67158,5,0,0:0:0:0:
90,161,67235,1,0,0:0:0:0:
91,212,67313,1,0,0:0:0:0:
58,252,67390,1,0,0:0:0:0:
58,303,67467,1,0,0:0:0:0:
91,343,67545,1,0,0:0:0:0:
142,352,67622,1,0,0:0:0:0:
187,326,67699,1,0,0:0:0:0:
205,277,67776,1,0,0:0:0:0:
246,244,67854,1,0,0:0:0:0:
296,244,67931,1,0,0:0:0:0:
337,274,68008,1,0,0:0:0:0:
388,283,68085,1,0,0:0:0:0:
433,257,68162,1,0,0:0:0:0:
451,208,68240,1,0,0:0:0:0:
433,159,68317,1,0,0:0:0:0:
388,134,68394,1,0,0:0:0:0:
64,88,69477,21,0,0:0:0:0:
64,88,69555,1,0,0:0:0:0:
64,88,69632,2,0,B|108:104|108:104|136:144,1,96
184,280,69941,5,0,0:0:0:0:
84,232,70096,1,0,0:0:0:0:
300,200,70251,1,0,0:0:0:0:
264,332,70405,5,0,0:0:0:0:
244,112,70560,1,0,0:0:0:0:
396,320,70714,1,0,0:0:0:0:
456,112,70869,5,0,0:0:0:0:
240,200,71023,1,0,0:0:0:0:
328,96,71178,1,0,0:0:0:0:
376,272,71333,5,0,0:0:0:0:
376,272,71410,1,0,0:0:0:0:
376,272,71488,1,0,0:0:0:0:
140,148,71642,1,0,0:0:0:0:
352,184,71797,5,0,0:0:0:0:
124,304,71951,1,0,0:0:0:0:
124,304,72029,1,0,0:0:0:0:
124,304,72106,1,0,0:0:0:0:
264,332,72261,1,0,0:0:0:0:
96,184,72415,5,0,0:0:0:0:
44,332,72570,1,0,0:0:0:0:
268,168,72725,1,0,0:0:0:0:
448,336,72879,5,0,0:0:0:0:
436,72,73034,1,0,0:0:0:0:
312,304,73189,1,0,0:0:0:0:
268,168,73343,5,0,0:0:0:0:
224,32,73498,1,0,0:0:0:0:
408,128,73652,1,0,0:0:0:0:
128,208,73807,5,0,0:0:0:0:
128,208,73884,1,0,0:0:0:0:
128,208,73962,1,0,0:0:0:0:
328,248,74116,1,0,0:0:0:0:
144,32,74271,5,0,0:0:0:0:
20,296,74426,1,0,0:0:0:0:
20,296,74503,1,0,0:0:0:0:
20,296,74580,1,0,0:0:0:0:
128,208,74735,1,0,0:0:0:0:
280,308,74890,5,0,0:0:0:0:
288,184,75044,1,0,0:0:0:0:
408,352,75199,1,0,0:0:0:0:
144,348,75354,5,0,0:0:0:0:
344,124,75508,1,0,0:0:0:0:
280,308,75663,1,0,0:0:0:0:
56,252,75817,5,0,0:0:0:0:
392,192,75972,1,0,0:0:0:0:
80,88,76127,1,0,0:0:0:0:
144,348,76281,1,0,0:0:0:0:
144,348,76359,1,0,0:0:0:0:
144,348,76436,1,0,0:0:0:0:
192,172,76591,1,0,0:0:0:0:
376,320,76745,1,0,0:0:0:0:
88,240,76900,5,0,0:0:0:0:
85,232,76977,1,0,0:0:0:0:
83,224,77055,1,0,0:0:0:0:
81,216,77132,1,0,0:0:0:0:
79,209,77209,1,0,0:0:0:0:
76,201,77286,1,0,0:0:0:0:
74,193,77364,1,0,0:0:0:0:
72,186,77441,1,0,0:0:0:0:
70,178,77518,1,0,0:0:0:0:
68,170,77596,1,0,0:0:0:0:
65,163,77673,1,0,0:0:0:0:
63,155,77750,1,0,0:0:0:0:
61,147,77828,1,0,0:0:0:0:
59,140,77905,1,0,0:0:0:0:
57,132,77982,1,0,0:0:0:0:
54,124,78060,1,0,0:0:0:0:
52,116,78137,1,0,0:0:0:0:
50,109,78214,1,0,0:0:0:0:
48,101,78292,1,0,0:0:0:0:
132,24,78447,5,0,0:0:0:0:
172,12,78524,1,0,0:0:0:0:
212,24,78601,1,0,0:0:0:0:
236,60,78679,1,0,0:0:0:0:
232,104,78756,1,0,0:0:0:0:
264,132,78833,1,0,0:0:0:0:
308,132,78911,1,0,0:0:0:0:
344,112,78988,1,0,0:0:0:0:
388,112,79065,1,0,0:0:0:0:
424,136,79143,1,0,0:0:0:0:
432,176,79219,1,0,0:0:0:0:
388,304,79374,5,0,0:0:0:0:
388,304,79529,2,0,P|336:316|284:304,1,105.600003222656
432,70,79838,2,0,L|432:178,1,105.600003222656
424,196,80070,1,0,0:0:0:0:
412,216,80147,1,0,0:0:0:0:
318,335,80302,2,0,P|247:263|146:291,1,211.200006445313
136,304,80689,1,0,0:0:0:0:
132,324,80766,5,0,0:0:0:0:
300,200,80921,1,0,0:0:0:0:
148,140,81075,1,0,0:0:0:0:
220,360,81230,1,0,0:0:0:0:
220,360,81307,1,0,0:0:0:0:
220,360,81384,1,0,0:0:0:0:
44,248,81539,1,0,0:0:0:0:
104,56,81694,2,0,P|143:28|198:19,1,105.600003222656
225,27,81926,1,0,0:0:0:0:
248,40,82003,6,0,B|280:81|280:81|288:133,1,105.600003222656
197,337,82312,1,0,0:0:0:0:
169,203,82467,1,0,0:0:0:0:
169,203,82544,1,0,0:0:0:0:
169,203,82622,1,0,0:0:0:0:
335,352,82776,1,0,0:0:0:0:
197,337,82931,1,0,0:0:0:0:
389,225,83085,1,0,0:0:0:0:
389,225,83163,1,0,0:0:0:0:
389,225,83240,6,0,P|440:212|488:228,1,105.600003222656
280,320,83549,1,0,0:0:0:0:
280,320,83704,2,0,B|228:256|256:164|256:164|212:188,1,211.200006445313
72,332,84168,2,0,P|84:284|68:232,1,105.600003222656
4,112,84477,5,0,0:0:0:0:
124,28,84632,1,0,0:0:0:0:
67,231,84786,1,0,0:0:0:0:
0,28,84941,1,0,0:0:0:0:
0,28,85018,1,0,0:0:0:0:
0,28,85096,1,0,0:0:0:0:
184,164,85250,5,0,0:0:0:0:
168,292,85405,1,0,0:0:0:0:
336,120,85560,1,0,0:0:0:0:
336,120,85637,1,0,0:0:0:0:
336,120,85714,1,0,0:0:0:0:
136,72,85869,5,0,0:0:0:0:
280,172,86024,1,0,0:0:0:0:
424,68,86178,1,0,0:0:0:0:
424,68,86256,1,0,0:0:0:0:
424,68,86333,1,0,0:0:0:0:
220,15,86488,5,0,0:0:0:0:
412,160,86642,1,0,0:0:0:0:
472,36,86797,1,0,0:0:0:0:
472,36,86874,1,0,0:0:0:0:
472,36,86951,5,0,0:0:0:0:
416,148,87106,1,0,0:0:0:0:
472,260,87261,1,0,0:0:0:0:
294,127,87415,5,0,0:0:0:0:
169,135,87570,1,0,0:0:0:0:
101,240,87725,1,0,0:0:0:0:
344,244,87879,5,0,0:0:0:0:
294,127,88034,1,0,0:0:0:0:
244,10,88189,1,0,0:0:0:0:
52,108,88343,5,0,0:0:0:0:
248,176,88498,1,0,0:0:0:0:
432,56,88652,1,0,0:0:0:0:
472,200,88807,1,0,0:0:0:0:
481,231,88884,1,0,0:0:0:0:
490,262,88961,1,0,0:0:0:0:
499,292,89039,1,0,0:0:0:0:
508,323,89116,1,0,0:0:0:0:
280,248,89426,6,0,P|220:236|156:248,1,124.79999428711
316,332,89735,1,0,0:0:0:0:
388,168,89890,1,0,0:0:0:0:
388,168,89967,1,0,0:0:0:0:
388,168,90044,2,0,L|388:44,1,124.79999428711
332,224,90354,2,0,P|388:249|445:224,1,124.79999428711
224,104,90663,6,0,B|160:104|160:104|108:136,1,124.79999428711
148,280,90972,1,0,0:0:0:0:
300,280,91127,1,0,0:0:0:0:
444,184,91281,2,0,P|470:102|414:26,1,187.199991430664
312,4,91591,2,0,B|268:10|268:10|239:34|239:34|195:40,1,124.79999428711
176,28,91823,1,0,0:0:0:0:
156,16,91900,6,0,P|184:68|168:128,1,124.79999428711
0,268,92209,2,0,P|19:212|75:184,1,124.79999428711
268,224,92518,1,0,0:0:0:0:
84,268,92673,1,0,0:0:0:0:
84,268,92750,1,0,0:0:0:0:
84,268,92828,1,0,0:0:0:0:
328,332,92982,1,0,0:0:0:0:
328,332,93137,6,0,L|452:320,1,124.79999428711
208,255,93446,2,0,L|84:267,1,124.79999428711
260,168,93756,2,0,P|300:92|244:16,1,187.199991430664
214,96,94065,2,0,P|274:116|330:96,1,124.79999428711
352,116,94297,1,0,0:0:0:0:
372,136,94374,6,0,B|365:179|365:179|341:208|341:208|335:252,1,124.79999428711
468,79,94683,2,0,P|420:35|364:23,1,124.79999428711
260,168,94993,1,0,0:0:0:0:
