osu file format v14

[General]
AudioFilename: audio.mp3
AudioLeadIn: 0
PreviewTime: 60272
Countdown: 0
SampleSet: Normal
StackLeniency: 0.7
Mode: 0
LetterboxInBreaks: 0
WidescreenStoryboard: 0

[Editor]
Bookmarks: 9969,29363,31788,51182,60727,82697,92394,119060,123909,129818
DistanceSpacing: 1.5
BeatDivisor: 4
GridSize: 4
TimelineZoom: 2.1

[Metadata]
Title:Chimera
TitleUnicode:Chimera
Artist:Girugamesh
ArtistUnicode:Girugamesh
Creator:Majii
Version:Light Corruption
Source:
Tags:
BeatmapID:1493671
BeatmapSetID:706364

[Difficulty]
HPDrainRate:3
CircleSize:3
OverallDifficulty:4
ApproachRate:5
SliderMultiplier:0.800000005960464
SliderTickRate:1

[Events]
//Background and Video events
0,0,"1488693345868.jpg",0,0
//Break Periods
2,29261,30588
2,82594,91194
2,119260,122709
//Storyboard Layer 0 (Background)
//Storyboard Layer 1 (Fail)
//Storyboard Layer 2 (Pass)
//Storyboard Layer 3 (Foreground)
//Storyboard Sound Samples

[TimingPoints]
273,303.030303030303,4,1,0,100,1,0
51182,-133.333333333333,4,1,0,100,0,0
60727,-100,4,1,0,100,0,1
80272,-100,4,1,0,100,0,0
102091,-100,4,1,0,100,0,1
116636,-100,4,1,0,100,0,0
129818,-100,4,1,0,100,0,1
149363,-100,4,1,0,100,0,0

[HitObjects]
256,192,6939,12,0,9363,0:0:0:0:
376,48,9969,6,0,B|312:104|332:208,1,160.000001192093
444,152,11030,1,0,0:0:0:0:
384,324,11485,6,0,B|420:308|428:244,1,80.0000005960464
308,232,12242,1,0,0:0:0:0:
192,268,12697,2,0,P|248:228|256:228,1,80.0000005960464
164,148,13454,1,0,0:0:0:0:
275,174,13909,2,0,P|279:135|272:96,2,80.0000005960464
276,296,14818,6,0,B|270:292|344:360|440:312,1,160.000001192093
364,216,15879,1,0,0:0:0:0:
96,32,16334,6,0,B|56:64|56:116,2,80.0000005960464
324,108,17545,2,0,P|362:98|387:67,1,80.0000005960464
424,180,18303,1,0,0:0:0:0:
304,180,18758,2,0,P|310:219|298:256,2,80.0000005960464
204,272,19666,6,0,B|232:368|324:348,1,160.000001192093
188,228,20727,1,0,0:0:0:0:
360,168,21182,6,0,B|328:144|328:144|320:104,1,80.0000005960464
436,80,21939,1,0,0:0:0:0:
416,200,22394,2,0,P|454:209|479:240,1,80.0000005960464
384,312,23151,1,0,0:0:0:0:
324,208,23606,2,0,P|292:240|284:288,2,80.0000005960464
244,192,24515,6,0,B|164:144,2,80.0000005960464
140,132,25576,1,0,0:0:0:0:
288,236,26031,6,0,B|320:260|320:260|364:256,2,80.0000005960464
156,36,27243,2,0,P|180:66|192:116,1,80.0000005960464
72,124,28000,1,0,0:0:0:0:
72,244,28455,2,0,L|72:156,2,80.0000005960464
116,92,31788,6,0,P|156:76|200:80,1,80.0000005960464
172,156,32394,2,0,P|204:204|232:216,1,80.0000005960464
252,140,33000,1,0,0:0:0:0:
372,144,33303,1,0,0:0:0:0:
412,256,33606,2,0,P|380:224|372:188,1,80.0000005960464
288,276,34212,6,0,P|248:274|211:290,1,80.0000005960464
104,236,34818,2,0,P|136:284|164:296,1,80.0000005960464
212,188,35424,1,0,0:0:0:0:
132,100,35727,1,0,0:0:0:0:
252,84,36030,1,0,0:0:0:0:
352,152,36333,1,0,0:0:0:0:
416,52,36636,6,0,P|376:36|332:40,1,80.0000005960464
272,80,37242,2,0,P|240:128|212:140,1,80.0000005960464
172,28,37848,1,0,0:0:0:0:
100,124,38151,1,0,0:0:0:0:
136,240,38454,2,0,P|168:208|176:172,1,80.0000005960464
256,264,39060,6,0,P|295:262|332:278,1,80.0000005960464
360,352,39666,2,0,P|392:329|410:294,1,80.0000005960464
428,216,40272,1,0,0:0:0:0:
320,268,40575,5,0,0:0:0:0:
320,148,40878,1,0,0:0:0:0:
220,212,41181,1,0,0:0:0:0:
256,56,41485,6,0,B|228:92|228:92|180:104,1,80.0000005960464
116,116,42091,2,0,B|121:149|121:149|157:177,1,80.0000005960464
40,200,42697,1,0,0:0:0:0:
108,296,43000,1,0,0:0:0:0:
224,272,43303,2,0,B|208:236|208:236|184:204,1,80.0000005960464
304,184,43909,6,0,P|340:168|380:170,1,80.0000005960464
404,304,44515,2,0,P|371:281|353:246,1,80.0000005960464
464,204,45121,1,0,0:0:0:0:
384,116,45424,1,0,0:0:0:0:
504,104,45727,1,0,0:0:0:0:
424,16,46030,1,0,0:0:0:0:
308,40,46333,6,0,P|347:38|384:54,1,80.0000005960464
336,120,46939,2,0,P|304:168|276:180,1,80.0000005960464
396,224,47545,1,0,0:0:0:0:
288,280,47848,1,0,0:0:0:0:
328,168,48151,2,0,B|336:128|336:128|368:100,1,80.0000005960464
192,92,48757,6,0,P|231:90|268:106,1,80.0000005960464
276,224,49363,2,0,P|240:206|217:173,1,80.0000005960464
208,56,49969,5,0,0:0:0:0:
112,128,50272,1,0,0:0:0:0:
124,248,50575,1,0,0:0:0:0:
208,332,50878,1,0,0:0:0:0:
212,208,51182,6,0,B|224:188|224:188|288:152|288:152|304:128,1,120.000005471707
416,96,52394,2,0,B|376:80|376:80|396:128|376:164,1,120.000005471707
304,220,53606,2,0,P|364:252|420:244,1,120.000005471707
152,320,54818,6,0,L|152:252,2,60.0000027358533
272,280,56030,1,0,0:0:0:0:
392,280,56636,2,0,L|324:280,2,60.0000027358533
472,192,57848,6,0,L|400:84,1,120.000005471707
352,200,59060,1,0,0:0:0:0:
248,260,59666,2,0,P|220:244|188:244,2,60.0000027358533
320,164,60727,6,0,P|272:132|264:64,1,120.00000089407
340,88,61485,1,0,0:0:0:0:
196,176,61939,6,0,P|136:176|96:236,1,120.00000089407
172,252,62697,1,0,0:0:0:0:
112,108,63151,6,0,B|96:68|96:68|48:64|32:12,1,120.00000089407
36,132,63909,1,0,0:0:0:0:
64,248,64363,6,0,B|96:312|96:312|136:344,1,120.00000089407
168,248,65121,1,0,0:0:0:0:
244,340,65424,1,0,0:0:0:0:
296,232,65727,6,0,P|344:264|360:300,1,80.0000005960464
400,172,66333,1,0,0:0:0:0:
236,184,66788,6,0,B|200:168|188:116|188:116|160:92,1,120.00000089407
280,112,67546,1,0,0:0:0:0:
456,112,68000,6,0,B|448:148|448:148|464:180|452:212|452:212|460:240,1,120.00000089407
340,192,68758,1,0,0:0:0:0:
192,88,69212,6,0,P|202:145|250:178,1,120.00000089407
136,212,69969,2,0,L|188:212,1,40.0000002980232
180,300,70273,2,0,L|232:300,1,40.0000002980232
92,320,70576,2,0,B|48:256|48:256|48:168,1,160.000001192093
228,256,71636,6,0,P|196:208|128:200,1,120.00000089407
152,276,72394,1,0,0:0:0:0:
240,132,72848,6,0,P|240:72|300:32,1,120.00000089407
316,108,73606,1,0,0:0:0:0:
488,236,74060,6,0,B|448:220|448:220|444:172|392:156,1,120.00000089407
332,256,74818,1,0,0:0:0:0:
272,88,75272,6,0,B|236:36|236:36|180:36,1,120.00000089407
180,196,76030,2,0,L|180:288,1,80.0000005960464
292,232,76636,1,0,0:0:0:0:
292,112,76939,1,0,0:0:0:0:
428,108,77242,2,0,L|428:12,2,80.0000005960464
428,228,78151,1,0,0:0:0:0:
336,304,78454,1,0,0:0:0:0:
404,136,78909,6,0,B|344:172|276:132,1,120.00000089407
340,248,79667,1,0,0:0:0:0:
228,108,80121,6,0,P|170:118|137:166,1,120.00000089407
244,224,80879,1,0,0:0:0:0:
160,312,81182,1,0,0:0:0:0:
80,224,81485,2,0,B|104:144|104:144|148:80,1,160.000001192093
28,72,82394,1,0,0:0:0:0:
188,280,92394,6,0,L|92:280,1,80.0000005960464
104,160,93000,2,0,L|188:160,1,80.0000005960464
280,280,93606,2,0,B|320:292|320:292|360:280,1,80.0000005960464
348,160,94212,2,0,B|315:150|315:150|271:162,1,80.0000005960464
84,72,94818,6,0,P|123:69|162:76,1,80.0000005960464
220,184,95424,2,0,P|181:191|143:179,1,80.0000005960464
200,352,96030,2,0,P|182:316|182:276,2,80.0000005960464
280,296,96939,1,0,0:0:0:0:
412,304,97242,6,0,P|384:240|392:148,1,160.000001192093
224,248,98454,2,0,P|184:188|100:160,1,160.000001192093
312,308,99666,2,0,P|276:344|236:348,1,80.0000005960464
364,244,100272,2,0,P|396:221|434:210,1,80.0000005960464
256,192,100879,5,0,0:0:0:0:
88,68,102091,6,0,B|128:100|136:84|168:116,1,80.0000005960464
244,188,102697,1,0,0:0:0:0:
160,276,103000,1,0,0:0:0:0:
328,280,103303,6,0,B|376:296|376:296|404:284,1,80.0000005960464
352,176,103909,1,0,0:0:0:0:
432,88,104212,1,0,0:0:0:0:
248,64,104515,6,0,B|226:32|178:28,1,80.0000005960464
168,148,105121,1,0,0:0:0:0:
260,224,105424,1,0,0:0:0:0:
108,272,105727,6,0,B|68:280|68:280|26:265,1,80.0000005960464
84,156,106333,1,0,0:0:0:0:
84,36,106636,1,0,0:0:0:0:
256,88,106939,6,0,B|256:136|256:136|280:188|280:188|280:252,1,160.000001192093
436,208,108151,2,0,B|436:153|436:153|412:101|412:101|412:53,1,160.000001192093
328,216,109363,6,0,L|328:308,1,80.0000005960464
328,132,109969,2,0,L|328:44,1,80.0000005960464
288,176,110576,6,0,L|196:176,1,80.0000005960464
372,176,111182,2,0,L|460:176,1,80.0000005960464
416,60,111788,5,0,0:0:0:0:
300,36,112091,1,0,0:0:0:0:
232,136,112394,1,0,0:0:0:0:
112,120,112697,1,0,0:0:0:0:
112,272,113000,6,0,B|156:256|156:256|204:264,1,80.0000005960464
372,304,113606,2,0,B|339:309|339:309|295:293,1,80.0000005960464
372,204,114212,6,0,B|416:188|416:188|464:196,1,80.0000005960464
396,84,114818,1,0,0:0:0:0:
288,136,115121,1,0,0:0:0:0:
228,268,115424,6,0,B|212:312|212:312|220:360,1,80.0000005960464
108,292,116030,1,0,0:0:0:0:
160,184,116333,1,0,0:0:0:0:
88,88,116636,6,0,P|160:52|248:60,1,160.000001192093
416,180,117848,2,0,P|452:108|444:20,2,160.000001192093
32,224,123909,6,0,B|224:352|224:32|480:224,1,480.000003576278
164,68,126333,6,0,P|144:116|116:136,1,80.0000005960464
240,160,126939,2,0,P|260:208|288:228,1,80.0000005960464
256,192,127545,12,0,128757,0:0:0:0:
192,208,129818,6,0,P|240:240|248:308,1,120.00000089407
172,284,130576,1,0,0:0:0:0:
316,196,131030,6,0,P|376:196|416:136,1,120.00000089407
340,120,131788,1,0,0:0:0:0:
400,264,132242,6,0,B|416:304|416:304|464:308|480:360,1,120.00000089407
476,240,133000,1,0,0:0:0:0:
448,124,133454,6,0,B|416:60|416:60|376:28,1,120.00000089407
344,124,134212,1,0,0:0:0:0:
268,32,134515,1,0,0:0:0:0:
216,140,134818,6,0,P|168:108|152:72,1,80.0000005960464
112,200,135424,1,0,0:0:0:0:
276,188,135879,6,0,B|312:204|324:256|324:256|352:280,1,120.00000089407
232,260,136637,1,0,0:0:0:0:
56,260,137091,6,0,B|64:224|64:224|48:192|60:160|60:160|52:132,1,120.00000089407
172,180,137849,1,0,0:0:0:0:
320,284,138303,6,0,P|310:227|262:194,1,120.00000089407
376,160,139060,2,0,L|324:160,1,40.0000002980232
332,72,139364,2,0,L|280:72,1,40.0000002980232
420,52,139667,2,0,B|464:116|464:116|464:204,1,160.000001192093
284,116,140727,6,0,P|316:164|384:172,1,120.00000089407
360,96,141485,1,0,0:0:0:0:
272,240,141939,6,0,P|272:300|212:340,1,120.00000089407
196,264,142697,1,0,0:0:0:0:
24,136,143151,6,0,B|64:152|64:152|68:200|120:216,1,120.00000089407
180,116,143909,1,0,0:0:0:0:
240,284,144363,6,0,B|276:336|276:336|332:336,1,120.00000089407
332,176,145121,2,0,L|332:84,1,80.0000005960464
220,140,145727,1,0,0:0:0:0:
220,260,146030,1,0,0:0:0:0:
84,264,146333,2,0,L|84:360,2,80.0000005960464
84,144,147242,1,0,0:0:0:0:
176,68,147545,1,0,0:0:0:0:
108,236,148000,6,0,B|168:200|236:240,1,120.00000089407
172,124,148758,1,0,0:0:0:0:
384,280,149212,5,0,0:0:0:0:
