osu file format v14

[General]
AudioFilename: audio.mp3
AudioLeadIn: 0
PreviewTime: 60272
Countdown: 0
SampleSet: None
StackLeniency: 0.2
Mode: 0
LetterboxInBreaks: 0
WidescreenStoryboard: 1

[Editor]
Bookmarks: 9969,29363,31788,51182,60727,82697,92394,119060,123909,129818
DistanceSpacing: 2.5
BeatDivisor: 4
GridSize: 4
TimelineZoom: 2.1

[Metadata]
Title:Chimera
TitleUnicode:Chimera
Artist:Girugamesh
ArtistUnicode:Girugamesh
Creator:Majii
Version:Changed
Source:
Tags:
BeatmapID:1493670
BeatmapSetID:706364

[Difficulty]
HPDrainRate:6
CircleSize:3
OverallDifficulty:8
ApproachRate:9.2
SliderMultiplier:2
SliderTickRate:1

[Events]
//Background and Video events
0,0,"1488693345868.jpg",0,0
//Break Periods
2,120270,123336
//Storyboard Layer 0 (Background)
//Storyboard Layer 1 (Fail)
//Storyboard Layer 2 (Pass)
//Storyboard Layer 3 (Foreground)
//Storyboard Sound Samples

[TimingPoints]
9967,303.030303030303,4,3,0,70,1,0
51179,-133.333333333333,4,3,0,70,0,0
56482,-50,4,3,0,70,0,0
56633,-133.333333333333,4,3,0,70,0,0
60724,-133.333333333333,4,3,0,70,0,1
80270,-133.333333333333,4,3,0,70,0,0
86330,-66.6666666666667,4,3,0,70,0,0
87239,-100,4,3,0,70,0,0
91179,-66.6666666666667,4,3,0,70,0,0
102088,-50,4,3,0,70,0,1
106936,-133.333333333333,4,3,0,70,0,0
114209,-66.6666666666667,4,3,0,70,0,0
116633,-200,4,3,0,70,0,0
129815,-133.333333333333,4,3,0,70,0,1
149360,-133.333333333333,4,3,0,70,0,0

[HitObjects]
48,176,9968,6,0,P|80:224|152:256,1,100
136,152,10270,1,0,0:0:0:0:
360,48,10421,1,0,0:0:0:0:
360,48,10497,1,0,0:0:0:0:
360,48,10573,2,0,P|312:80|280:152,1,100
384,152,10877,1,0,0:0:0:0:
296,200,11027,2,0,P|381:247|476:224,1,200
224,112,11482,6,0,P|208:80|157:41,1,100
128,136,11786,1,0,0:0:0:0:
64,56,11937,1,0,0:0:0:0:
32,152,12088,1,0,0:0:0:0:
128,136,12239,2,0,P|169:165|353:153,1,200
96,232,12694,6,0,P|128:280|200:312,1,100
192,208,12998,1,0,0:0:0:0:
280,256,13149,1,0,0:0:0:0:
288,160,13300,1,0,0:0:0:0:
466,293,13451,2,0,P|367:300|279:255,1,200
216,176,13906,5,0,0:0:0:0:
48,304,14057,1,0,0:0:0:0:
112,48,14209,5,0,0:0:0:0:
344,80,14360,1,0,0:0:0:0:
344,232,14512,5,0,0:0:0:0:
64,184,14663,1,0,0:0:0:0:
64,184,14739,1,0,0:0:0:0:
64,184,14815,2,0,P|112:152|176:160,1,100
136,256,15118,2,0,P|208:272|264:240,1,100
176,168,15421,5,0,0:0:0:0:
272,176,15573,1,0,0:0:0:0:
232,88,15724,1,0,0:0:0:0:
392,208,15876,2,0,P|394:158|371:115,2,100
296,192,16330,2,0,P|272:248|288:304,1,100
128,344,16633,5,0,0:0:0:0:
232,88,16785,1,0,0:0:0:0:
72,104,16936,5,0,0:0:0:0:
288,312,17088,1,0,0:0:0:0:
440,80,17391,5,0,0:0:0:0:
440,80,17466,1,0,0:0:0:0:
440,80,17542,2,0,P|376:64|328:80,1,100
392,160,17845,1,0,0:0:0:0:
392,160,17997,1,0,0:0:0:0:
290,174,18148,6,0,P|312:218|352:248,1,100
240,88,18451,2,0,P|184:40|136:32,1,100
96,216,18754,2,0,P|132:182|150:136,1,100
56,32,19057,5,0,0:0:0:0:
264,192,19209,1,0,0:0:0:0:
432,40,19360,5,0,0:0:0:0:
328,296,19512,1,0,0:0:0:0:
392,144,19663,6,0,P|351:115|325:73,1,100
280,168,19967,1,0,0:0:0:0:
104,240,20118,1,0,0:0:0:0:
104,240,20194,1,0,0:0:0:0:
104,240,20270,2,0,P|136:288|208:320,1,100
200,216,20574,1,0,0:0:0:0:
280,160,20724,2,0,P|239:131|55:143,1,200
336,248,21179,6,0,P|368:296|440:328,1,100
432,224,21483,1,0,0:0:0:0:
376,144,21634,1,0,0:0:0:0:
280,120,21785,1,0,0:0:0:0:
128,184,21936,2,0,P|169:213|353:201,1,200
176,72,22391,6,0,P|208:120|280:152,1,100
272,48,22695,1,0,0:0:0:0:
352,112,22846,1,0,0:0:0:0:
320,208,22997,1,0,0:0:0:0:
232,144,23148,2,0,P|141:98|45:106,1,200
120,176,23603,5,0,0:0:0:0:
0,352,23754,1,0,0:0:0:0:
288,336,23906,5,0,0:0:0:0:
288,80,24057,1,0,0:0:0:0:
448,200,24209,5,0,0:0:0:0:
128,208,24360,1,0,0:0:0:0:
128,208,24436,1,0,0:0:0:0:
128,208,24512,2,0,P|200:208|240:184,1,100
152,112,24815,2,0,P|112:96|40:104,1,100
96,192,25118,5,0,0:0:0:0:
48,280,25270,1,0,0:0:0:0:
8,192,25421,1,0,0:0:0:0:
116,347,25573,2,0,P|73:370|24:368,2,100
208,312,26027,2,0,P|272:296|320:320,1,100
112,88,26330,5,0,0:0:0:0:
432,216,26482,1,0,0:0:0:0:
320,56,26633,5,0,0:0:0:0:
64,184,26785,1,0,0:0:0:0:
256,208,27088,5,0,0:0:0:0:
256,208,27163,1,0,0:0:0:0:
256,208,27239,2,0,P|256:152|256:96,1,100
256,8,27542,1,0,0:0:0:0:
344,64,27694,1,0,0:0:0:0:
424,240,27845,6,0,P|368:184|360:144,1,100
392,336,28148,2,0,P|336:288|288:280,1,100
152,200,28451,2,0,P|184:240|231:254,1,100
328,240,28754,5,0,0:0:0:0:
104,336,28906,1,0,0:0:0:0:
288,160,29057,5,0,0:0:0:0:
56,264,29209,1,0,0:0:0:0:
224,72,29360,6,0,P|176:32|112:24,1,100
40,24,29663,1,0,0:0:0:0:
88,112,29815,1,0,0:0:0:0:
8,176,29966,2,0,P|51:199|84:236,1,100
136,328,30270,2,0,P|176:288|185:244,1,100
144,120,30573,5,0,0:0:0:0:
136,144,30648,1,0,0:0:0:0:
136,168,30724,1,0,0:0:0:0:
144,192,30800,1,0,0:0:0:0:
160,216,30876,1,0,0:0:0:0:
176,232,30951,1,0,0:0:0:0:
192,248,31027,1,0,0:0:0:0:
216,256,31102,1,0,0:0:0:0:
240,248,31178,5,0,0:0:0:0:
264,240,31254,1,0,0:0:0:0:
288,240,31330,1,0,0:0:0:0:
312,248,31405,1,0,0:0:0:0:
336,264,31482,2,0,P|400:320|456:328,1,100
208,64,31785,6,0,P|144:48|96:56,1,100
152,144,32088,1,0,0:0:0:0:
248,136,32239,1,0,0:0:0:0:
192,224,32391,1,0,0:0:0:0:
288,232,32542,1,0,0:0:0:0:
464,136,32694,6,0,P|432:104|432:44,1,100
376,312,32997,5,0,0:0:0:0:
304,248,33148,1,0,0:0:0:0:
272,344,33300,1,0,0:0:0:0:
208,264,33451,1,0,0:0:0:0:
160,352,33603,1,0,0:0:0:0:
112,264,33754,1,0,0:0:0:0:
440,336,33906,6,0,P|434:286|408:244,1,100
256,16,34209,5,0,0:0:0:0:
200,104,34360,1,0,0:0:0:0:
304,112,34512,1,0,0:0:0:0:
232,184,34663,1,0,0:0:0:0:
328,208,34815,1,0,0:0:0:0:
256,280,34966,1,0,0:0:0:0:
88,112,35118,6,0,P|82:62|56:20,1,100
176,352,35421,6,0,P|112:320|72:272,1,100
80,272,35648,1,0,0:0:0:0:
80,272,35724,1,0,0:0:0:0:
336,344,35876,1,0,0:0:0:0:
336,344,35951,1,0,0:0:0:0:
336,344,36027,1,0,0:0:0:0:
192,232,36179,5,0,0:0:0:0:
192,232,36254,1,0,0:0:0:0:
192,232,36330,1,0,0:0:0:0:
416,256,36482,1,0,0:0:0:0:
416,256,36557,1,0,0:0:0:0:
416,256,36633,1,0,0:0:0:0:
328,32,36784,5,0,0:0:0:0:
256,104,36936,1,0,0:0:0:0:
328,168,37087,1,0,0:0:0:0:
128,56,37239,6,0,P|88:120|88:160,1,100
424,56,37542,2,0,P|456:128|448:176,1,100
256,304,37845,5,0,0:0:0:0:
216,216,37996,1,0,0:0:0:0:
312,240,38148,1,0,0:0:0:0:
176,288,38299,1,0,0:0:0:0:
360,168,38451,6,0,P|370:119|401:81,1,100
128,152,38754,2,0,P|122:102|96:60,1,100
76,44,38982,1,0,0:0:0:0:
76,44,39057,1,0,0:0:0:0:
368,304,39360,5,0,0:0:0:0:
472,80,39663,1,0,0:0:0:0:
176,144,39967,1,0,0:0:0:0:
368,304,40118,1,0,0:0:0:0:
368,304,40194,1,0,0:0:0:0:
368,304,40270,1,0,0:0:0:0:
72,200,40421,5,0,0:0:0:0:
128,112,40573,1,0,0:0:0:0:
176,200,40724,1,0,0:0:0:0:
404,248,40876,5,0,0:0:0:0:
424,228,40951,1,0,0:0:0:0:
432,200,41027,1,0,0:0:0:0:
424,176,41103,1,0,0:0:0:0:
408,160,41179,1,0,0:0:0:0:
384,152,41254,1,0,0:0:0:0:
360,152,41330,1,0,0:0:0:0:
208,320,41482,6,0,P|144:304|96:312,1,100
328,312,41785,1,0,0:0:0:0:
416,256,41936,1,0,0:0:0:0:
320,216,42088,1,0,0:0:0:0:
400,328,42239,1,0,0:0:0:0:
88,176,42391,6,0,P|120:248|112:296,1,100
40,88,42694,5,0,0:0:0:0:
120,24,42845,1,0,0:0:0:0:
144,120,42997,1,0,0:0:0:0:
48,16,43148,1,0,0:0:0:0:
80,168,43300,1,0,0:0:0:0:
192,56,43451,1,0,0:0:0:0:
432,144,43603,6,0,P|426:94|400:52,1,100
432,248,43906,5,0,0:0:0:0:
368,320,44057,1,0,0:0:0:0:
320,232,44209,1,0,0:0:0:0:
448,320,44360,1,0,0:0:0:0:
272,312,44512,1,0,0:0:0:0:
384,176,44663,1,0,0:0:0:0:
112,248,44815,6,0,P|120:328|136:368,1,100
448,88,45118,6,0,P|384:56|344:8,1,100
348,20,45345,1,0,0:0:0:0:
348,20,45421,1,0,0:0:0:0:
336,176,45573,5,0,0:0:0:0:
336,176,45648,1,0,0:0:0:0:
336,176,45724,1,0,0:0:0:0:
160,72,45876,1,0,0:0:0:0:
160,72,45951,1,0,0:0:0:0:
160,72,46027,1,0,0:0:0:0:
328,264,46179,1,0,0:0:0:0:
328,264,46254,1,0,0:0:0:0:
328,264,46330,1,0,0:0:0:0:
416,96,46481,5,0,0:0:0:0:
472,184,46633,1,0,0:0:0:0:
496,88,46784,1,0,0:0:0:0:
320,208,46936,6,0,P|280:272|280:312,1,100
392,120,47239,2,0,P|424:192|416:240,1,100
232,32,47542,5,0,0:0:0:0:
312,96,47693,1,0,0:0:0:0:
216,80,47845,1,0,0:0:0:0:
304,32,47996,1,0,0:0:0:0:
256,240,48148,6,0,P|216:304|216:344,1,100
96,136,48451,2,0,P|128:208|120:256,1,100
120,260,48679,1,0,0:0:0:0:
120,260,48754,1,0,0:0:0:0:
392,112,49057,5,0,0:0:0:0:
48,72,49360,1,0,0:0:0:0:
456,32,49664,1,0,0:0:0:0:
208,232,49815,1,0,0:0:0:0:
256,224,49891,1,0,0:0:0:0:
304,240,49967,1,0,0:0:0:0:
80,256,50118,5,0,0:0:0:0:
256,136,50270,1,0,0:0:0:0:
440,256,50421,1,0,0:0:0:0:
80,256,50573,1,0,0:0:0:0:
256,352,50724,5,0,0:0:0:0:
256,304,50800,1,0,0:0:0:0:
256,256,50876,1,0,0:0:0:0:
256,208,50951,1,0,0:0:0:0:
256,160,51027,1,0,0:0:0:0:
256,112,51103,1,0,0:0:0:0:
256,72,51179,2,0,L|256:176,1,75.0000028610231
64,272,51634,5,0,0:0:0:0:
96,288,51709,1,0,0:0:0:0:
136,280,51785,1,0,0:0:0:0:
8,144,51936,1,0,0:0:0:0:
360,296,52088,1,0,0:0:0:0:
48,56,52239,1,0,0:0:0:0:
464,192,52542,5,0,0:0:0:0:
168,288,52845,1,0,0:0:0:0:
168,288,52997,2,0,B|136:256|136:256|128:224,2,75.0000028610231
88,96,53451,1,0,0:0:0:0:
352,200,53754,5,0,0:0:0:0:
384,216,53830,1,0,0:0:0:0:
416,232,53906,1,0,0:0:0:0:
208,128,54057,1,0,0:0:0:0:
488,272,54209,1,0,0:0:0:0:
144,88,54360,1,0,0:0:0:0:
280,328,54512,2,0,P|292:292|296:255,1,75.0000028610231
248,104,54815,6,0,P|224:74|232:8,1,75.0000028610231
384,88,55118,2,0,L|320:48,1,75.0000028610231
384,88,55421,2,0,B|408:128|408:128|416:176|416:176|448:224,1,150.000005722046
320,160,56027,5,0,0:0:0:0:
320,160,56179,1,0,0:0:0:0:
88,320,56482,6,0,P|96:248|128:328,1,200
120,132,56785,1,0,0:0:0:0:
192,112,56936,1,0,0:0:0:0:
136,60,57088,1,0,0:0:0:0:
224,332,57391,1,0,0:0:0:0:
328,72,57694,1,0,0:0:0:0:
352,220,57845,2,0,B|408:176|408:176|260:208|200:92,1,300.000011444092
144,264,58603,5,0,0:0:0:0:
120,232,58679,1,0,0:0:0:0:
96,200,58754,1,0,0:0:0:0:
232,360,58906,1,0,0:0:0:0:
376,264,59057,1,0,0:0:0:0:
232,152,59209,1,0,0:0:0:0:
232,360,59360,1,0,0:0:0:0:
232,72,59512,1,0,0:0:0:0:
432,64,59815,5,0,0:0:0:0:
256,192,59966,1,0,0:0:0:0:
88,320,60118,1,0,0:0:0:0:
104,80,60270,5,0,0:0:0:0:
392,272,60421,1,0,0:0:0:0:
104,80,60724,5,0,0:0:0:0:
160,204,60876,2,0,P|104:188|72:164,1,75.0000028610231
210,111,61179,2,0,P|246:118|280:136,1,75.0000028610231
368,64,61482,1,0,0:0:0:0:
448,192,61633,1,0,0:0:0:0:
320,272,61785,1,0,0:0:0:0:
448,192,61936,2,0,B|424:160|424:160|416:112,2,75.0000028610231
96,128,62391,1,0,0:0:0:0:
208,224,62542,1,0,0:0:0:0:
184,72,62694,6,0,P|215:91|240:120,1,75.0000028610231
368,40,62996,1,0,0:0:0:0:
112,48,63148,2,0,B|144:72|144:72|202:77,2,75.0000028610231
16,160,63603,1,0,0:0:0:0:
152,216,63754,1,0,0:0:0:0:
16,288,63906,2,0,P|49:304|85:315,1,75.0000028610231
32,176,64208,1,0,0:0:0:0:
160,96,64360,1,0,0:0:0:0:
272,200,64512,6,0,B|328:192|328:192|360:208|360:208|416:192,1,150.000005722046
288,112,64966,1,0,0:0:0:0:
432,192,65118,1,0,0:0:0:0:
288,304,65270,1,0,0:0:0:0:
176,208,65421,5,0,0:0:0:0:
432,80,65573,1,0,0:0:0:0:
184,120,65724,6,0,P|152:80|112:56,1,75.0000028610231
96,160,66027,2,0,P|16:160|-8:152,1,75.0000028610231
0,152,66254,1,0,0:0:0:0:
0,152,66330,1,0,0:0:0:0:
112,280,66482,1,0,0:0:0:0:
232,192,66633,2,0,P|264:136|264:96,1,75.0000028610231
368,264,66936,5,0,0:0:0:0:
144,352,67239,2,0,L|224:320,1,75.0000028610231
437,235,67542,2,0,B|397:251|377:263|337:271,1,75.0000028610231
216,200,67845,1,0,0:0:0:0:
216,200,67997,2,0,P|168:152|120:80,1,150.000005722046
296,64,68451,1,0,0:0:0:0:
104,192,68754,6,0,L|34:219,1,75.0000028610231
256,248,69057,2,0,B|245:249|293:249|317:209,1,75.0000028610231
464,168,69360,2,0,P|400:184|360:184,1,75.0000028610231
240,64,69663,5,0,0:0:0:0:
208,80,69739,1,0,0:0:0:0:
184,112,69815,1,0,0:0:0:0:
176,144,69891,1,0,0:0:0:0:
184,184,69966,1,0,0:0:0:0:
208,216,70042,1,0,0:0:0:0:
240,232,70118,1,0,0:0:0:0:
264,256,70194,1,0,0:0:0:0:
280,288,70270,5,0,0:0:0:0:
280,328,70345,1,0,0:0:0:0:
264,360,70421,2,0,P|328:336|352:312,1,75.0000028610231
424,80,70724,5,0,0:0:0:0:
424,232,70876,1,0,0:0:0:0:
100,168,71027,1,0,0:0:0:0:
100,168,71179,2,0,L|175:168,1,75.0000028610231
324,164,71633,5,0,0:0:0:0:
472,192,71785,2,0,P|438:174|402:167,1,75.0000028610231
256,128,72088,2,0,P|224:107|200:78,1,75.0000028610231
256,220,72391,1,0,0:0:0:0:
144,320,72542,1,0,0:0:0:0:
296,324,72694,1,0,0:0:0:0:
96,264,72845,2,0,B|72:232|72:232|64:184,2,75.0000028610231
64,116,73300,1,0,0:0:0:0:
204,172,73451,1,0,0:0:0:0:
292,52,73603,6,0,P|263:76|243:108,1,75.0000028610231
384,156,73905,1,0,0:0:0:0:
108,132,74057,2,0,B|140:156|140:156|198:161,2,75.0000028610231
332,160,74512,1,0,0:0:0:0:
196,288,74663,1,0,0:0:0:0:
476,200,74815,2,0,P|443:184|407:173,1,75.0000028610231
468,308,75117,1,0,0:0:0:0:
472,108,75269,1,0,0:0:0:0:
240,184,75421,6,0,B|224:156|224:156|124:260,1,150.000005722046
268,100,75875,1,0,0:0:0:0:
96,292,76027,5,0,0:0:0:0:
316,48,76179,1,0,0:0:0:0:
128,52,76330,5,0,0:0:0:0:
328,264,76482,1,0,0:0:0:0:
48,80,76633,6,0,P|80:120|120:144,1,75.0000028610231
208,32,76936,2,0,P|288:32|312:40,1,75.0000028610231
316,48,77163,1,0,0:0:0:0:
316,48,77239,1,0,0:0:0:0:
224,172,77391,1,0,0:0:0:0:
364,124,77542,2,0,P|372:192|400:220,1,75.0000028610231
256,292,77845,1,0,0:0:0:0:
448,48,78148,6,0,L|368:116,1,75.0000028610231
64,336,78451,2,0,L|148:276,1,75.0000028610231
336,136,78754,1,0,0:0:0:0:
336,136,78906,2,0,P|288:184|240:256,1,150.000005722046
208,108,79360,1,0,0:0:0:0:
448,296,79663,6,0,P|412:276|378:269,1,75.0000028610231
360,176,79966,2,0,B|371:175|323:175|299:215,2,75.0000028610231
256,28,80572,5,0,0:0:0:0:
220,44,80648,1,0,0:0:0:0:
196,72,80724,1,0,0:0:0:0:
188,108,80800,1,0,0:0:0:0:
236,136,80875,5,0,0:0:0:0:
248,172,80951,1,0,0:0:0:0:
252,208,81027,1,0,0:0:0:0:
244,244,81103,1,0,0:0:0:0:
296,268,81179,5,0,0:0:0:0:
332,256,81254,1,0,0:0:0:0:
360,232,81330,1,0,0:0:0:0:
376,200,81406,1,0,0:0:0:0:
372,164,81482,1,0,0:0:0:0:
144,196,81633,5,0,0:0:0:0:
376,48,81785,1,0,0:0:0:0:
324,28,81860,1,0,0:0:0:0:
268,40,81936,1,0,0:0:0:0:
480,312,82088,2,0,L|392:312,1,75.0000028610231
156,148,82391,6,0,B|200:140|200:140|248:148,1,75.0000028610231
372,192,82694,5,0,0:0:0:0:
340,240,82845,1,0,0:0:0:0:
80,92,83148,5,0,0:0:0:0:
100,148,83300,1,0,0:0:0:0:
440,88,83603,5,0,0:0:0:0:
408,136,83754,1,0,0:0:0:0:
124,204,84057,5,0,0:0:0:0:
156,256,84209,1,0,0:0:0:0:
256,32,84511,5,0,0:0:0:0:
212,72,84663,1,0,0:0:0:0:
400,32,84815,1,0,0:0:0:0:
436,80,84966,1,0,0:0:0:0:
328,196,85118,5,0,0:0:0:0:
68,200,85421,5,0,0:0:0:0:
120,172,85573,1,0,0:0:0:0:
296,328,85876,5,0,0:0:0:0:
252,288,86027,1,0,0:0:0:0:
136,56,86330,6,0,B|196:108|196:108|220:176,1,150.000005722046
372,28,86633,2,0,B|176:124,1,150.000005722046
464,232,86936,1,0,0:0:0:0:
464,200,87012,1,0,0:0:0:0:
464,168,87088,1,0,0:0:0:0:
464,372,87239,2,0,L|464:272,1,100
256,192,87694,5,0,0:0:0:0:
156,192,87845,1,0,0:0:0:0:
200,104,87997,1,0,0:0:0:0:
300,100,88148,1,0,0:0:0:0:
68,108,88451,5,0,0:0:0:0:
68,8,88603,1,0,0:0:0:0:
408,120,88906,5,0,0:0:0:0:
408,20,89057,1,0,0:0:0:0:
256,312,89360,5,0,0:0:0:0:
160,280,89512,1,0,0:0:0:0:
424,296,89663,1,0,0:0:0:0:
328,268,89815,1,0,0:0:0:0:
496,252,89966,5,0,0:0:0:0:
76,176,90270,5,0,0:0:0:0:
76,276,90421,1,0,0:0:0:0:
272,248,90724,5,0,0:0:0:0:
296,248,90800,1,0,0:0:0:0:
320,248,90876,2,0,L|436:248,1,100
396,64,91179,6,0,B|368:136|368:136|244:148,1,150.000005722046
116,64,91482,2,0,B|144:136|144:136|268:148,1,150.000005722046
256,344,91785,5,0,0:0:0:0:
256,308,91860,1,0,0:0:0:0:
256,272,91936,1,0,0:0:0:0:
256,236,92012,1,0,0:0:0:0:
256,200,92088,1,0,0:0:0:0:
256,164,92163,1,0,0:0:0:0:
256,128,92239,1,0,0:0:0:0:
256,92,92315,1,0,0:0:0:0:
256,56,92391,6,0,L|88:56,1,150.000005722046
256,56,92694,2,0,L|424:56,1,150.000005722046
412,212,92997,2,0,B|368:304|368:304|344:240,1,150.000005722046
100,212,93300,2,0,B|144:304|144:304|168:240,1,150.000005722046
256,80,93603,5,0,0:0:0:0:
256,304,93754,1,0,0:0:0:0:
120,124,93906,5,0,0:0:0:0:
256,304,94057,1,0,0:0:0:0:
392,124,94209,5,0,0:0:0:0:
256,304,94360,1,0,0:0:0:0:
120,124,94512,5,0,0:0:0:0:
256,304,94663,1,0,0:0:0:0:
256,52,94815,6,0,L|256:224,1,150.000005722046
256,332,95118,2,0,L|256:160,1,150.000005722046
392,184,95421,2,0,L|220:184,1,150.000005722046
112,184,95724,2,0,L|284:184,1,150.000005722046
80,80,96027,5,0,0:0:0:0:
256,40,96179,1,0,0:0:0:0:
428,96,96330,1,0,0:0:0:0:
432,304,96482,5,0,0:0:0:0:
256,344,96634,1,0,0:0:0:0:
84,288,96785,1,0,0:0:0:0:
432,200,96936,6,0,B|340:152|260:152|260:152|264:152,1,150.000005722046
80,200,97239,2,0,B|172:152|252:152|252:152|248:152,1,150.000005722046
256,44,97694,5,0,0:0:0:0:
256,44,97845,1,0,0:0:0:0:
256,328,98148,1,0,0:0:0:0:
256,328,98300,1,0,0:0:0:0:
80,76,98603,1,0,0:0:0:0:
80,76,98754,1,0,0:0:0:0:
416,76,99057,2,0,P|380:152|316:184,2,150.000005722046
88,72,99663,5,0,0:0:0:0:
124,68,99739,1,0,0:0:0:0:
160,72,99815,1,0,0:0:0:0:
192,88,99891,1,0,0:0:0:0:
216,116,99966,1,0,0:0:0:0:
228,152,100042,1,0,0:0:0:0:
232,188,100118,1,0,0:0:0:0:
228,224,100194,1,0,0:0:0:0:
212,260,100270,5,0,0:0:0:0:
264,264,100345,1,0,0:0:0:0:
316,252,100421,1,0,0:0:0:0:
364,228,100497,1,0,0:0:0:0:
396,188,100573,1,0,0:0:0:0:
416,140,100648,1,0,0:0:0:0:
420,88,100724,1,0,0:0:0:0:
392,44,100800,1,0,0:0:0:0:
356,84,100876,5,0,0:0:0:0:
72,328,102088,2,0,P|152:296|240:192,1,200
248,168,102315,1,0,0:0:0:0:
256,120,102391,1,0,0:0:0:0:
400,260,102542,5,0,0:0:0:0:
356,288,102618,1,0,0:0:0:0:
304,288,102694,2,0,P|168:228|136:176,1,200
340,152,102997,5,0,0:0:0:0:
172,44,103148,1,0,0:0:0:0:
340,152,103300,1,0,0:0:0:0:
172,44,103451,1,0,0:0:0:0:
104,232,103603,5,0,0:0:0:0:
140,264,103679,1,0,0:0:0:0:
188,276,103754,1,0,0:0:0:0:
464,204,103906,5,0,0:0:0:0:
424,236,103982,1,0,0:0:0:0:
376,244,104057,1,0,0:0:0:0:
256,48,104209,5,0,0:0:0:0:
268,96,104285,1,0,0:0:0:0:
260,144,104360,1,0,0:0:0:0:
104,232,104512,5,0,0:0:0:0:
376,104,104663,1,0,0:0:0:0:
256,340,104815,5,0,0:0:0:0:
148,108,104966,1,0,0:0:0:0:
480,336,105118,6,0,B|400:228|400:228|396:316,1,200
456,44,105421,2,0,B|400:160|400:160|384:84,1,200
60,300,105724,5,0,0:0:0:0:
108,284,105800,1,0,0:0:0:0:
152,260,105876,1,0,0:0:0:0:
188,228,105951,1,0,0:0:0:0:
212,184,106027,5,0,0:0:0:0:
320,352,106179,1,0,0:0:0:0:
312,152,106330,1,0,0:0:0:0:
448,296,106482,1,0,0:0:0:0:
48,48,106633,5,0,0:0:0:0:
80,88,106709,1,0,0:0:0:0:
124,112,106785,1,0,0:0:0:0:
172,112,106860,1,0,0:0:0:0:
220,96,106936,5,0,0:0:0:0:
256,312,107088,1,0,0:0:0:0:
464,72,107391,5,0,0:0:0:0:
408,208,107542,1,0,0:0:0:0:
336,76,107694,1,0,0:0:0:0:
72,272,107997,5,0,0:0:0:0:
100,296,108073,1,0,0:0:0:0:
136,308,108148,5,0,0:0:0:0:
160,160,108300,1,0,0:0:0:0:
440,112,108603,5,0,0:0:0:0:
412,88,108679,1,0,0:0:0:0:
376,76,108754,5,0,0:0:0:0:
352,224,108906,1,0,0:0:0:0:
104,148,109209,5,0,0:0:0:0:
80,120,109285,1,0,0:0:0:0:
68,84,109360,1,0,0:0:0:0:
216,60,109512,1,0,0:0:0:0:
264,204,109663,1,0,0:0:0:0:
384,292,109815,1,0,0:0:0:0:
188,340,109966,6,0,P|252:324|284:300,1,75.0000028610231
108,304,110270,2,0,P|68:248|72:212,1,75.0000028610231
212,200,110573,2,0,L|280:128,1,75.0000028610231
288,120,110800,1,0,0:0:0:0:
312,92,110876,1,0,0:0:0:0:
476,96,111027,5,0,0:0:0:0:
404,228,111178,1,0,0:0:0:0:
264,280,111330,1,0,0:0:0:0:
172,120,111481,6,0,P|108:136|76:160,1,75.0000028610231
252,156,111785,2,0,P|292:212|288:248,1,75.0000028610231
148,260,112088,2,0,L|80:332,1,75.0000028610231
72,340,112315,1,0,0:0:0:0:
48,368,112391,1,0,0:0:0:0:
252,148,112542,5,0,0:0:0:0:
108,104,112694,1,0,0:0:0:0:
392,104,112845,1,0,0:0:0:0:
252,236,112997,5,0,0:0:0:0:
396,280,113149,1,0,0:0:0:0:
112,280,113300,2,0,P|72:228|64:204,1,75.0000028610231
400,280,113603,2,0,P|440:228|448:204,1,75.0000028610231
256,112,113906,2,0,L|256:28,1,75.0000028610231
160,196,114209,6,0,B|160:156|160:156|52:240,1,150.000005722046
252,96,114512,2,0,B|292:96|292:96|208:-12,1,150.000005722046
352,188,114815,2,0,B|352:228|352:228|460:144,1,150.000005722046
260,288,115118,2,0,B|220:288|220:288|304:396,1,150.000005722046
156,208,115421,5,0,0:0:0:0:
256,40,115573,1,0,0:0:0:0:
348,212,115724,1,0,0:0:0:0:
156,208,115876,1,0,0:0:0:0:
256,40,116027,1,0,0:0:0:0:
252,232,116179,5,0,0:0:0:0:
84,132,116331,1,0,0:0:0:0:
256,40,116482,1,0,0:0:0:0:
256,356,116633,2,0,B|297:318|297:318|408:292|416:200|416:200|464:148,1,300
304,200,117845,5,0,0:0:0:0:
272,180,117921,1,0,0:0:0:0:
248,148,117997,1,0,0:0:0:0:
236,112,118073,1,0,0:0:0:0:
212,84,118148,1,0,0:0:0:0:
180,64,118224,1,0,0:0:0:0:
144,56,118300,1,0,0:0:0:0:
108,60,118376,1,0,0:0:0:0:
120,96,118451,5,0,0:0:0:0:
140,128,118527,1,0,0:0:0:0:
148,164,118603,1,0,0:0:0:0:
144,200,118679,1,0,0:0:0:0:
128,232,118754,1,0,0:0:0:0:
120,268,118830,1,0,0:0:0:0:
124,304,118906,1,0,0:0:0:0:
140,340,118982,1,0,0:0:0:0:
172,356,119057,1,0,0:0:0:0:
256,44,123906,5,0,0:0:0:0:
256,336,124512,1,0,0:0:0:0:
256,96,125118,1,0,0:0:0:0:
256,272,125724,1,0,0:0:0:0:
44,192,126330,5,0,0:0:0:0:
164,100,126633,1,0,0:0:0:0:
284,192,126936,1,0,0:0:0:0:
408,104,127239,1,0,0:0:0:0:
412,344,127542,5,0,0:0:0:0:
352,296,127694,1,0,0:0:0:0:
296,248,127845,1,0,0:0:0:0:
244,196,127997,1,0,0:0:0:0:
88,284,128148,5,0,0:0:0:0:
148,240,128300,1,0,0:0:0:0:
364,104,128451,5,0,0:0:0:0:
84,108,128603,1,0,0:0:0:0:
256,192,128754,12,0,129663,0:0:0:0:
364,104,129815,5,0,0:0:0:0:
364,8,129967,2,0,P|420:24|452:48,1,75.0000028610231
268,72,130270,2,0,P|236:51|212:22,1,75.0000028610231
420,220,130573,5,0,0:0:0:0:
264,320,130724,1,0,0:0:0:0:
240,132,130876,1,0,0:0:0:0:
348,284,131027,2,0,B|372:316|372:316|380:364,2,75.0000028610231
164,312,131482,1,0,0:0:0:0:
320,208,131633,1,0,0:0:0:0:
160,108,131785,6,0,P|129:89|104:60,1,75.0000028610231
292,72,132087,1,0,0:0:0:0:
144,188,132239,2,0,B|186:199|206:231,2,75.0000028610231
240,352,132694,5,0,0:0:0:0:
60,296,132845,1,0,0:0:0:0:
244,260,132997,2,0,P|284:268|313:287,1,75.0000028610231
140,216,133299,1,0,0:0:0:0:
324,184,133451,1,0,0:0:0:0:
424,88,133603,6,0,B|368:96|368:96|336:80|336:80|280:96,1,150.000005722046
140,216,134057,1,0,0:0:0:0:
12,80,134209,1,0,0:0:0:0:
16,268,134361,1,0,0:0:0:0:
212,40,134512,5,0,0:0:0:0:
388,232,134664,1,0,0:0:0:0:
280,200,134815,6,0,P|250:176|228:146,1,75.0000028610231
116,272,135118,2,0,P|196:272|220:280,1,75.0000028610231
216,288,135345,1,0,0:0:0:0:
216,288,135421,1,0,0:0:0:0:
56,140,135573,1,0,0:0:0:0:
232,72,135724,2,0,P|200:128|200:168,1,75.0000028610231
384,176,136027,5,0,0:0:0:0:
160,104,136330,2,0,L|80:136,1,75.0000028610231
128,232,136633,2,0,B|228:196,1,75.0000028610231
376,144,136936,1,0,0:0:0:0:
100,328,137088,2,0,B|72:284|22:278|22:278|96:244,1,150.000005722046
240,172,137542,1,0,0:0:0:0:
100,328,137845,6,0,L|170:301,1,75.0000028610231
340,224,138148,2,0,B|248:268,1,75.0000028610231
368,104,138451,2,0,P|331:109|297:125,1,75.0000028610231
236,328,138754,5,0,0:0:0:0:
268,312,138830,1,0,0:0:0:0:
292,280,138906,1,0,0:0:0:0:
300,248,138982,1,0,0:0:0:0:
292,208,139057,1,0,0:0:0:0:
268,176,139133,1,0,0:0:0:0:
236,160,139209,1,0,0:0:0:0:
212,136,139285,1,0,0:0:0:0:
196,104,139361,5,0,0:0:0:0:
196,64,139436,1,0,0:0:0:0:
212,32,139512,2,0,P|148:56|124:80,1,75.0000028610231
332,56,139815,5,0,0:0:0:0:
184,256,139967,1,0,0:0:0:0:
412,132,140118,1,0,0:0:0:0:
124,132,140270,2,0,L|49:132,1,75.0000028610231
52,320,140573,5,0,0:0:0:0:
236,348,140724,1,0,0:0:0:0:
272,164,140876,2,0,P|235:156|202:139,1,75.0000028610231
380,200,141179,2,0,P|412:221|436:250,1,75.0000028610231
252,292,141482,5,0,0:0:0:0:
124,156,141633,1,0,0:0:0:0:
284,56,141785,1,0,0:0:0:0:
124,240,141936,2,0,B|148:272|148:272|156:320,2,75.0000028610231
292,156,142391,1,0,0:0:0:0:
144,40,142542,1,0,0:0:0:0:
380,184,142694,6,0,P|360:215|331:239,1,75.0000028610231
164,324,142996,1,0,0:0:0:0:
340,320,143148,2,0,B|374:323|374:323|406:347,2,75.0000028610231
444,164,143603,1,0,0:0:0:0:
284,260,143754,1,0,0:0:0:0:
304,72,143906,6,0,P|337:88|373:99,1,75.0000028610231
204,24,144208,1,0,0:0:0:0:
300,184,144360,1,0,0:0:0:0:
44,208,144512,6,0,B|76:172|76:172|124:156|124:156|164:104,1,150.000005722046
64,280,144966,1,0,0:0:0:0:
328,48,145118,5,0,0:0:0:0:
88,352,145270,1,0,0:0:0:0:
400,352,145421,5,0,0:0:0:0:
136,44,145573,1,0,0:0:0:0:
360,288,145724,6,0,P|328:248|288:224,1,75.0000028610231
420,168,146027,2,0,P|340:168|316:160,1,75.0000028610231
316,156,146254,1,0,0:0:0:0:
316,156,146330,1,0,0:0:0:0:
480,36,146482,5,0,0:0:0:0:
216,132,146633,2,0,P|224:200|252:228,1,75.0000028610231
72,32,146936,1,0,0:0:0:0:
168,264,147239,6,0,L|248:196,1,75.0000028610231
352,112,147542,2,0,L|272:176,1,75.0000028610231
112,320,147845,1,0,0:0:0:0:
112,132,147997,2,0,P|132:64|208:40,1,150.000005722046
388,36,148451,1,0,0:0:0:0:
304,292,148754,6,0,P|340:312|374:319,2,75.0000028610231
256,56,149209,5,0,0:0:0:0:
