osu file format v14

[General]
AudioFilename: Girls Eating Boys - HPPBRTHD.mp3
AudioLeadIn: 0
PreviewTime: 65968
Countdown: 0
SampleSet: Soft
StackLeniency: 0.2
Mode: 3
LetterboxInBreaks: 0
SpecialStyle: 1
WidescreenStoryboard: 0

[Editor]
Bookmarks: 9738,29202,46504,83269,93002,101652,118954
DistanceSpacing: 0.6
BeatDivisor: 4
GridSize: 4
TimelineZoom: 1.3

[Metadata]
Title:HPPBRTHD
TitleUnicode:HPPBRTHD
Artist:Girls Eating Boys
ArtistUnicode:Girls Eating Boys
Creator:MAX WiRED
Version:422's Anniverxtra
Source:
Tags:Tales Of Something​-​something Breakcore 8-Bit Katya Lel' S Dnem Rozhdeniya Russian русский катя лель с днём рождения Alumetri semyon422 Or1g1n Flexo123 Nelly EijiKuinbii Frakturehawkens OpakyL
BeatmapID:1786514
BeatmapSetID:843601

[Difficulty]
HPDrainRate:7
CircleSize:4
OverallDifficulty:8
ApproachRate:5
SliderMultiplier:1.6
SliderTickRate:1

[Events]
//Background and Video events
0,0,"sample-cfc44507781ac3028c97c61e188dab2e.jpg",0,0
//Break Periods
//Storyboard Layer 0 (Background)
//Storyboard Layer 1 (Fail)
//Storyboard Layer 2 (Pass)
//Storyboard Layer 3 (Foreground)
//Storyboard Sound Samples

[TimingPoints]
6,270.337245714028,4,2,0,5,1,0
29202,-100,4,2,0,5,0,1
46504,-100,4,2,0,5,0,0
65968,-100,4,2,0,5,0,1
83269,-100,4,2,0,5,0,0
93002,-100,4,2,0,5,0,1
93005,-100,4,2,0,5,0,0
101652,-100,4,2,0,5,0,1
118954,-100,4,2,0,5,0,0

[HitObjects]
64,192,411,5,0,0:0:0:0:
448,192,546,1,0,0:0:0:0:
320,192,681,1,0,0:0:0:0:
64,192,817,1,0,0:0:0:0:
192,192,952,1,0,0:0:0:0:
320,192,1087,1,0,0:0:0:0:
448,192,1087,1,0,0:0:0:0:
192,192,1222,1,0,0:0:0:0:
192,192,1357,1,0,0:0:0:0:
448,192,1357,1,0,0:0:0:0:
320,192,1492,1,0,0:0:0:0:
64,192,1560,1,0,0:0:0:0:
320,192,1628,1,0,0:0:0:0:
448,192,1695,1,0,0:0:0:0:
192,192,1763,1,0,0:0:0:0:
64,192,1763,1,0,0:0:0:0:
64,192,1898,1,0,0:0:0:0:
320,192,1898,1,0,0:0:0:0:
448,192,2033,1,0,0:0:0:0:
192,192,2101,1,0,0:0:0:0:
448,192,2168,1,0,0:0:0:0:
64,192,2168,1,0,0:0:0:0:
320,192,2303,1,0,0:0:0:0:
64,192,2439,1,0,0:0:0:0:
192,192,2439,1,0,0:0:0:0:
64,192,2574,1,0,0:0:0:0:
192,192,2574,1,0,0:0:0:0:
448,192,2709,1,0,0:0:0:0:
192,192,2776,1,0,0:0:0:0:
448,192,2844,1,0,0:0:0:0:
64,192,2844,1,0,0:0:0:0:
192,192,2979,1,0,0:0:0:0:
320,192,2979,1,0,0:0:0:0:
192,192,3114,1,0,0:0:0:0:
448,192,3182,1,0,0:0:0:0:
320,192,3250,1,0,0:0:0:0:
64,192,3250,1,0,0:0:0:0:
320,192,3385,1,0,0:0:0:0:
64,192,3385,1,0,0:0:0:0:
448,192,3520,1,0,0:0:0:0:
192,192,3587,1,0,0:0:0:0:
320,192,3655,1,0,0:0:0:0:
64,192,3655,1,0,0:0:0:0:
448,192,3790,1,0,0:0:0:0:
192,192,3790,1,0,0:0:0:0:
64,192,3925,1,0,0:0:0:0:
448,192,3925,1,0,0:0:0:0:
320,192,4061,1,0,0:0:0:0:
64,192,4061,1,0,0:0:0:0:
320,192,4196,1,0,0:0:0:0:
64,192,4263,1,0,0:0:0:0:
448,192,4331,1,0,0:0:0:0:
192,192,4331,1,0,0:0:0:0:
192,192,4466,1,0,0:0:0:0:
64,192,4534,1,0,0:0:0:0:
320,192,4601,1,0,0:0:0:0:
448,192,4601,1,0,0:0:0:0:
320,192,4736,1,0,0:0:0:0:
448,192,4736,1,0,0:0:0:0:
64,192,4872,1,0,0:0:0:0:
320,192,4939,1,0,0:0:0:0:
64,192,5007,1,0,0:0:0:0:
448,192,5074,1,0,0:0:0:0:
192,192,5142,1,0,0:0:0:0:
320,192,5142,1,0,0:0:0:0:
192,192,5277,1,0,0:0:0:0:
448,192,5277,1,0,0:0:0:0:
320,192,5412,1,0,0:0:0:0:
448,192,5412,1,0,0:0:0:0:
192,192,5547,1,0,0:0:0:0:
64,192,5547,1,0,0:0:0:0:
192,192,5683,1,0,0:0:0:0:
64,192,5683,1,0,0:0:0:0:
448,192,5818,1,0,0:0:0:0:
192,192,5885,1,0,0:0:0:0:
448,192,5953,1,0,0:0:0:0:
64,192,6021,1,0,0:0:0:0:
448,192,6088,1,0,0:0:0:0:
320,192,6088,1,0,0:0:0:0:
320,192,6223,1,0,0:0:0:0:
192,192,6223,1,0,0:0:0:0:
64,192,6358,1,0,0:0:0:0:
448,192,6426,1,0,0:0:0:0:
64,192,6494,1,0,0:0:0:0:
320,192,6561,1,0,0:0:0:0:
192,192,6629,1,0,0:0:0:0:
448,192,6629,1,0,0:0:0:0:
192,192,6764,1,0,0:0:0:0:
448,192,6764,1,0,0:0:0:0:
192,192,6899,1,0,0:0:0:0:
64,192,6899,1,0,0:0:0:0:
320,192,7034,1,0,0:0:0:0:
64,192,7102,1,0,0:0:0:0:
320,192,7169,1,0,0:0:0:0:
448,192,7169,1,0,0:0:0:0:
448,192,7305,1,0,0:0:0:0:
192,192,7305,1,0,0:0:0:0:
192,192,7440,1,0,0:0:0:0:
448,192,7507,1,0,0:0:0:0:
64,192,7575,1,0,0:0:0:0:
320,192,7575,1,0,0:0:0:0:
64,192,7710,1,0,0:0:0:0:
320,192,7710,1,0,0:0:0:0:
192,192,7845,1,0,0:0:0:0:
448,192,7913,1,0,0:0:0:0:
192,192,7980,1,0,0:0:0:0:
320,192,7980,1,0,0:0:0:0:
64,192,8116,1,0,0:0:0:0:
320,192,8116,1,0,0:0:0:0:
448,192,8251,1,0,0:0:0:0:
192,192,8251,1,0,0:0:0:0:
192,192,8386,1,0,0:0:0:0:
448,192,8386,1,0,0:0:0:0:
64,192,8521,1,0,0:0:0:0:
448,192,8521,1,0,0:0:0:0:
320,192,8656,1,0,0:0:0:0:
64,192,8656,1,0,0:0:0:0:
192,192,8791,1,0,0:0:0:0:
64,192,8859,1,0,0:0:0:0:
448,192,8927,1,0,0:0:0:0:
320,192,8927,1,0,0:0:0:0:
192,192,9062,1,0,0:0:0:0:
320,192,9129,1,0,0:0:0:0:
448,192,9197,1,0,0:0:0:0:
192,192,9265,1,0,0:0:0:0:
64,192,9332,1,0,0:0:0:0:
192,192,9467,1,0,0:0:0:0:
320,192,9602,1,0,0:0:0:0:
448,192,9738,1,0,0:0:0:0:
64,192,9738,1,0,0:0:0:0:
192,192,9873,128,0,10008:0:0:0:0:
64,192,10008,1,0,0:0:0:0:
320,192,10008,1,0,0:0:0:0:
192,192,10143,128,0,10278:0:0:0:0:
320,192,10278,1,0,0:0:0:0:
192,192,10413,128,0,10549:0:0:0:0:
448,192,10549,1,0,0:0:0:0:
64,192,10549,1,0,0:0:0:0:
192,192,10684,128,0,10819:0:0:0:0:
448,192,10819,1,0,0:0:0:0:
64,192,10954,128,0,11089:0:0:0:0:
320,192,11089,1,0,0:0:0:0:
192,192,11089,1,0,0:0:0:0:
64,192,11224,128,0,11360:0:0:0:0:
320,192,11360,1,0,0:0:0:0:
64,192,11495,128,0,11630:0:0:0:0:
448,192,11630,1,0,0:0:0:0:
192,192,11630,1,0,0:0:0:0:
64,192,11765,128,0,11900:0:0:0:0:
192,192,11900,1,0,0:0:0:0:
320,192,12036,128,0,12171:0:0:0:0:
64,192,12171,1,0,0:0:0:0:
448,192,12171,1,0,0:0:0:0:
320,192,12306,128,0,12441:0:0:0:0:
64,192,12441,1,0,0:0:0:0:
320,192,12576,128,0,12711:0:0:0:0:
448,192,12711,1,0,0:0:0:0:
192,192,12711,1,0,0:0:0:0:
320,192,12847,128,0,12982:0:0:0:0:
192,192,12982,1,0,0:0:0:0:
448,192,13117,128,0,13252:0:0:0:0:
320,192,13252,1,0,0:0:0:0:
64,192,13252,1,0,0:0:0:0:
448,192,13387,128,0,13522:0:0:0:0:
320,192,13522,1,0,0:0:0:0:
448,192,13658,128,0,13793:0:0:0:0:
192,192,13793,1,0,0:0:0:0:
64,192,13793,1,0,0:0:0:0:
448,192,13928,128,0,14063:0:0:0:0:
64,192,13928,1,0,0:0:0:0:
320,192,14063,1,0,0:0:0:0:
64,192,14198,128,0,14333:0:0:0:0:
192,192,14333,1,0,0:0:0:0:
448,192,14333,1,0,0:0:0:0:
64,192,14469,128,0,14604:0:0:0:0:
448,192,14604,1,0,0:0:0:0:
64,192,14739,128,0,14874:0:0:0:0:
320,192,14874,1,0,0:0:0:0:
192,192,14874,1,0,0:0:0:0:
64,192,15009,128,0,15144:0:0:0:0:
192,192,15144,1,0,0:0:0:0:
320,192,15280,128,0,15415:0:0:0:0:
448,192,15415,1,0,0:0:0:0:
64,192,15415,1,0,0:0:0:0:
320,192,15550,128,0,15685:0:0:0:0:
448,192,15685,1,0,0:0:0:0:
320,192,15820,128,0,15955:0:0:0:0:
192,192,15955,1,0,0:0:0:0:
64,192,15955,1,0,0:0:0:0:
320,192,16091,128,0,16226:0:0:0:0:
64,192,16226,1,0,0:0:0:0:
192,192,16361,128,0,16496:0:0:0:0:
320,192,16496,1,0,0:0:0:0:
448,192,16496,1,0,0:0:0:0:
192,192,16631,128,0,16766:0:0:0:0:
448,192,16766,1,0,0:0:0:0:
192,192,16902,128,0,17037:0:0:0:0:
320,192,17037,1,0,0:0:0:0:
64,192,17037,1,0,0:0:0:0:
192,192,17172,128,0,17307:0:0:0:0:
64,192,17307,1,0,0:0:0:0:
448,192,17442,128,0,17577:0:0:0:0:
320,192,17577,1,0,0:0:0:0:
192,192,17577,1,0,0:0:0:0:
448,192,17713,128,0,17848:0:0:0:0:
192,192,17848,1,0,0:0:0:0:
448,192,17983,128,0,18118:0:0:0:0:
192,192,18051,1,0,0:0:0:0:
320,192,18118,1,0,0:0:0:0:
64,192,18118,1,0,0:0:0:0:
448,192,18253,128,0,18388:0:0:0:0:
64,192,18253,1,0,0:0:0:0:
192,192,18388,1,0,0:0:0:0:
320,192,18524,128,0,18659:0:0:0:0:
448,192,18659,1,0,0:0:0:0:
64,192,18659,1,0,0:0:0:0:
320,192,18794,128,0,18929:0:0:0:0:
64,192,18929,1,0,0:0:0:0:
320,192,19064,128,0,19199:0:0:0:0:
192,192,19199,1,0,0:0:0:0:
448,192,19199,1,0,0:0:0:0:
320,192,19335,128,0,19470:0:0:0:0:
192,192,19470,1,0,0:0:0:0:
448,192,19605,128,0,19740:0:0:0:0:
64,192,19740,1,0,0:0:0:0:
320,192,19740,1,0,0:0:0:0:
448,192,19875,128,0,20010:0:0:0:0:
64,192,20010,1,0,0:0:0:0:
448,192,20146,128,0,20281:0:0:0:0:
192,192,20281,1,0,0:0:0:0:
320,192,20281,1,0,0:0:0:0:
448,192,20416,128,0,20551:0:0:0:0:
320,192,20551,1,0,0:0:0:0:
192,192,20686,128,0,20821:0:0:0:0:
448,192,20821,1,0,0:0:0:0:
64,192,20821,1,0,0:0:0:0:
192,192,20957,128,0,21092:0:0:0:0:
448,192,21092,1,0,0:0:0:0:
192,192,21227,128,0,21362:0:0:0:0:
64,192,21362,1,0,0:0:0:0:
320,192,21362,1,0,0:0:0:0:
192,192,21497,128,0,21632:0:0:0:0:
320,192,21632,1,0,0:0:0:0:
64,192,21768,128,0,21903:0:0:0:0:
192,192,21903,1,0,0:0:0:0:
448,192,21903,1,0,0:0:0:0:
64,192,22038,128,0,22173:0:0:0:0:
192,192,22173,1,0,0:0:0:0:
64,192,22308,128,0,22443:0:0:0:0:
320,192,22443,1,0,0:0:0:0:
448,192,22443,1,0,0:0:0:0:
64,192,22579,128,0,22714:0:0:0:0:
320,192,22579,1,0,0:0:0:0:
192,192,22714,1,0,0:0:0:0:
448,192,22849,128,0,22984:0:0:0:0:
320,192,22984,1,0,0:0:0:0:
64,192,22984,1,0,0:0:0:0:
448,192,23119,128,0,23255:0:0:0:0:
64,192,23255,1,0,0:0:0:0:
448,192,23390,128,0,23525:0:0:0:0:
192,192,23525,1,0,0:0:0:0:
320,192,23525,1,0,0:0:0:0:
448,192,23660,128,0,23795:0:0:0:0:
320,192,23795,1,0,0:0:0:0:
192,192,23930,128,0,24066:0:0:0:0:
64,192,24066,1,0,0:0:0:0:
448,192,24066,1,0,0:0:0:0:
192,192,24201,128,0,24336:0:0:0:0:
448,192,24336,1,0,0:0:0:0:
192,192,24471,128,0,24606:0:0:0:0:
64,192,24606,1,0,0:0:0:0:
320,192,24606,1,0,0:0:0:0:
192,192,24741,128,0,24877:0:0:0:0:
64,192,24877,1,0,0:0:0:0:
320,192,25012,128,0,25147:0:0:0:0:
192,192,25147,1,0,0:0:0:0:
448,192,25147,1,0,0:0:0:0:
320,192,25282,128,0,25417:0:0:0:0:
192,192,25417,1,0,0:0:0:0:
320,192,25552,128,0,25688:0:0:0:0:
64,192,25688,1,0,0:0:0:0:
448,192,25688,1,0,0:0:0:0:
320,192,25823,128,0,25958:0:0:0:0:
448,192,25958,1,0,0:0:0:0:
64,192,26093,128,0,26228:0:0:0:0:
192,192,26228,1,0,0:0:0:0:
320,192,26228,1,0,0:0:0:0:
64,192,26363,128,0,26499:0:0:0:0:
320,192,26499,1,0,0:0:0:0:
64,192,26634,128,0,26769:0:0:0:0:
320,192,26634,1,0,0:0:0:0:
192,192,26769,1,0,0:0:0:0:
448,192,26769,1,0,0:0:0:0:
64,192,26904,128,0,27039:0:0:0:0:
448,192,26904,1,0,0:0:0:0:
192,192,27039,1,0,0:0:0:0:
192,192,27174,1,0,0:0:0:0:
64,192,27310,1,0,0:0:0:0:
320,192,27310,1,0,0:0:0:0:
320,192,27445,1,0,0:0:0:0:
64,192,27580,1,0,0:0:0:0:
64,192,27715,1,0,0:0:0:0:
192,192,27850,1,0,0:0:0:0:
448,192,27850,1,0,0:0:0:0:
192,192,27985,1,0,0:0:0:0:
320,192,28121,1,0,0:0:0:0:
64,192,28188,1,0,0:0:0:0:
320,192,28256,1,0,0:0:0:0:
192,192,28323,1,0,0:0:0:0:
448,192,28391,1,0,0:0:0:0:
192,192,28458,1,0,0:0:0:0:
64,192,28526,1,0,0:0:0:0:
320,192,28594,1,0,0:0:0:0:
64,192,28661,1,0,0:0:0:0:
448,192,28729,1,0,0:0:0:0:
192,192,28796,1,0,0:0:0:0:
448,192,28864,1,0,0:0:0:0:
320,192,28932,1,0,0:0:0:0:
64,192,28999,1,0,0:0:0:0:
320,192,29067,1,0,0:0:0:0:
192,192,29134,1,0,0:0:0:0:
64,192,29202,1,0,0:0:0:0:
320,192,29270,1,0,0:0:0:0:
192,192,29337,1,0,0:0:0:0:
448,192,29405,1,0,0:0:0:0:
320,192,29472,1,0,0:0:0:0:
192,192,29540,1,0,0:0:0:0:
320,192,29607,1,0,0:0:0:0:
64,192,29675,1,0,0:0:0:0:
448,192,29743,1,0,0:0:0:0:
192,192,29810,1,0,0:0:0:0:
448,192,29878,1,0,0:0:0:0:
64,192,29945,1,0,0:0:0:0:
320,192,30013,1,0,0:0:0:0:
192,192,30081,1,0,0:0:0:0:
448,192,30148,1,0,0:0:0:0:
64,192,30216,1,0,0:0:0:0:
192,192,30283,1,0,0:0:0:0:
320,192,30351,1,0,0:0:0:0:
192,192,30418,1,0,0:0:0:0:
448,192,30486,1,0,0:0:0:0:
64,192,30554,1,0,0:0:0:0:
320,192,30621,1,0,0:0:0:0:
64,192,30689,1,0,0:0:0:0:
192,192,30756,1,0,0:0:0:0:
448,192,30824,1,0,0:0:0:0:
64,192,30892,1,0,0:0:0:0:
448,192,30959,1,0,0:0:0:0:
192,192,31027,1,0,0:0:0:0:
320,192,31094,1,0,0:0:0:0:
64,192,31162,1,0,0:0:0:0:
320,192,31229,1,0,0:0:0:0:
448,192,31297,1,0,0:0:0:0:
192,192,31365,1,0,0:0:0:0:
64,192,31432,1,0,0:0:0:0:
320,192,31500,1,0,0:0:0:0:
448,192,31567,1,0,0:0:0:0:
192,192,31635,1,0,0:0:0:0:
320,192,31703,1,0,0:0:0:0:
192,192,31770,1,0,0:0:0:0:
64,192,31838,1,0,0:0:0:0:
448,192,31905,1,0,0:0:0:0:
320,192,31973,1,0,0:0:0:0:
448,192,32040,1,0,0:0:0:0:
192,192,32108,1,0,0:0:0:0:
64,192,32176,1,0,0:0:0:0:
448,192,32243,1,0,0:0:0:0:
64,192,32311,1,0,0:0:0:0:
192,192,32378,1,0,0:0:0:0:
320,192,32446,1,0,0:0:0:0:
64,192,32514,1,0,0:0:0:0:
320,192,32581,1,0,0:0:0:0:
448,192,32649,1,0,0:0:0:0:
192,192,32716,1,0,0:0:0:0:
320,192,32784,1,0,0:0:0:0:
192,192,32851,1,0,0:0:0:0:
64,192,32919,1,0,0:0:0:0:
448,192,32987,1,0,0:0:0:0:
192,192,33054,1,0,0:0:0:0:
448,192,33122,1,0,0:0:0:0:
64,192,33189,1,0,0:0:0:0:
320,192,33257,1,0,0:0:0:0:
192,192,33325,1,0,0:0:0:0:
320,192,33392,1,0,0:0:0:0:
64,192,33460,1,0,0:0:0:0:
192,192,33527,1,0,0:0:0:0:
448,192,33595,1,0,0:0:0:0:
64,192,33662,1,0,0:0:0:0:
320,192,33730,1,0,0:0:0:0:
192,192,33798,1,0,0:0:0:0:
448,192,33865,1,0,0:0:0:0:
192,192,33933,1,0,0:0:0:0:
64,192,34000,1,0,0:0:0:0:
320,192,34068,1,0,0:0:0:0:
192,192,34136,1,0,0:0:0:0:
320,192,34203,1,0,0:0:0:0:
448,192,34271,1,0,0:0:0:0:
192,192,34338,1,0,0:0:0:0:
64,192,34406,1,0,0:0:0:0:
320,192,34473,1,0,0:0:0:0:
192,192,34541,1,0,0:0:0:0:
448,192,34609,1,0,0:0:0:0:
64,192,34676,1,0,0:0:0:0:
448,192,34744,1,0,0:0:0:0:
320,192,34811,1,0,0:0:0:0:
192,192,34879,1,0,0:0:0:0:
448,192,34947,1,0,0:0:0:0:
192,192,35014,1,0,0:0:0:0:
320,192,35082,1,0,0:0:0:0:
64,192,35149,1,0,0:0:0:0:
448,192,35217,1,0,0:0:0:0:
64,192,35285,1,0,0:0:0:0:
192,192,35352,1,0,0:0:0:0:
320,192,35420,1,0,0:0:0:0:
64,192,35487,1,0,0:0:0:0:
320,192,35555,1,0,0:0:0:0:
448,192,35622,1,0,0:0:0:0:
192,192,35690,1,0,0:0:0:0:
320,192,35758,1,0,0:0:0:0:
64,192,35825,1,0,0:0:0:0:
448,192,35893,1,0,0:0:0:0:
192,192,35960,1,0,0:0:0:0:
320,192,36028,1,0,0:0:0:0:
192,192,36096,1,0,0:0:0:0:
64,192,36163,1,0,0:0:0:0:
448,192,36231,1,0,0:0:0:0:
192,192,36298,1,0,0:0:0:0:
448,192,36366,1,0,0:0:0:0:
64,192,36433,1,0,0:0:0:0:
192,192,36501,1,0,0:0:0:0:
320,192,36569,1,0,0:0:0:0:
192,192,36636,1,0,0:0:0:0:
448,192,36704,1,0,0:0:0:0:
64,192,36771,1,0,0:0:0:0:
320,192,36839,1,0,0:0:0:0:
192,192,36907,1,0,0:0:0:0:
448,192,36974,1,0,0:0:0:0:
64,192,37042,1,0,0:0:0:0:
320,192,37109,1,0,0:0:0:0:
64,192,37177,1,0,0:0:0:0:
192,192,37244,1,0,0:0:0:0:
320,192,37312,1,0,0:0:0:0:
64,192,37380,1,0,0:0:0:0:
320,192,37447,1,0,0:0:0:0:
448,192,37515,1,0,0:0:0:0:
192,192,37582,1,0,0:0:0:0:
320,192,37650,1,0,0:0:0:0:
192,192,37718,1,0,0:0:0:0:
448,192,37785,1,0,0:0:0:0:
192,192,37853,1,0,0:0:0:0:
320,192,37920,1,0,0:0:0:0:
64,192,37988,1,0,0:0:0:0:
192,192,38055,1,0,0:0:0:0:
448,192,38123,1,0,0:0:0:0:
64,192,38191,1,0,0:0:0:0:
448,192,38258,1,0,0:0:0:0:
320,192,38326,1,0,0:0:0:0:
64,192,38393,1,0,0:0:0:0:
448,192,38461,1,0,0:0:0:0:
64,192,38529,1,0,0:0:0:0:
192,192,38596,1,0,0:0:0:0:
320,192,38664,1,0,0:0:0:0:
64,192,38731,1,0,0:0:0:0:
448,192,38799,1,0,0:0:0:0:
320,192,38866,1,0,0:0:0:0:
192,192,38934,1,0,0:0:0:0:
448,192,39002,1,0,0:0:0:0:
192,192,39069,1,0,0:0:0:0:
64,192,39137,1,0,0:0:0:0:
320,192,39204,1,0,0:0:0:0:
192,192,39272,1,0,0:0:0:0:
320,192,39340,1,0,0:0:0:0:
448,192,39407,1,0,0:0:0:0:
64,192,39475,1,0,0:0:0:0:
320,192,39542,1,0,0:0:0:0:
64,192,39610,1,0,0:0:0:0:
448,192,39677,1,0,0:0:0:0:
320,192,39745,1,0,0:0:0:0:
192,192,39813,1,0,0:0:0:0:
320,192,39880,1,0,0:0:0:0:
64,192,39948,1,0,0:0:0:0:
192,192,40015,1,0,0:0:0:0:
448,192,40083,1,0,0:0:0:0:
320,192,40151,1,0,0:0:0:0:
64,192,40218,1,0,0:0:0:0:
448,192,40286,1,0,0:0:0:0:
192,192,40353,1,0,0:0:0:0:
448,192,40421,1,0,0:0:0:0:
64,192,40489,1,0,0:0:0:0:
192,192,40556,1,0,0:0:0:0:
448,192,40624,1,0,0:0:0:0:
192,192,40691,1,0,0:0:0:0:
64,192,40759,1,0,0:0:0:0:
320,192,40826,1,0,0:0:0:0:
448,192,40894,1,0,0:0:0:0:
192,192,40962,1,0,0:0:0:0:
320,192,41029,1,0,0:0:0:0:
64,192,41097,1,0,0:0:0:0:
192,192,41164,1,0,0:0:0:0:
320,192,41232,1,0,0:0:0:0:
64,192,41300,1,0,0:0:0:0:
448,192,41367,1,0,0:0:0:0:
192,192,41435,1,0,0:0:0:0:
448,192,41502,1,0,0:0:0:0:
64,192,41570,1,0,0:0:0:0:
192,192,41637,1,0,0:0:0:0:
320,192,41705,1,0,0:0:0:0:
192,192,41773,1,0,0:0:0:0:
448,192,41840,1,0,0:0:0:0:
64,192,41908,1,0,0:0:0:0:
320,192,41975,1,0,0:0:0:0:
64,192,42043,1,0,0:0:0:0:
448,192,42111,1,0,0:0:0:0:
64,192,42178,1,0,0:0:0:0:
192,192,42246,1,0,0:0:0:0:
320,192,42313,1,0,0:0:0:0:
64,192,42381,1,0,0:0:0:0:
192,192,42448,1,0,0:0:0:0:
448,192,42516,1,0,0:0:0:0:
320,192,42584,1,0,0:0:0:0:
192,192,42651,1,0,0:0:0:0:
448,192,42719,1,0,0:0:0:0:
320,192,42786,1,0,0:0:0:0:
64,192,42854,1,0,0:0:0:0:
192,192,42922,1,0,0:0:0:0:
320,192,42989,1,0,0:0:0:0:
448,192,43057,1,0,0:0:0:0:
192,192,43124,1,0,0:0:0:0:
64,192,43192,1,0,0:0:0:0:
320,192,43259,1,0,0:0:0:0:
192,192,43327,1,0,0:0:0:0:
448,192,43395,1,0,0:0:0:0:
320,192,43462,1,0,0:0:0:0:
64,192,43530,1,0,0:0:0:0:
448,192,43597,1,0,0:0:0:0:
64,192,43665,1,0,0:0:0:0:
192,192,43733,1,0,0:0:0:0:
320,192,43800,1,0,0:0:0:0:
64,192,43868,1,0,0:0:0:0:
320,192,43935,1,0,0:0:0:0:
448,192,44003,1,0,0:0:0:0:
192,192,44070,1,0,0:0:0:0:
320,192,44138,1,0,0:0:0:0:
192,192,44206,1,0,0:0:0:0:
64,192,44273,1,0,0:0:0:0:
448,192,44341,1,0,0:0:0:0:
320,192,44408,1,0,0:0:0:0:
64,192,44476,1,0,0:0:0:0:
192,192,44544,1,0,0:0:0:0:
448,192,44611,1,0,0:0:0:0:
64,192,44679,1,0,0:0:0:0:
320,192,44746,1,0,0:0:0:0:
448,192,44814,1,0,0:0:0:0:
192,192,44881,1,0,0:0:0:0:
320,192,44949,1,0,0:0:0:0:
64,192,45017,1,0,0:0:0:0:
192,192,45084,1,0,0:0:0:0:
448,192,45152,1,0,0:0:0:0:
64,192,45219,1,0,0:0:0:0:
320,192,45287,1,0,0:0:0:0:
192,192,45355,1,0,0:0:0:0:
448,192,45422,1,0,0:0:0:0:
320,192,45490,1,0,0:0:0:0:
64,192,45557,1,0,0:0:0:0:
448,192,45625,1,0,0:0:0:0:
192,192,45692,1,0,0:0:0:0:
64,192,45760,1,0,0:0:0:0:
320,192,45828,1,0,0:0:0:0:
192,192,45895,1,0,0:0:0:0:
448,192,45963,1,0,0:0:0:0:
320,192,46030,1,0,0:0:0:0:
64,192,46098,1,0,0:0:0:0:
192,192,46166,1,0,0:0:0:0:
448,192,46233,1,0,0:0:0:0:
64,192,46301,1,0,0:0:0:0:
448,192,46368,1,0,0:0:0:0:
192,192,46436,1,0,0:0:0:0:
448,192,46504,1,0,0:0:0:0:
320,192,46639,128,0,46774:0:0:0:0:
448,192,46774,1,0,0:0:0:0:
192,192,46774,1,0,0:0:0:0:
320,192,46909,128,0,47044:0:0:0:0:
192,192,47044,1,0,0:0:0:0:
320,192,47179,128,0,47315:0:0:0:0:
64,192,47315,1,0,0:0:0:0:
448,192,47315,1,0,0:0:0:0:
320,192,47450,128,0,47585:0:0:0:0:
64,192,47585,1,0,0:0:0:0:
448,192,47720,128,0,47855:0:0:0:0:
192,192,47855,1,0,0:0:0:0:
320,192,47855,1,0,0:0:0:0:
448,192,47990,128,0,48126:0:0:0:0:
192,192,48126,1,0,0:0:0:0:
448,192,48261,128,0,48396:0:0:0:0:
64,192,48396,1,0,0:0:0:0:
320,192,48396,1,0,0:0:0:0:
448,192,48531,128,0,48666:0:0:0:0:
320,192,48666,1,0,0:0:0:0:
192,192,48801,128,0,48937:0:0:0:0:
448,192,48937,1,0,0:0:0:0:
64,192,48937,1,0,0:0:0:0:
192,192,49072,128,0,49207:0:0:0:0:
448,192,49207,1,0,0:0:0:0:
192,192,49342,128,0,49477:0:0:0:0:
64,192,49477,1,0,0:0:0:0:
320,192,49477,1,0,0:0:0:0:
192,192,49612,128,0,49748:0:0:0:0:
320,192,49748,1,0,0:0:0:0:
64,192,49883,128,0,50018:0:0:0:0:
192,192,50018,1,0,0:0:0:0:
448,192,50018,1,0,0:0:0:0:
64,192,50153,128,0,50288:0:0:0:0:
192,192,50288,1,0,0:0:0:0:
64,192,50423,128,0,50559:0:0:0:0:
320,192,50559,1,0,0:0:0:0:
448,192,50559,1,0,0:0:0:0:
64,192,50694,128,0,50829:0:0:0:0:
448,192,50694,1,0,0:0:0:0:
192,192,50829,1,0,0:0:0:0:
448,192,50964,128,0,51099:0:0:0:0:
320,192,51099,1,0,0:0:0:0:
64,192,51099,1,0,0:0:0:0:
448,192,51234,128,0,51370:0:0:0:0:
64,192,51370,1,0,0:0:0:0:
448,192,51505,128,0,51640:0:0:0:0:
192,192,51640,1,0,0:0:0:0:
320,192,51640,1,0,0:0:0:0:
448,192,51775,128,0,51910:0:0:0:0:
320,192,51910,1,0,0:0:0:0:
192,192,52045,128,0,52181:0:0:0:0:
64,192,52181,1,0,0:0:0:0:
448,192,52181,1,0,0:0:0:0:
192,192,52316,128,0,52451:0:0:0:0:
64,192,52451,1,0,0:0:0:0:
192,192,52586,128,0,52721:0:0:0:0:
320,192,52721,1,0,0:0:0:0:
448,192,52721,1,0,0:0:0:0:
192,192,52856,128,0,52992:0:0:0:0:
448,192,52992,1,0,0:0:0:0:
320,192,53127,128,0,53262:0:0:0:0:
192,192,53262,1,0,0:0:0:0:
64,192,53262,1,0,0:0:0:0:
320,192,53397,128,0,53532:0:0:0:0:
64,192,53532,1,0,0:0:0:0:
320,192,53667,128,0,53803:0:0:0:0:
192,192,53803,1,0,0:0:0:0:
448,192,53803,1,0,0:0:0:0:
320,192,53938,128,0,54073:0:0:0:0:
448,192,54073,1,0,0:0:0:0:
64,192,54208,128,0,54343:0:0:0:0:
192,192,54343,1,0,0:0:0:0:
320,192,54343,1,0,0:0:0:0:
64,192,54478,128,0,54614:0:0:0:0:
320,192,54614,1,0,0:0:0:0:
64,192,54749,128,0,54884:0:0:0:0:
320,192,54816,1,0,0:0:0:0:
192,192,54884,1,0,0:0:0:0:
448,192,54884,1,0,0:0:0:0:
64,192,55019,128,0,55154:0:0:0:0:
448,192,55019,1,0,0:0:0:0:
320,192,55154,1,0,0:0:0:0:
192,192,55289,128,0,55425:0:0:0:0:
64,192,55425,1,0,0:0:0:0:
448,192,55425,1,0,0:0:0:0:
192,192,55560,128,0,55695:0:0:0:0:
448,192,55695,1,0,0:0:0:0:
192,192,55830,128,0,55965:0:0:0:0:
320,192,55965,1,0,0:0:0:0:
64,192,55965,1,0,0:0:0:0:
192,192,56100,128,0,56236:0:0:0:0:
320,192,56236,1,0,0:0:0:0:
64,192,56371,128,0,56506:0:0:0:0:
448,192,56506,1,0,0:0:0:0:
192,192,56506,1,0,0:0:0:0:
64,192,56641,128,0,56776:0:0:0:0:
448,192,56776,1,0,0:0:0:0:
64,192,56911,128,0,57047:0:0:0:0:
320,192,57047,1,0,0:0:0:0:
192,192,57047,1,0,0:0:0:0:
64,192,57182,128,0,57317:0:0:0:0:
192,192,57317,1,0,0:0:0:0:
320,192,57452,128,0,57587:0:0:0:0:
64,192,57587,1,0,0:0:0:0:
448,192,57587,1,0,0:0:0:0:
320,192,57723,128,0,57858:0:0:0:0:
64,192,57858,1,0,0:0:0:0:
320,192,57993,128,0,58128:0:0:0:0:
448,192,58128,1,0,0:0:0:0:
192,192,58128,1,0,0:0:0:0:
320,192,58263,128,0,58398:0:0:0:0:
192,192,58398,1,0,0:0:0:0:
448,192,58534,128,0,58669:0:0:0:0:
320,192,58669,1,0,0:0:0:0:
64,192,58669,1,0,0:0:0:0:
448,192,58804,128,0,58939:0:0:0:0:
320,192,58939,1,0,0:0:0:0:
448,192,59074,128,0,59209:0:0:0:0:
192,192,59209,1,0,0:0:0:0:
64,192,59209,1,0,0:0:0:0:
448,192,59345,128,0,59480:0:0:0:0:
192,192,59345,1,0,0:0:0:0:
320,192,59480,1,0,0:0:0:0:
64,192,59615,128,0,59750:0:0:0:0:
192,192,59750,1,0,0:0:0:0:
448,192,59750,1,0,0:0:0:0:
64,192,59885,128,0,60020:0:0:0:0:
448,192,60020,1,0,0:0:0:0:
64,192,60156,128,0,60291:0:0:0:0:
320,192,60291,1,0,0:0:0:0:
192,192,60291,1,0,0:0:0:0:
64,192,60426,128,0,60561:0:0:0:0:
192,192,60561,1,0,0:0:0:0:
320,192,60696,128,0,60831:0:0:0:0:
448,192,60831,1,0,0:0:0:0:
64,192,60831,1,0,0:0:0:0:
320,192,60967,128,0,61102:0:0:0:0:
64,192,61102,1,0,0:0:0:0:
320,192,61237,128,0,61372:0:0:0:0:
448,192,61372,1,0,0:0:0:0:
192,192,61372,1,0,0:0:0:0:
320,192,61507,128,0,61642:0:0:0:0:
448,192,61642,1,0,0:0:0:0:
192,192,61778,128,0,61913:0:0:0:0:
320,192,61913,1,0,0:0:0:0:
64,192,61913,1,0,0:0:0:0:
192,192,62048,128,0,62183:0:0:0:0:
320,192,62183,1,0,0:0:0:0:
192,192,62318,128,0,62453:0:0:0:0:
448,192,62453,1,0,0:0:0:0:
64,192,62453,1,0,0:0:0:0:
192,192,62589,128,0,62724:0:0:0:0:
64,192,62724,1,0,0:0:0:0:
448,192,62859,128,0,62994:0:0:0:0:
320,192,62994,1,0,0:0:0:0:
192,192,62994,1,0,0:0:0:0:
448,192,63129,128,0,63264:0:0:0:0:
192,192,63264,1,0,0:0:0:0:
448,192,63400,128,0,63535:0:0:0:0:
192,192,63400,1,0,0:0:0:0:
320,192,63535,1,0,0:0:0:0:
64,192,63535,1,0,0:0:0:0:
448,192,63670,128,0,63805:0:0:0:0:
64,192,63670,1,0,0:0:0:0:
320,192,63805,1,0,0:0:0:0:
320,192,63940,1,0,0:0:0:0:
448,192,64075,1,0,0:0:0:0:
192,192,64075,1,0,0:0:0:0:
192,192,64211,1,0,0:0:0:0:
448,192,64346,1,0,0:0:0:0:
448,192,64481,1,0,0:0:0:0:
320,192,64616,1,0,0:0:0:0:
64,192,64616,1,0,0:0:0:0:
320,192,64751,1,0,0:0:0:0:
192,192,64886,5,0,0:0:0:0:
448,192,64954,1,0,0:0:0:0:
192,192,65022,1,0,0:0:0:0:
320,192,65089,1,0,0:0:0:0:
64,192,65157,1,0,0:0:0:0:
320,192,65224,1,0,0:0:0:0:
448,192,65292,1,0,0:0:0:0:
192,192,65360,1,0,0:0:0:0:
448,192,65427,1,0,0:0:0:0:
64,192,65495,1,0,0:0:0:0:
320,192,65562,1,0,0:0:0:0:
64,192,65630,1,0,0:0:0:0:
192,192,65697,1,0,0:0:0:0:
448,192,65765,1,0,0:0:0:0:
192,192,65833,1,0,0:0:0:0:
320,192,65900,1,0,0:0:0:0:
192,192,65968,5,0,0:0:0:0:
64,192,66035,1,0,0:0:0:0:
448,192,66103,1,0,0:0:0:0:
320,192,66171,1,0,0:0:0:0:
192,192,66238,1,0,0:0:0:0:
448,192,66306,1,0,0:0:0:0:
192,192,66373,1,0,0:0:0:0:
320,192,66441,1,0,0:0:0:0:
64,192,66508,1,0,0:0:0:0:
448,192,66576,1,0,0:0:0:0:
64,192,66644,1,0,0:0:0:0:
192,192,66711,1,0,0:0:0:0:
320,192,66779,1,0,0:0:0:0:
448,192,66846,1,0,0:0:0:0:
192,192,66914,1,0,0:0:0:0:
64,192,66982,1,0,0:0:0:0:
320,192,67049,1,0,0:0:0:0:
192,192,67117,1,0,0:0:0:0:
320,192,67184,1,0,0:0:0:0:
64,192,67252,1,0,0:0:0:0:
448,192,67319,1,0,0:0:0:0:
192,192,67387,1,0,0:0:0:0:
448,192,67455,1,0,0:0:0:0:
320,192,67522,1,0,0:0:0:0:
64,192,67590,1,0,0:0:0:0:
448,192,67657,1,0,0:0:0:0:
64,192,67725,1,0,0:0:0:0:
320,192,67793,1,0,0:0:0:0:
192,192,67860,1,0,0:0:0:0:
448,192,67928,1,0,0:0:0:0:
192,192,67995,1,0,0:0:0:0:
64,192,68063,1,0,0:0:0:0:
320,192,68130,1,0,0:0:0:0:
192,192,68198,1,0,0:0:0:0:
64,192,68266,1,0,0:0:0:0:
448,192,68333,1,0,0:0:0:0:
320,192,68401,1,0,0:0:0:0:
64,192,68468,1,0,0:0:0:0:
320,192,68536,1,0,0:0:0:0:
192,192,68604,1,0,0:0:0:0:
64,192,68671,1,0,0:0:0:0:
320,192,68739,1,0,0:0:0:0:
64,192,68806,1,0,0:0:0:0:
192,192,68874,1,0,0:0:0:0:
448,192,68941,1,0,0:0:0:0:
320,192,69009,1,0,0:0:0:0:
448,192,69077,1,0,0:0:0:0:
64,192,69144,1,0,0:0:0:0:
192,192,69212,1,0,0:0:0:0:
448,192,69279,1,0,0:0:0:0:
192,192,69347,1,0,0:0:0:0:
320,192,69415,1,0,0:0:0:0:
448,192,69482,1,0,0:0:0:0:
64,192,69550,1,0,0:0:0:0:
448,192,69617,1,0,0:0:0:0:
192,192,69685,1,0,0:0:0:0:
64,192,69753,1,0,0:0:0:0:
320,192,69820,1,0,0:0:0:0:
64,192,69888,1,0,0:0:0:0:
448,192,69955,1,0,0:0:0:0:
192,192,70023,1,0,0:0:0:0:
320,192,70090,1,0,0:0:0:0:
192,192,70158,1,0,0:0:0:0:
448,192,70226,1,0,0:0:0:0:
192,192,70293,1,0,0:0:0:0:
320,192,70361,1,0,0:0:0:0:
64,192,70428,1,0,0:0:0:0:
192,192,70496,1,0,0:0:0:0:
448,192,70564,1,0,0:0:0:0:
64,192,70631,1,0,0:0:0:0:
448,192,70699,1,0,0:0:0:0:
320,192,70766,1,0,0:0:0:0:
192,192,70834,1,0,0:0:0:0:
448,192,70901,1,0,0:0:0:0:
192,192,70969,1,0,0:0:0:0:
64,192,71037,1,0,0:0:0:0:
320,192,71104,1,0,0:0:0:0:
448,192,71172,1,0,0:0:0:0:
192,192,71239,1,0,0:0:0:0:
320,192,71307,1,0,0:0:0:0:
64,192,71375,1,0,0:0:0:0:
448,192,71442,1,0,0:0:0:0:
64,192,71510,1,0,0:0:0:0:
192,192,71577,1,0,0:0:0:0:
320,192,71645,1,0,0:0:0:0:
64,192,71712,1,0,0:0:0:0:
320,192,71780,1,0,0:0:0:0:
192,192,71848,1,0,0:0:0:0:
448,192,71915,1,0,0:0:0:0:
64,192,71983,1,0,0:0:0:0:
448,192,72050,1,0,0:0:0:0:
320,192,72118,1,0,0:0:0:0:
192,192,72186,1,0,0:0:0:0:
448,192,72253,1,0,0:0:0:0:
192,192,72321,1,0,0:0:0:0:
64,192,72388,1,0,0:0:0:0:
320,192,72456,1,0,0:0:0:0:
192,192,72523,1,0,0:0:0:0:
448,192,72591,1,0,0:0:0:0:
64,192,72659,1,0,0:0:0:0:
320,192,72726,1,0,0:0:0:0:
192,192,72794,1,0,0:0:0:0:
320,192,72861,1,0,0:0:0:0:
448,192,72929,1,0,0:0:0:0:
64,192,72997,1,0,0:0:0:0:
192,192,73064,1,0,0:0:0:0:
64,192,73132,1,0,0:0:0:0:
448,192,73199,1,0,0:0:0:0:
320,192,73267,1,0,0:0:0:0:
64,192,73334,1,0,0:0:0:0:
320,192,73402,1,0,0:0:0:0:
448,192,73470,1,0,0:0:0:0:
192,192,73537,1,0,0:0:0:0:
64,192,73605,1,0,0:0:0:0:
320,192,73672,1,0,0:0:0:0:
192,192,73740,1,0,0:0:0:0:
448,192,73808,1,0,0:0:0:0:
64,192,73875,1,0,0:0:0:0:
448,192,73943,1,0,0:0:0:0:
320,192,74010,1,0,0:0:0:0:
192,192,74078,1,0,0:0:0:0:
448,192,74145,1,0,0:0:0:0:
192,192,74213,1,0,0:0:0:0:
320,192,74281,1,0,0:0:0:0:
64,192,74348,1,0,0:0:0:0:
320,192,74416,1,0,0:0:0:0:
192,192,74483,1,0,0:0:0:0:
320,192,74551,1,0,0:0:0:0:
64,192,74619,1,0,0:0:0:0:
192,192,74686,1,0,0:0:0:0:
448,192,74754,1,0,0:0:0:0:
320,192,74821,1,0,0:0:0:0:
64,192,74889,1,0,0:0:0:0:
448,192,74957,1,0,0:0:0:0:
64,192,75024,1,0,0:0:0:0:
192,192,75092,1,0,0:0:0:0:
448,192,75159,1,0,0:0:0:0:
64,192,75227,1,0,0:0:0:0:
448,192,75294,1,0,0:0:0:0:
320,192,75362,1,0,0:0:0:0:
192,192,75430,1,0,0:0:0:0:
448,192,75497,1,0,0:0:0:0:
64,192,75565,1,0,0:0:0:0:
192,192,75632,1,0,0:0:0:0:
320,192,75700,1,0,0:0:0:0:
64,192,75768,1,0,0:0:0:0:
320,192,75835,1,0,0:0:0:0:
448,192,75903,1,0,0:0:0:0:
192,192,75970,1,0,0:0:0:0:
320,192,76038,1,0,0:0:0:0:
192,192,76105,1,0,0:0:0:0:
64,192,76173,1,0,0:0:0:0:
448,192,76241,1,0,0:0:0:0:
192,192,76308,1,0,0:0:0:0:
448,192,76376,1,0,0:0:0:0:
64,192,76443,1,0,0:0:0:0:
192,192,76511,1,0,0:0:0:0:
320,192,76579,1,0,0:0:0:0:
192,192,76646,1,0,0:0:0:0:
448,192,76714,1,0,0:0:0:0:
320,192,76781,1,0,0:0:0:0:
64,192,76849,1,0,0:0:0:0:
192,192,76916,1,0,0:0:0:0:
448,192,76984,1,0,0:0:0:0:
64,192,77052,1,0,0:0:0:0:
320,192,77119,1,0,0:0:0:0:
64,192,77187,1,0,0:0:0:0:
448,192,77254,1,0,0:0:0:0:
320,192,77322,1,0,0:0:0:0:
64,192,77390,1,0,0:0:0:0:
320,192,77457,1,0,0:0:0:0:
448,192,77525,1,0,0:0:0:0:
192,192,77592,1,0,0:0:0:0:
64,192,77660,1,0,0:0:0:0:
320,192,77727,1,0,0:0:0:0:
192,192,77795,1,0,0:0:0:0:
448,192,77863,1,0,0:0:0:0:
320,192,77930,1,0,0:0:0:0:
192,192,77998,1,0,0:0:0:0:
448,192,78065,1,0,0:0:0:0:
64,192,78133,1,0,0:0:0:0:
320,192,78201,1,0,0:0:0:0:
64,192,78268,1,0,0:0:0:0:
448,192,78336,1,0,0:0:0:0:
320,192,78403,1,0,0:0:0:0:
192,192,78471,1,0,0:0:0:0:
320,192,78538,1,0,0:0:0:0:
64,192,78606,1,0,0:0:0:0:
448,192,78674,1,0,0:0:0:0:
192,192,78741,1,0,0:0:0:0:
448,192,78809,1,0,0:0:0:0:
64,192,78876,1,0,0:0:0:0:
448,192,78944,1,0,0:0:0:0:
320,192,79012,1,0,0:0:0:0:
192,192,79079,1,0,0:0:0:0:
448,192,79147,1,0,0:0:0:0:
320,192,79214,1,0,0:0:0:0:
64,192,79282,1,0,0:0:0:0:
192,192,79349,1,0,0:0:0:0:
320,192,79417,1,0,0:0:0:0:
64,192,79485,1,0,0:0:0:0:
192,192,79552,1,0,0:0:0:0:
448,192,79620,1,0,0:0:0:0:
320,192,79687,1,0,0:0:0:0:
192,192,79755,1,0,0:0:0:0:
64,192,79823,1,0,0:0:0:0:
320,192,79890,1,0,0:0:0:0:
448,192,79958,1,0,0:0:0:0:
192,192,80025,1,0,0:0:0:0:
320,192,80093,1,0,0:0:0:0:
64,192,80160,1,0,0:0:0:0:
192,192,80228,1,0,0:0:0:0:
448,192,80296,1,0,0:0:0:0:
64,192,80363,1,0,0:0:0:0:
448,192,80431,1,0,0:0:0:0:
320,192,80498,1,0,0:0:0:0:
192,192,80566,1,0,0:0:0:0:
448,192,80634,1,0,0:0:0:0:
192,192,80701,1,0,0:0:0:0:
64,192,80769,1,0,0:0:0:0:
320,192,80836,1,0,0:0:0:0:
192,192,80904,1,0,0:0:0:0:
320,192,80972,1,0,0:0:0:0:
448,192,81039,1,0,0:0:0:0:
64,192,81107,1,0,0:0:0:0:
192,192,81174,1,0,0:0:0:0:
448,192,81242,1,0,0:0:0:0:
320,192,81309,1,0,0:0:0:0:
64,192,81377,1,0,0:0:0:0:
448,192,81445,1,0,0:0:0:0:
192,192,81512,1,0,0:0:0:0:
64,192,81580,1,0,0:0:0:0:
320,192,81647,1,0,0:0:0:0:
192,192,81715,1,0,0:0:0:0:
448,192,81783,1,0,0:0:0:0:
320,192,81850,1,0,0:0:0:0:
64,192,81918,1,0,0:0:0:0:
448,192,81985,1,0,0:0:0:0:
192,192,82053,1,0,0:0:0:0:
320,192,82120,1,0,0:0:0:0:
64,192,82188,1,0,0:0:0:0:
192,192,82256,1,0,0:0:0:0:
448,192,82323,1,0,0:0:0:0:
64,192,82391,1,0,0:0:0:0:
320,192,82458,1,0,0:0:0:0:
448,192,82526,1,0,0:0:0:0:
192,192,82594,1,0,0:0:0:0:
320,192,82661,1,0,0:0:0:0:
64,192,82729,1,0,0:0:0:0:
192,192,82796,1,0,0:0:0:0:
448,192,82864,1,0,0:0:0:0:
320,192,82931,1,0,0:0:0:0:
64,192,82999,1,0,0:0:0:0:
448,192,83067,1,0,0:0:0:0:
64,192,83134,1,0,0:0:0:0:
192,192,83202,1,0,0:0:0:0:
320,192,83269,1,0,0:0:0:0:
320,192,83540,128,0,83675:0:0:0:0:
64,192,83540,1,0,0:0:0:0:
448,192,83675,128,0,83810:0:0:0:0:
64,192,83675,1,0,0:0:0:0:
192,192,83810,128,0,83945:0:0:0:0:
320,192,83945,128,0,84080:0:0:0:0:
64,192,83945,1,0,0:0:0:0:
64,192,84080,128,0,84216:0:0:0:0:
448,192,84080,1,0,0:0:0:0:
448,192,84351,128,0,84486:0:0:0:0:
192,192,84351,1,0,0:0:0:0:
320,192,84486,128,0,84621:0:0:0:0:
192,192,84486,1,0,0:0:0:0:
64,192,84621,128,0,84756:0:0:0:0:
448,192,84756,128,0,84891:0:0:0:0:
192,192,84756,1,0,0:0:0:0:
64,192,84891,128,0,85162:0:0:0:0:
320,192,84891,1,0,0:0:0:0:
448,192,85027,1,0,0:0:0:0:
192,192,85162,128,0,85297:0:0:0:0:
320,192,85162,1,0,0:0:0:0:
448,192,85297,128,0,85432:0:0:0:0:
64,192,85432,1,0,0:0:0:0:
448,192,85702,128,0,85838:0:0:0:0:
192,192,85702,1,0,0:0:0:0:
320,192,85838,128,0,85973:0:0:0:0:
192,192,85838,1,0,0:0:0:0:
64,192,85973,128,0,86108:0:0:0:0:
192,192,86108,128,0,86243:0:0:0:0:
320,192,86243,128,0,86378:0:0:0:0:
64,192,86243,1,0,0:0:0:0:
192,192,86378,128,0,86513:0:0:0:0:
448,192,86378,1,0,0:0:0:0:
64,192,86513,128,0,86649:0:0:0:0:
320,192,86513,1,0,0:0:0:0:
448,192,86649,1,0,0:0:0:0:
320,192,86784,128,0,86919:0:0:0:0:
448,192,86784,1,0,0:0:0:0:
192,192,86919,128,0,87054:0:0:0:0:
448,192,87054,128,0,87189:0:0:0:0:
64,192,87189,128,0,87324:0:0:0:0:
192,192,87189,1,0,0:0:0:0:
448,192,87324,1,0,0:0:0:0:
320,192,87460,128,0,87595:0:0:0:0:
64,192,87730,1,0,0:0:0:0:
192,192,87865,128,0,88000:0:0:0:0:
64,192,87865,1,0,0:0:0:0:
448,192,88000,128,0,88135:0:0:0:0:
320,192,88000,1,0,0:0:0:0:
192,192,88135,128,0,88271:0:0:0:0:
320,192,88271,128,0,88406:0:0:0:0:
64,192,88271,1,0,0:0:0:0:
64,192,88406,128,0,88541:0:0:0:0:
448,192,88406,1,0,0:0:0:0:
192,192,88676,128,0,88811:0:0:0:0:
448,192,88676,1,0,0:0:0:0:
448,192,88811,1,0,0:0:0:0:
192,192,88946,128,0,89082:0:0:0:0:
64,192,89082,128,0,89217:0:0:0:0:
320,192,89082,1,0,0:0:0:0:
448,192,89217,128,0,89487:0:0:0:0:
192,192,89217,1,0,0:0:0:0:
64,192,89352,1,0,0:0:0:0:
320,192,89487,128,0,89622:0:0:0:0:
64,192,89487,1,0,0:0:0:0:
192,192,89622,128,0,89757:0:0:0:0:
448,192,89622,1,0,0:0:0:0:
320,192,89757,1,0,0:0:0:0:
64,192,90028,128,0,90163:0:0:0:0:
448,192,90028,1,0,0:0:0:0:
320,192,90163,128,0,90298:0:0:0:0:
448,192,90298,128,0,90433:0:0:0:0:
64,192,90433,128,0,90568:0:0:0:0:
192,192,90433,1,0,0:0:0:0:
192,192,90568,128,0,90704:0:0:0:0:
320,192,90568,1,0,0:0:0:0:
448,192,90704,128,0,90839:0:0:0:0:
192,192,90839,128,0,90974:0:0:0:0:
64,192,90839,1,0,0:0:0:0:
64,192,91109,128,0,91244:0:0:0:0:
448,192,91109,1,0,0:0:0:0:
320,192,91244,128,0,91379:0:0:0:0:
448,192,91244,1,0,0:0:0:0:
192,192,91379,128,0,91515:0:0:0:0:
448,192,91515,128,0,91785:0:0:0:0:
64,192,91515,1,0,0:0:0:0:
192,192,91650,1,0,0:0:0:0:
64,192,91785,128,0,91920:0:0:0:0:
320,192,91920,1,0,0:0:0:0:
320,192,92055,1,0,0:0:0:0:
64,192,92191,1,0,0:0:0:0:
320,192,92258,1,0,0:0:0:0:
192,192,92326,1,0,0:0:0:0:
448,192,92326,1,0,0:0:0:0:
64,192,92461,1,0,0:0:0:0:
64,192,92551,1,0,0:0:0:0:
64,192,92641,1,0,0:0:0:0:
320,192,92731,1,0,0:0:0:0:
192,192,93002,1,0,0:0:0:0:
448,192,93137,128,0,93272:0:0:0:0:
320,192,93137,1,0,0:0:0:0:
64,192,93204,1,0,0:0:0:0:
192,192,93272,1,0,0:0:0:0:
448,192,93407,128,0,93542:0:0:0:0:
192,192,93407,1,0,0:0:0:0:
320,192,93475,1,0,0:0:0:0:
64,192,93542,1,0,0:0:0:0:
448,192,93677,128,0,93813:0:0:0:0:
64,192,93677,1,0,0:0:0:0:
192,192,93745,1,0,0:0:0:0:
320,192,93813,1,0,0:0:0:0:
448,192,93948,128,0,94083:0:0:0:0:
320,192,93948,1,0,0:0:0:0:
192,192,94015,1,0,0:0:0:0:
64,192,94083,1,0,0:0:0:0:
192,192,94218,128,0,94353:0:0:0:0:
64,192,94218,1,0,0:0:0:0:
320,192,94286,1,0,0:0:0:0:
448,192,94353,1,0,0:0:0:0:
192,192,94488,128,0,94624:0:0:0:0:
448,192,94488,1,0,0:0:0:0:
64,192,94556,1,0,0:0:0:0:
320,192,94624,1,0,0:0:0:0:
192,192,94759,128,0,94894:0:0:0:0:
320,192,94759,1,0,0:0:0:0:
448,192,94826,1,0,0:0:0:0:
64,192,94894,1,0,0:0:0:0:
192,192,95029,128,0,95164:0:0:0:0:
64,192,95029,1,0,0:0:0:0:
320,192,95097,1,0,0:0:0:0:
448,192,95164,1,0,0:0:0:0:
320,192,95299,128,0,95435:0:0:0:0:
448,192,95299,1,0,0:0:0:0:
64,192,95367,1,0,0:0:0:0:
192,192,95435,1,0,0:0:0:0:
320,192,95570,128,0,95705:0:0:0:0:
192,192,95570,1,0,0:0:0:0:
448,192,95637,1,0,0:0:0:0:
64,192,95705,1,0,0:0:0:0:
320,192,95840,128,0,95975:0:0:0:0:
64,192,95840,1,0,0:0:0:0:
192,192,95908,1,0,0:0:0:0:
448,192,95975,1,0,0:0:0:0:
320,192,96110,128,0,96246:0:0:0:0:
448,192,96110,1,0,0:0:0:0:
64,192,96178,1,0,0:0:0:0:
192,192,96246,1,0,0:0:0:0:
64,192,96381,128,0,96516:0:0:0:0:
192,192,96381,1,0,0:0:0:0:
448,192,96448,1,0,0:0:0:0:
320,192,96516,1,0,0:0:0:0:
64,192,96651,128,0,96786:0:0:0:0:
320,192,96651,1,0,0:0:0:0:
192,192,96719,1,0,0:0:0:0:
448,192,96786,1,0,0:0:0:0:
64,192,96921,128,0,97057:0:0:0:0:
448,192,96921,1,0,0:0:0:0:
192,192,96989,1,0,0:0:0:0:
320,192,97057,1,0,0:0:0:0:
64,192,97192,128,0,97327:0:0:0:0:
320,192,97192,1,0,0:0:0:0:
448,192,97259,1,0,0:0:0:0:
320,192,97327,1,0,0:0:0:0:
448,192,97462,128,0,97597:0:0:0:0:
192,192,97462,1,0,0:0:0:0:
64,192,97530,1,0,0:0:0:0:
320,192,97597,1,0,0:0:0:0:
448,192,97732,128,0,97868:0:0:0:0:
320,192,97732,1,0,0:0:0:0:
192,192,97800,1,0,0:0:0:0:
64,192,97868,1,0,0:0:0:0:
448,192,98003,128,0,98138:0:0:0:0:
64,192,98003,1,0,0:0:0:0:
320,192,98070,1,0,0:0:0:0:
192,192,98138,1,0,0:0:0:0:
448,192,98273,128,0,98408:0:0:0:0:
192,192,98273,1,0,0:0:0:0:
64,192,98341,1,0,0:0:0:0:
320,192,98408,1,0,0:0:0:0:
192,192,98543,128,0,98679:0:0:0:0:
320,192,98543,1,0,0:0:0:0:
64,192,98611,1,0,0:0:0:0:
448,192,98679,1,0,0:0:0:0:
192,192,98814,128,0,98949:0:0:0:0:
448,192,98814,1,0,0:0:0:0:
320,192,98881,1,0,0:0:0:0:
64,192,98949,1,0,0:0:0:0:
192,192,99084,128,0,99219:0:0:0:0:
64,192,99084,1,0,0:0:0:0:
448,192,99152,1,0,0:0:0:0:
320,192,99219,1,0,0:0:0:0:
192,192,99354,128,0,99490:0:0:0:0:
320,192,99354,1,0,0:0:0:0:
64,192,99422,1,0,0:0:0:0:
448,192,99490,1,0,0:0:0:0:
64,192,99625,128,0,99760:0:0:0:0:
448,192,99625,1,0,0:0:0:0:
320,192,99692,1,0,0:0:0:0:
192,192,99760,1,0,0:0:0:0:
64,192,99895,128,0,100030:0:0:0:0:
192,192,99895,1,0,0:0:0:0:
448,192,99963,1,0,0:0:0:0:
320,192,100030,1,0,0:0:0:0:
64,192,100165,128,0,100301:0:0:0:0:
320,192,100165,1,0,0:0:0:0:
192,192,100233,1,0,0:0:0:0:
448,192,100301,1,0,0:0:0:0:
64,192,100436,128,0,100571:0:0:0:0:
448,192,100436,1,0,0:0:0:0:
320,192,100503,1,0,0:0:0:0:
192,192,100571,1,0,0:0:0:0:
320,192,100706,128,0,100841:0:0:0:0:
192,192,100706,1,0,0:0:0:0:
64,192,100774,1,0,0:0:0:0:
448,192,100841,1,0,0:0:0:0:
320,192,100976,128,0,101112:0:0:0:0:
448,192,100976,1,0,0:0:0:0:
64,192,101044,1,0,0:0:0:0:
192,192,101112,1,0,0:0:0:0:
320,192,101247,128,0,101382:0:0:0:0:
192,192,101247,1,0,0:0:0:0:
448,192,101314,1,0,0:0:0:0:
64,192,101382,1,0,0:0:0:0:
320,192,101517,128,0,101652:0:0:0:0:
64,192,101517,1,0,0:0:0:0:
64,192,101652,1,0,0:0:0:0:
448,192,101720,1,0,0:0:0:0:
192,192,101787,1,0,0:0:0:0:
64,192,101855,1,0,0:0:0:0:
320,192,101923,1,0,0:0:0:0:
192,192,101990,1,0,0:0:0:0:
320,192,102058,1,0,0:0:0:0:
64,192,102125,1,0,0:0:0:0:
448,192,102193,1,0,0:0:0:0:
192,192,102261,1,0,0:0:0:0:
448,192,102328,1,0,0:0:0:0:
64,192,102396,1,0,0:0:0:0:
320,192,102463,1,0,0:0:0:0:
192,192,102531,1,0,0:0:0:0:
448,192,102598,1,0,0:0:0:0:
64,192,102666,1,0,0:0:0:0:
192,192,102734,1,0,0:0:0:0:
320,192,102801,1,0,0:0:0:0:
192,192,102869,1,0,0:0:0:0:
448,192,102936,1,0,0:0:0:0:
64,192,103004,1,0,0:0:0:0:
320,192,103072,1,0,0:0:0:0:
64,192,103139,1,0,0:0:0:0:
192,192,103207,1,0,0:0:0:0:
448,192,103274,1,0,0:0:0:0:
64,192,103342,1,0,0:0:0:0:
448,192,103409,1,0,0:0:0:0:
192,192,103477,1,0,0:0:0:0:
320,192,103545,1,0,0:0:0:0:
64,192,103612,1,0,0:0:0:0:
320,192,103680,1,0,0:0:0:0:
448,192,103747,1,0,0:0:0:0:
192,192,103815,1,0,0:0:0:0:
64,192,103883,1,0,0:0:0:0:
320,192,103950,1,0,0:0:0:0:
448,192,104018,1,0,0:0:0:0:
192,192,104085,1,0,0:0:0:0:
320,192,104153,1,0,0:0:0:0:
192,192,104221,1,0,0:0:0:0:
64,192,104288,1,0,0:0:0:0:
448,192,104356,1,0,0:0:0:0:
320,192,104423,1,0,0:0:0:0:
448,192,104491,1,0,0:0:0:0:
192,192,104558,1,0,0:0:0:0:
64,192,104626,1,0,0:0:0:0:
320,192,104694,1,0,0:0:0:0:
64,192,104761,1,0,0:0:0:0:
192,192,104829,1,0,0:0:0:0:
320,192,104896,1,0,0:0:0:0:
64,192,104964,1,0,0:0:0:0:
320,192,105032,1,0,0:0:0:0:
448,192,105099,1,0,0:0:0:0:
192,192,105167,1,0,0:0:0:0:
320,192,105234,1,0,0:0:0:0:
192,192,105302,1,0,0:0:0:0:
64,192,105369,1,0,0:0:0:0:
448,192,105437,1,0,0:0:0:0:
192,192,105505,1,0,0:0:0:0:
448,192,105572,1,0,0:0:0:0:
64,192,105640,1,0,0:0:0:0:
320,192,105707,1,0,0:0:0:0:
192,192,105775,1,0,0:0:0:0:
320,192,105843,1,0,0:0:0:0:
64,192,105910,1,0,0:0:0:0:
320,192,105978,1,0,0:0:0:0:
192,192,106045,1,0,0:0:0:0:
448,192,106113,1,0,0:0:0:0:
320,192,106180,1,0,0:0:0:0:
64,192,106248,1,0,0:0:0:0:
448,192,106316,1,0,0:0:0:0:
64,192,106383,1,0,0:0:0:0:
192,192,106451,1,0,0:0:0:0:
320,192,106518,1,0,0:0:0:0:
64,192,106586,1,0,0:0:0:0:
320,192,106654,1,0,0:0:0:0:
448,192,106721,1,0,0:0:0:0:
192,192,106789,1,0,0:0:0:0:
64,192,106856,1,0,0:0:0:0:
320,192,106924,1,0,0:0:0:0:
192,192,106991,1,0,0:0:0:0:
448,192,107059,1,0,0:0:0:0:
64,192,107127,1,0,0:0:0:0:
448,192,107194,1,0,0:0:0:0:
320,192,107262,1,0,0:0:0:0:
192,192,107329,1,0,0:0:0:0:
448,192,107397,1,0,0:0:0:0:
192,192,107465,1,0,0:0:0:0:
320,192,107532,1,0,0:0:0:0:
64,192,107600,1,0,0:0:0:0:
448,192,107667,1,0,0:0:0:0:
64,192,107735,1,0,0:0:0:0:
192,192,107802,1,0,0:0:0:0:
320,192,107870,1,0,0:0:0:0:
64,192,107938,1,0,0:0:0:0:
320,192,108005,1,0,0:0:0:0:
448,192,108073,1,0,0:0:0:0:
192,192,108140,1,0,0:0:0:0:
320,192,108208,1,0,0:0:0:0:
64,192,108276,1,0,0:0:0:0:
448,192,108343,1,0,0:0:0:0:
192,192,108411,1,0,0:0:0:0:
320,192,108478,1,0,0:0:0:0:
192,192,108546,1,0,0:0:0:0:
64,192,108613,1,0,0:0:0:0:
448,192,108681,1,0,0:0:0:0:
192,192,108749,1,0,0:0:0:0:
448,192,108816,1,0,0:0:0:0:
64,192,108884,1,0,0:0:0:0:
192,192,108951,1,0,0:0:0:0:
320,192,109019,1,0,0:0:0:0:
192,192,109087,1,0,0:0:0:0:
448,192,109154,1,0,0:0:0:0:
64,192,109222,1,0,0:0:0:0:
320,192,109289,1,0,0:0:0:0:
192,192,109357,1,0,0:0:0:0:
448,192,109425,1,0,0:0:0:0:
64,192,109492,1,0,0:0:0:0:
320,192,109560,1,0,0:0:0:0:
64,192,109627,1,0,0:0:0:0:
192,192,109695,1,0,0:0:0:0:
320,192,109762,1,0,0:0:0:0:
64,192,109830,1,0,0:0:0:0:
320,192,109898,1,0,0:0:0:0:
192,192,109965,1,0,0:0:0:0:
448,192,110033,1,0,0:0:0:0:
64,192,110100,1,0,0:0:0:0:
448,192,110168,1,0,0:0:0:0:
192,192,110236,1,0,0:0:0:0:
448,192,110303,1,0,0:0:0:0:
320,192,110371,1,0,0:0:0:0:
64,192,110438,1,0,0:0:0:0:
192,192,110506,1,0,0:0:0:0:
448,192,110573,1,0,0:0:0:0:
64,192,110641,1,0,0:0:0:0:
448,192,110709,1,0,0:0:0:0:
320,192,110776,1,0,0:0:0:0:
64,192,110844,1,0,0:0:0:0:
448,192,110911,1,0,0:0:0:0:
64,192,110979,1,0,0:0:0:0:
192,192,111047,1,0,0:0:0:0:
320,192,111114,1,0,0:0:0:0:
64,192,111182,1,0,0:0:0:0:
448,192,111249,1,0,0:0:0:0:
320,192,111317,1,0,0:0:0:0:
192,192,111384,1,0,0:0:0:0:
448,192,111452,1,0,0:0:0:0:
192,192,111520,1,0,0:0:0:0:
64,192,111587,1,0,0:0:0:0:
320,192,111655,1,0,0:0:0:0:
192,192,111722,1,0,0:0:0:0:
320,192,111790,1,0,0:0:0:0:
448,192,111858,1,0,0:0:0:0:
64,192,111925,1,0,0:0:0:0:
320,192,111993,1,0,0:0:0:0:
64,192,112060,1,0,0:0:0:0:
448,192,112128,1,0,0:0:0:0:
320,192,112195,1,0,0:0:0:0:
192,192,112263,1,0,0:0:0:0:
320,192,112331,1,0,0:0:0:0:
64,192,112398,1,0,0:0:0:0:
192,192,112466,1,0,0:0:0:0:
448,192,112533,1,0,0:0:0:0:
320,192,112601,1,0,0:0:0:0:
64,192,112669,1,0,0:0:0:0:
448,192,112736,1,0,0:0:0:0:
192,192,112804,1,0,0:0:0:0:
448,192,112871,1,0,0:0:0:0:
64,192,112939,1,0,0:0:0:0:
192,192,113006,1,0,0:0:0:0:
448,192,113074,1,0,0:0:0:0:
192,192,113142,1,0,0:0:0:0:
64,192,113209,1,0,0:0:0:0:
320,192,113277,1,0,0:0:0:0:
448,192,113344,1,0,0:0:0:0:
192,192,113412,1,0,0:0:0:0:
320,192,113480,1,0,0:0:0:0:
64,192,113547,1,0,0:0:0:0:
192,192,113615,1,0,0:0:0:0:
320,192,113682,1,0,0:0:0:0:
64,192,113750,1,0,0:0:0:0:
448,192,113817,1,0,0:0:0:0:
192,192,113885,1,0,0:0:0:0:
448,192,113953,1,0,0:0:0:0:
64,192,114020,1,0,0:0:0:0:
192,192,114088,1,0,0:0:0:0:
320,192,114155,1,0,0:0:0:0:
192,192,114223,1,0,0:0:0:0:
448,192,114291,1,0,0:0:0:0:
64,192,114358,1,0,0:0:0:0:
320,192,114426,1,0,0:0:0:0:
64,192,114493,1,0,0:0:0:0:
448,192,114561,1,0,0:0:0:0:
64,192,114628,1,0,0:0:0:0:
192,192,114696,1,0,0:0:0:0:
320,192,114764,1,0,0:0:0:0:
64,192,114831,1,0,0:0:0:0:
192,192,114899,1,0,0:0:0:0:
448,192,114966,1,0,0:0:0:0:
320,192,115034,1,0,0:0:0:0:
192,192,115102,1,0,0:0:0:0:
448,192,115169,1,0,0:0:0:0:
320,192,115237,1,0,0:0:0:0:
64,192,115304,1,0,0:0:0:0:
192,192,115372,1,0,0:0:0:0:
320,192,115440,1,0,0:0:0:0:
448,192,115507,1,0,0:0:0:0:
192,192,115575,1,0,0:0:0:0:
64,192,115642,1,0,0:0:0:0:
320,192,115710,1,0,0:0:0:0:
192,192,115777,1,0,0:0:0:0:
448,192,115845,1,0,0:0:0:0:
320,192,115913,1,0,0:0:0:0:
64,192,115980,1,0,0:0:0:0:
448,192,116048,1,0,0:0:0:0:
64,192,116115,1,0,0:0:0:0:
192,192,116183,1,0,0:0:0:0:
320,192,116251,1,0,0:0:0:0:
64,192,116318,1,0,0:0:0:0:
320,192,116386,1,0,0:0:0:0:
448,192,116453,1,0,0:0:0:0:
192,192,116521,1,0,0:0:0:0:
320,192,116588,1,0,0:0:0:0:
192,192,116656,1,0,0:0:0:0:
64,192,116724,1,0,0:0:0:0:
448,192,116791,1,0,0:0:0:0:
320,192,116859,1,0,0:0:0:0:
64,192,116926,1,0,0:0:0:0:
192,192,116994,1,0,0:0:0:0:
448,192,117062,1,0,0:0:0:0:
64,192,117129,1,0,0:0:0:0:
320,192,117197,1,0,0:0:0:0:
448,192,117264,1,0,0:0:0:0:
192,192,117332,1,0,0:0:0:0:
320,192,117399,1,0,0:0:0:0:
64,192,117467,1,0,0:0:0:0:
192,192,117535,1,0,0:0:0:0:
448,192,117602,1,0,0:0:0:0:
64,192,117670,1,0,0:0:0:0:
320,192,117737,1,0,0:0:0:0:
192,192,117805,1,0,0:0:0:0:
448,192,117873,1,0,0:0:0:0:
320,192,117940,1,0,0:0:0:0:
64,192,118008,1,0,0:0:0:0:
448,192,118075,1,0,0:0:0:0:
192,192,118143,1,0,0:0:0:0:
64,192,118210,1,0,0:0:0:0:
320,192,118278,1,0,0:0:0:0:
192,192,118346,1,0,0:0:0:0:
448,192,118413,1,0,0:0:0:0:
320,192,118481,1,0,0:0:0:0:
192,192,118548,1,0,0:0:0:0:
448,192,118616,1,0,0:0:0:0:
64,192,118684,1,0,0:0:0:0:
320,192,118751,1,0,0:0:0:0:
64,192,118819,1,0,0:0:0:0:
192,192,118886,1,0,0:0:0:0:
448,192,118954,128,0,119224:0:0:0:0:
320,192,119224,1,0,0:0:0:0:
192,192,119359,1,0,0:0:0:0:
64,192,119495,1,0,0:0:0:0:
192,192,119630,1,0,0:0:0:0:
320,192,119765,1,0,0:0:0:0:
448,192,119900,1,0,0:0:0:0:
64,192,120035,128,0,120306:0:0:0:0:
320,192,120306,1,0,0:0:0:0:
448,192,120441,1,0,0:0:0:0:
192,192,120576,1,0,0:0:0:0:
320,192,120711,1,0,0:0:0:0:
64,192,120846,1,0,0:0:0:0:
192,192,120981,1,0,0:0:0:0:
448,192,121117,128,0,121387:0:0:0:0:
