osu file format v14

[General]
AudioFilename: audio.mp3
AudioLeadIn: 0
PreviewTime: 212082
Countdown: 0
SampleSet: Soft
StackLeniency: 0.7
Mode: 0
LetterboxInBreaks: 0
WidescreenStoryboard: 0

[Editor]
DistanceSpacing: 1.5
BeatDivisor: 8
GridSize: 8
TimelineZoom: 1

[Metadata]
Title:Ichiban no Takaramono ~Yui final ver.~
TitleUnicode:一番の宝物 ~Yui final ver.~
Artist:Girls Dead Monster STARRING LiSA
ArtistUnicode:Girls Dead Monster STARRING LiSA
Creator:Yumerios
Version:Eternal Love
Source:Angel Beats!
Tags:Anime pop jpop j-pop ballad My Most Precious Treasure Ending full ver ed version episode ep 10 Japanese Female vocalist sad love song
BeatmapID:2764415
BeatmapSetID:1334357

[Difficulty]
HPDrainRate:5.5
CircleSize:3.8
OverallDifficulty:6.5
ApproachRate:8
SliderMultiplier:1.72
SliderTickRate:1

[Events]
//Background and Video events
0,0,"Ichiban_bg.jpg",0,0
//Break Periods
2,177204,191500
//Storyboard Layer 0 (Background)
//Storyboard Layer 1 (Fail)
//Storyboard Layer 2 (Pass)
//Storyboard Layer 3 (Foreground)
//Storyboard Layer 4 (Overlay)
//Storyboard Sound Samples

[TimingPoints]
1051,980.392156862745,4,2,1,60,1,0
3011,1021.27659574468,4,2,1,40,1,0
5053,1000,4,2,1,40,1,0
7053,983.606557377053,4,2,1,40,1,0
7790,991.735537190087,4,2,1,40,1,0
8285,1092.89617486339,4,2,1,40,1,0
9104,964.630225080386,4,2,1,40,1,0
11033,1000.83402835696,4,2,1,40,1,0
12994,1018.67572156197,4,2,1,40,1,0
15031,1011.80438448567,4,2,1,40,1,0
17054,1016.94915254237,4,2,1,50,1,0
17562,-76.9230769230769,4,2,1,50,0,0
18833,967.741935483868,4,2,1,50,1,0
18833,-76.9230769230769,4,2,1,50,0,0
19800,994.200497100249,4,2,1,50,1,0
20297,-76.9230769230769,4,2,1,50,0,0
21042,1000,4,2,1,50,1,0
21542,-76.9230769230769,4,2,1,50,0,0
25042,1048.03493449782,4,2,1,50,1,0
25566,-76.9230769230769,4,2,1,50,0,0
26090,984.413453650533,4,2,1,50,1,0
26090,-76.9230769230769,4,2,1,50,0,0
27320,1019.54120645709,4,2,1,50,1,0
28274,879.12087912088,4,2,1,50,1,0
28274,-76.9230769230769,4,2,1,50,0,0
29010,1011.12234580384,4,2,1,50,1,0
29010,-76.9230769230769,4,2,1,50,0,0
33054,1043.47826086957,4,2,1,55,1,0
33054,-66.6666666666667,4,2,1,55,0,0
33836,1000,4,2,1,55,1,0
33836,-66.6666666666667,4,2,1,55,0,0
36836,1090.90909090909,4,2,1,55,1,0
37381,911.854103343465,4,2,1,55,1,0
37836,964.630225080386,4,2,1,55,1,0
38800,938.967136150235,4,2,1,55,1,0
39269,1126.76056338028,4,2,1,55,1,0
39550,995.024875621891,4,2,1,55,1,0
39550,-66.6666666666667,4,2,1,55,0,0
41042,1000,4,2,1,55,1,0
41042,-66.6666666666667,4,2,1,55,0,0
41792,942.951438000943,4,2,1,55,1,0
41792,-66.6666666666667,4,2,1,55,0,0
43206,1345.29147982063,4,2,1,55,1,0
43542,1000,4,2,1,55,1,0
43542,-66.6666666666667,4,2,1,55,0,0
49042,1000,4,2,1,45,1,0
49042,-76.9230769230769,4,2,1,45,0,0
54248,1111.11111111111,4,2,1,45,1,0
55021,857.142857142857,4,2,1,45,1,0
55021,-76.9230769230769,4,2,1,45,0,0
56021,1250,4,2,1,45,1,0
56333,1034.48275862069,4,2,1,60,1,0
56333,-76.9230769230769,4,2,1,60,0,0
57068,1048.03493449782,4,2,1,60,1,0
57068,-55.5555555555556,4,2,1,60,0,0
57854,821.917808219178,4,2,1,60,1,0
58330,983.606557377049,4,2,1,60,1,0
58330,-55.5555555555556,4,2,1,60,0,0
58821,-50,4,2,1,60,0,0
59313,-62.5,4,2,1,60,0,0
60018,1016.94915254237,4,2,1,60,1,0
60272,-55.5555555555556,4,2,1,60,0,0
62814,-50,4,2,1,60,0,0
63297,977.198697068404,4,2,1,60,1,0
63297,-62.5,4,2,1,60,0,0
64029,1023.89078498294,4,2,1,60,1,0
64284,-55.5555555555556,4,2,1,60,0,0
65052,1052.63157894737,4,2,1,60,1,0
65052,-55.5555555555556,4,2,1,60,0,0
66054,1209.67741935484,4,2,1,60,1,0
66322,977.198697068404,4,2,1,60,1,0
66322,-55.5555555555556,4,2,1,60,0,0
66810,-50,4,2,1,60,0,0
67299,-62.5,4,2,1,60,0,0
68032,1029.15951972556,4,2,1,60,1,0
68289,-55.5555555555556,4,2,1,60,0,0
69318,983.606557377049,4,2,1,60,1,0
69318,-62.5,4,2,1,60,0,0
69809,-71.4285714285714,4,2,1,60,0,0
70793,987.654320987652,4,2,1,60,1,0
70793,-55.5555555555556,4,2,1,60,0,0
72274,1032.70223752151,4,2,1,60,1,0
72274,-55.5555555555556,4,2,1,60,0,0
73048,1047.66893661603,4,2,1,60,1,0
73048,-55.5555555555556,4,2,1,60,0,0
74357,920.245398773006,4,2,1,60,1,0
74357,-55.5555555555556,4,2,1,60,0,0
74817,956.175298804778,4,2,1,60,1,0
74817,-50,4,2,1,60,0,0
75295,999.999999999997,4,2,1,60,1,0
75295,-62.5,4,2,1,60,0,0
76295,995.850622406636,4,2,1,60,1,0
76295,-55.5555555555556,4,2,1,60,0,0
77041,999.999999999997,4,2,1,60,1,0
77041,-55.5555555555556,4,2,1,60,0,0
78791,980.392156862745,4,2,1,60,1,0
78791,-50,4,2,1,60,0,0
79281,905.660377358488,4,2,1,60,1,0
79507,1032.70223752151,4,2,1,60,1,0
79507,-62.5,4,2,1,60,0,0
80281,974.025974025974,4,2,1,60,1,0
80281,-55.5555555555556,4,2,1,60,0,0
81011,1034.48275862069,4,2,1,60,1,0
81011,-55.5555555555556,4,2,1,60,0,0
81528,1273.88535031847,4,2,1,60,1,0
81824,970.873786407767,4,2,1,60,1,0
82323,999.999999999997,4,2,1,60,1,0
82323,-55.5555555555556,4,2,1,60,0,0
82823,-50,4,2,1,60,0,0
83323,991.73553719008,4,2,1,60,1,0
83323,-62.5,4,2,1,60,0,0
84314,-55.5555555555556,4,2,1,60,0,0
84810,1002.50626566416,4,2,1,60,1,0
84810,-55.5555555555556,4,2,1,60,0,0
85311,-62.5,4,2,1,60,0,0
85819,968.523002421307,4,2,1,60,1,0
85819,-71.4285714285714,4,2,1,60,0,0
86787,958.466453674121,4,2,1,60,1,0
86787,-55.5555555555556,4,2,1,60,0,0
87533,988.467874794069,4,2,1,60,1,0
87533,-83.3333333333333,4,2,1,60,0,0
89015,992.063492063492,4,2,1,40,1,0
90999,1014.37024513948,4,2,1,40,1,0
93027,985.221674876847,4,2,1,40,1,0
94997,999.999999999999,4,2,1,40,1,0
96997,1010.10101010101,4,2,1,40,1,0
99017,991.735537190082,4,2,1,40,1,0
101000,1005.02512562814,4,2,1,40,1,0
103010,1009.25147182506,4,2,1,40,1,0
105022,999.750062484379,4,2,1,55,1,0
105521,-66.6666666666667,4,2,1,55,0,0
121018,-66.6666666666667,4,2,1,60,0,0
137014,-90.9090909090909,4,2,1,50,0,0
144262,-90.9090909090909,4,2,1,70,0,0
145012,-50,4,2,1,70,0,1
146761,-45.4545454545455,4,2,1,70,0,1
147261,-55.5555555555556,4,2,1,70,0,1
148261,-50,4,2,1,70,0,1
150760,-45.4545454545455,4,2,1,70,0,1
151260,-55.5555555555556,4,2,1,70,0,1
152260,-50,4,2,1,70,0,1
154759,-45.4545454545455,4,2,1,70,0,1
155259,-55.5555555555556,4,2,1,70,0,1
156259,-50,4,2,1,70,0,1
157258,-55.5555555555556,4,2,1,70,0,1
157758,-62.5,4,2,1,70,0,1
159008,-50,4,2,1,70,0,1
162757,-45.4545454545455,4,2,1,70,0,1
163257,-55.5555555555556,4,2,1,70,0,1
164257,-50,4,2,1,70,0,1
166756,-45.4545454545455,4,2,1,70,0,1
167256,-55.5555555555556,4,2,1,70,0,1
168256,-50,4,2,1,70,0,1
170755,-45.4545454545455,4,2,1,70,0,1
171255,-55.5555555555556,4,2,1,70,0,1
172255,-50,4,2,1,70,0,1
173254,-55.5555555555556,4,2,1,70,0,1
173754,-62.5,4,2,1,70,0,1
175004,-50,4,2,1,70,0,1
175504,-71.4285714285714,4,2,1,70,0,1
177004,-100,4,2,1,50,0,0
193000,-55.5555555555556,4,2,1,65,0,0
208996,1021.27659574468,4,2,1,70,1,0
208996,-62.5,4,2,1,70,0,0
209510,1021.27659574468,4,2,1,50,1,0
209573,912.54752851711,4,2,1,60,1,0
209573,-71.4285714285714,4,2,1,60,0,0
210029,-83.3333333333333,4,2,1,50,0,0
210485,-100,4,2,1,40,0,0
212245,999.750062484379,4,2,1,50,1,0
212245,-62.5,4,2,1,70,0,0
212995,999.750062484379,4,2,1,75,1,1
212995,-45.4545454545455,4,2,1,75,0,1
214744,-41.6666666666667,4,2,1,75,0,1
215244,-50,4,2,1,75,0,1
216244,-45.4545454545455,4,2,1,75,0,1
218743,-41.6666666666667,4,2,1,75,0,1
219243,-50,4,2,1,75,0,1
220243,-45.4545454545455,4,2,1,75,0,1
222742,-41.6666666666667,4,2,1,75,0,1
223242,-50,4,2,1,75,0,1
224242,-45.4545454545455,4,2,1,75,0,1
225241,-50,4,2,1,75,0,1
225741,-55.5555555555556,4,2,1,75,0,1
226991,-45.4545454545455,4,2,1,75,0,1
230740,-41.6666666666667,4,2,1,75,0,1
231240,-50,4,2,1,75,0,1
232240,-45.4545454545455,4,2,1,75,0,1
234739,-41.6666666666667,4,2,1,75,0,1
235489,-50,4,2,1,75,0,1
236239,-45.4545454545455,4,2,1,75,0,1
238738,-41.6666666666667,4,2,1,75,0,1
239238,-50,4,2,1,75,0,1
240238,-45.4545454545455,4,2,1,75,0,1
241237,-50,4,2,1,75,0,1
241737,-55.5555555555556,4,2,1,75,0,1
242987,-45.4545454545455,4,2,1,75,0,1
243487,-50,4,2,1,75,0,1
244987,-45.4545454545455,4,2,1,80,0,0
246236,991.735537190083,4,2,1,80,1,0
246236,-45.4545454545455,4,2,1,80,0,0
246979,1058.20105820106,4,2,1,80,1,0
246979,-45.4545454545455,4,2,1,80,0,0
247508,933.852140077821,4,2,1,70,1,0
247508,-50,4,2,1,70,0,0
247974,-55.5555555555556,4,2,1,60,0,0
248441,-62.5,4,2,1,50,0,0
248986,999.750062484379,4,2,1,80,1,1
248986,-45.4545454545455,4,2,1,80,0,1
250735,-41.6666666666667,4,2,1,80,0,1
251235,-50,4,2,1,80,0,1
252235,-45.4545454545455,4,2,1,80,0,1
254734,-41.6666666666667,4,2,1,80,0,1
255234,-50,4,2,1,80,0,1
256234,-45.4545454545455,4,2,1,80,0,1
257233,-50,4,2,1,80,0,1
257733,-55.5555555555556,4,2,1,80,0,1
258983,-45.4545454545455,4,2,1,80,0,1
262732,-41.6666666666667,4,2,1,80,0,1
263232,-50,4,2,1,80,0,1
264232,-45.4545454545455,4,2,1,80,0,1
266731,-41.6666666666667,4,2,1,80,0,1
267231,-50,4,2,1,80,0,1
268231,-45.4545454545455,4,2,1,80,0,1
270730,-41.6666666666667,4,2,1,80,0,1
271230,-50,4,2,1,80,0,1
272230,-45.4545454545455,4,2,1,80,0,1
273229,-50,4,2,1,80,0,1
273729,-55.5555555555556,4,2,1,80,0,1
274979,-45.4545454545455,4,2,1,80,0,1
275479,-50,4,2,1,80,0,1
276979,-50,4,2,1,70,0,0
292975,-45.4545454545455,4,2,1,80,0,1
294724,-41.6666666666667,4,2,1,80,0,1
295224,-50,4,2,1,80,0,1
296224,-45.4545454545455,4,2,1,80,0,1
299973,-50,4,2,1,70,0,0
308971,-45.4545454545455,4,2,1,80,0,1
310720,-41.6666666666667,4,2,1,80,0,1
311220,-50,4,2,1,80,0,1
312220,-45.4545454545455,4,2,1,80,0,1
316969,-50,4,2,1,70,0,0
323967,-62.5,4,2,1,60,0,0
324967,1005.02512562814,4,2,1,50,1,0
324967,-76.9230769230769,4,2,1,50,0,0
326223,913.242009132419,4,2,1,50,1,0
326679,1082.05590622182,4,2,1,50,1,0
327220,1013.51351351351,4,2,1,50,1,0
328233,1005.02512562814,4,2,1,50,1,0
328233,-76.9230769230769,4,2,1,50,0,0
328987,950.871632329636,4,2,1,50,1,0
328987,-76.9230769230769,4,2,1,50,0,0
330175,1044.3864229765,4,2,1,50,1,0
330175,-76.9230769230769,4,2,1,50,0,0
332203,1009.25147182506,4,2,1,50,1,0
332203,-76.9230769230769,4,2,1,50,0,0
332959,985.221674876847,4,2,1,50,1,0
332959,-76.9230769230769,4,2,1,50,0,0
334190,1012.6582278481,4,2,1,50,1,0
334190,-76.9230769230769,4,2,1,50,0,0
341025,1297.2972972973,4,2,1,40,1,0
341673,1597.86950732357,4,2,1,40,1,0
342471,1712.32876712329,4,2,1,40,1,0
343327,1796.40718562874,4,2,1,40,1,0
344225,1311.47540983606,4,2,1,40,1,0
344225,-142.857142857143,4,2,1,40,0,0
345044,-142.857142857143,4,2,1,5,0,0
345208,1182.26600985221,4,2,1,40,1,0
346510,1081.08108108108,4,2,1,40,1,0
347591,1038.96103896104,4,2,1,40,1,0
349668,1159.42028985507,4,2,1,40,1,0
350827,1355.93220338983,4,2,1,40,1,0
352182,1610.73825503355,4,2,1,40,1,0
352182,-76.9230769230769,4,2,1,40,0,0
352786,-76.9230769230769,4,2,1,5,0,0
352987,2142.85714285713,4,2,1,40,1,0
354058,739.827373612824,4,2,1,50,1,0
354242,794.701986754965,4,2,1,50,1,0
354540,999.999999999997,4,2,1,50,1,0
355540,-1000,4,2,1,40,0,0
357040,-1000,4,2,1,30,0,0
358540,-1000,4,2,1,20,0,0
360040,-1000,4,2,1,10,0,0
361540,-1000,4,2,1,5,0,0

[Colours]
Combo1 : 192,192,192
Combo2 : 255,128,255
Combo3 : 255,128,192
Combo4 : 170,170,255

[HitObjects]
95,67,1051,6,0,P|151:99|201:129,1,86,2|0,0:2|0:2,0:2:0:0:
228,173,1786,1,2,0:2:0:0:
351,82,2276,1,2,0:2:0:0:
313,61,3011,6,0,P|320:124|320:162,1,86,2|0,0:2|0:2,0:2:0:0:
277,216,3776,1,2,0:2:0:0:
329,343,4287,1,2,0:2:0:0:
356,307,5053,6,0,P|310:300|260:295,1,86,2|0,0:2|0:2,0:2:0:0:
188,324,5803,1,2,0:2:0:0:
276,200,6303,1,2,0:2:0:0:
304,165,7053,6,0,P|292:224|283:266,1,86,2|0,0:2|0:2,0:2:0:0:
286,330,7791,2,0,L|272:279,1,43,2|0,0:2|0:2,0:2:0:0:
195,184,8285,2,0,P|135:192|85:196,1,86,2|0,0:2|0:2,0:2:0:0:
43,259,9104,6,0,P|59:310|112:321,1,86,2|0,0:2|0:2,0:2:0:0:
166,304,9827,1,2,0:2:0:0:
68,180,10309,1,2,0:2:0:0:
44,143,11033,6,0,P|117:159|159:169,1,86,2|0,0:2|0:2,0:2:0:0:
204,132,11783,1,2,0:2:0:0:
72,251,12284,1,2,0:2:0:0:
36,277,12994,6,0,P|101:292|145:301,1,86,2|0,0:2|0:2,0:2:0:0:
211,221,13758,2,0,P|276:206|320:197,1,86,2|0,0:2|0:2,0:2:0:0:
386,281,14522,1,2,0:2:0:0:
411,329,15031,6,0,P|418:271|426:216,1,86,2|0,0:2|0:2,0:2:0:0:
317,126,16042,2,0,P|310:68|302:13,1,86,2|0,0:2|0:2,0:2:0:0:
486,147,17054,5,2,1:2:0:0:
460,179,17562,6,0,P|450:227|446:250,1,55.8999974411012,2|2,0:2|0:2,0:2:0:0:
490,362,18070,2,0,P|437:326|382:329,1,111.799994882202,2|2,0:2|0:2,0:2:0:0:
286,373,18833,2,0,B|314:343|314:343|295:269,1,111.799994882202,2|2,0:2|0:2,0:2:0:0:
267,190,19558,1,2,0:2:0:0:
317,90,19800,1,2,0:2:0:0:
448,219,20297,2,0,P|388:237|321:262,1,111.799994882202,0|0,0:2|0:2,0:2:0:0:
273,304,21042,5,2,1:2:0:0:
246,279,21542,6,0,P|240:251|234:224,1,55.8999974411012,2|2,0:2|0:2,0:2:0:0:
344,132,22042,2,0,B|311:132|284:146|284:146|258:130|217:130,1,111.799994882202,2|2,0:2|0:2,0:2:0:0:
143,66,22792,2,0,B|171:96|171:96|151:179,1,111.799994882202,2|2,0:2|0:2,0:2:0:0:
116,247,23542,1,2,0:2:0:0:
24,157,23792,2,0,P|35:211|38:230,1,55.8999974411012,2|0,0:2|0:2,0:2:0:0:
139,333,24292,2,0,P|191:314|245:298,1,111.799994882202,0|0,0:2|0:2,0:2:0:0:
329,325,25042,5,2,1:2:0:0:
363,348,25566,6,0,L|368:282,1,55.8999974411012,2|2,0:2|0:2,0:2:0:0:
324,195,26090,2,0,B|359:218|359:218|430:182,1,111.799994882202,2|2,0:2|0:2,0:2:0:0:
496,104,26828,2,0,P|448:49|395:56,1,111.799994882202,2|2,0:2|0:2,0:2:0:0:
343,103,27574,1,2,0:2:0:0:
240,30,27829,1,2,0:2:0:0:
98,145,28274,2,0,P|157:161|208:184,1,111.799994882202,0|2,0:2|0:2,0:2:0:0:
363,230,29010,6,0,P|293:227|271:272,1,111.799994882202,2|0,1:2|0:2,0:2:0:0:
197,365,29768,2,0,P|247:314|206:214,1,167.699992323304,2|0,0:2|0:2,0:2:0:0:
107,63,31032,2,0,P|121:137|150:300,1,223.599989764405,0|0,0:2|0:2,0:2:0:0:
85,359,32296,1,2,0:2:0:0:
189,308,32548,1,2,0:2:0:0:
103,242,32801,1,2,0:2:0:0:
200,120,33054,6,0,P|183:212|175:270,1,129.00000492096,2|0,1:2|0:2,0:2:0:0:
83,79,33836,2,0,P|119:40|209:43,2,129.00000492096,2|2|2,0:2|0:2|0:2,0:2:0:0:
309,158,35336,2,0,P|264:116|181:132,2,129.00000492096,2|2|2,0:2|0:2|0:2,0:2:0:0:
97,214,36836,5,2,0:2:0:0:
300,338,37381,1,2,0:2:0:0:
99,302,37836,1,2,0:2:0:0:
343,131,38318,1,2,0:2:0:0:
293,375,38800,1,2,0:2:0:0:
98,214,39269,1,2,0:2:0:0:
127,129,39550,2,0,P|133:186|141:265,1,129.00000492096,2|0,0:2|0:2,0:2:0:0:
103,365,40296,1,2,0:2:0:0:
246,248,40545,1,2,0:2:0:0:
276,280,41042,6,0,P|209:271|136:262,1,129.00000492096,2|2,1:2|0:2,0:2:0:0:
14,154,41792,2,0,P|80:140|147:122,2,129.00000492096,2|2|2,0:2|0:2|0:2,0:2:0:0:
163,30,43206,1,2,0:2:0:0:
232,105,43542,2,0,P|224:181|218:237,1,129.00000492096,2|0,0:2|0:2,0:2:0:0:
246,336,44292,1,2,0:2:0:0:
100,215,44542,1,2,0:2:0:0:
68,251,45042,6,0,P|146:235|210:229,1,129.00000492096,2|2,1:2|0:2,0:2:0:0:
299,290,45792,1,2,0:2:0:0:
181,95,46292,1,2,0:2:0:0:
391,219,46792,1,2,0:2:0:0:
180,373,47292,1,2,0:2:0:0:
114,305,47542,2,0,P|124:224|131:159,1,129.00000492096,2|0,0:2|0:2,0:2:0:0:
94,68,48292,1,2,0:2:0:0:
212,214,48542,1,2,0:2:0:0:
246,239,49042,6,0,B|254:152|173:95|173:95|96:154|95:257,1,335.399984646607,2|0,1:2|0:2,0:2:0:0:
175,285,51042,2,0,B|131:226|68:269|38:329|101:392|208:423|287:322,1,335.399984646607,0|0,1:2|0:2,0:2:0:0:
316,275,52792,1,0,0:2:0:0:
441,378,53042,2,0,P|449:308|475:144,1,223.599989764405,0|0,1:2|0:2,0:2:0:0:
428,74,54248,5,0,0:2:0:0:
344,92,54525,1,0,0:2:0:0:
260,111,54803,1,0,0:2:0:0:
137,5,55021,6,0,P|176:50|152:129,1,149.066659842937,0|0,1:2|1:2,0:2:0:0:
120,164,55735,1,0,1:2:0:0:
120,164,55878,1,0,1:0:0:0:
120,164,56021,1,0,1:2:0:0:
390,100,56333,6,0,P|324:87|272:80,1,111.799994882202,2|2,0:2|0:2,0:2:0:0:
158,171,57068,6,0,P|210:113|293:132,1,154.799995275879,2|2,1:2|0:2,0:2:0:0:
371,218,57854,1,2,0:2:0:0:
476,101,58059,1,0,1:2:0:0:
379,34,58330,2,0,L|384:120,1,77.3999976379395,2|0,0:2|0:2,0:2:0:0:
461,189,58821,2,0,L|454:279,1,86,2|0,0:2|1:2,0:2:0:0:
305,364,59313,2,0,L|278:191,1,137.6,2|0,0:2|0:2,0:2:0:0:
216,146,60018,1,0,1:2:0:0:
293,24,60272,2,0,P|372:39|456:57,1,154.799995275879,2|2,0:2|0:2,0:2:0:0:
511,213,61034,6,0,B|398:226|398:226|367:267,1,154.799995275879,2|2,1:2|0:2,0:2:0:0:
290,330,61797,1,2,0:2:0:0:
175,221,62051,1,0,1:2:0:0:
255,183,62306,2,0,B|268:224|268:224|243:263,1,77.3999976379395,2|0,0:2|0:2,0:2:0:0:
105,263,62814,2,0,B|81:226|81:226|98:184,1,86,2|0,0:2|1:2,0:2:0:0:
171,54,63297,2,0,L|175:204,1,137.6,2|0,0:2|0:2,0:2:0:0:
172,308,64029,1,0,1:2:0:0:
279,153,64284,2,0,P|363:178|374:256,1,154.799995275879,2|2,0:2|0:2,0:2:0:0:
314,384,65052,6,0,L|297:215,1,154.799995275879,2|2,1:2|0:2,0:2:0:0:
336,127,65841,1,2,0:2:0:0:
183,206,66054,1,0,1:2:0:0:
224,112,66322,2,0,L|213:207,1,77.3999976379395,2|0,0:2|0:2,0:2:0:0:
88,141,66810,2,0,L|78:55,1,86,2|0,0:2|1:2,0:2:0:0:
242,0,67299,2,0,B|293:10|293:10|304:38|304:38|366:47,1,137.6,2|0,0:2|0:2,0:2:0:0:
483,99,68032,1,2,1:2:0:0:
402,215,68289,2,0,P|397:174|390:130,1,77.3999976379395,2|0,0:2|0:2,0:2:0:0:
509,269,68803,6,0,L|428:288,1,77.3999976379395,2|0,0:2|1:2,0:2:0:0:
374,355,69318,2,0,L|301:339,1,68.8,2|0,0:2|0:2,0:2:0:0:
249,281,69809,2,0,L|176:297,1,60.1999981628419,2|0,0:2|1:2,0:2:0:0:
114,349,70301,5,2,0:2:0:0:
20,239,70547,1,0,0:2:0:0:
133,135,70793,2,0,L|122:211,1,77.3999976379395,2|0,0:2|1:2,0:2:0:0:
138,369,71285,1,2,0:2:0:0:
36,307,71533,5,2,0:2:0:0:
166,204,71780,1,0,0:2:0:0:
218,374,72027,1,0,1:2:0:0:
66,253,72274,2,0,P|74:165|83:66,1,154.799995275879,2|2,0:2|0:2,0:2:0:0:
234,20,73048,6,0,B|269:64|269:64|234:168,1,154.799995275879,2|2,1:2|0:2,0:2:0:0:
187,254,73833,1,2,0:2:0:0:
338,366,74095,1,0,1:2:0:0:
289,220,74357,2,0,L|284:306,1,77.3999976379395,2|0,0:2|0:2,0:2:0:0:
424,233,74817,2,0,L|417:143,1,86,2|0,0:2|1:2,0:2:0:0:
233,94,75295,2,0,L|212:230,1,137.6,2|0,0:2|0:2,0:2:0:0:
245,340,76045,1,0,1:2:0:0:
90,384,76295,2,0,B|78:324|78:324|91:290|91:290|76:219,1,154.799995275879,2|2,0:2|0:2,0:2:0:0:
0,106,77041,6,0,B|37:107|69:82|69:82|95:108|143:109,1,154.799995275879,2|2,1:2|0:2,0:2:0:0:
254,66,77791,1,2,0:2:0:0:
134,203,78041,1,0,1:2:0:0:
216,286,78291,2,0,P|266:300|310:277,1,77.3999976379395,2|0,0:2|0:2,0:2:0:0:
303,166,78791,2,0,P|253:152|203:179,1,86,2|0,0:2|1:2,0:2:0:0:
359,232,79281,1,2,0:2:0:0:
442,161,79507,2,0,P|432:109|403:86,1,68.8,2|0,0:2|0:2,0:2:0:0:
286,87,80023,1,0,1:2:0:0:
388,0,80281,2,0,P|378:91|368:170,1,154.799995275879,2|0,0:2|0:2,0:2:0:0:
477,302,81011,6,0,P|427:246|356:260,1,154.799995275879,2|2,1:2|0:2,0:2:0:0:
276,348,81824,1,2,0:2:0:0:
150,229,82066,1,0,1:2:0:0:
207,140,82323,2,0,L|301:154,1,77.3999976379395,2|0,0:2|0:2,0:2:0:0:
380,211,82823,2,0,L|474:197,1,86,2|0,0:2|1:2,0:2:0:0:
512,40,83323,2,0,L|332:13,1,137.6,2|0,0:2|0:2,0:2:0:0:
305,100,84066,1,2,1:2:0:0:
449,170,84314,2,0,B|462:128|462:128|441:91,1,77.3999976379395,2|0,0:2|0:2,0:2:0:0:
301,21,84810,6,0,L|220:40,1,77.3999976379395,2|0,0:2|1:2,0:2:0:0:
151,118,85311,2,0,L|218:132,1,68.8,2|0,0:2|0:2,0:2:0:0:
299,200,85819,2,0,L|226:216,1,60.1999981628419,2|0,0:2|1:2,0:2:0:0:
120,284,86303,5,2,0:2:0:0:
232,319,86545,1,0,0:2:0:0:
112,162,86787,2,0,P|70:166|46:195,1,77.3999976379395,2|0,0:2|1:2,0:2:0:0:
104,314,87266,1,2,0:2:0:0:
311,143,87533,6,0,B|266:115|226:159|226:159|252:307,1,206.399993701172,2|0,0:2|0:2,0:2:0:0:
245,268,89015,6,0,L|363:259,1,86,2|0,0:2|0:2,0:2:0:0:
404,254,89759,1,2,0:2:0:0:
165,275,90255,1,2,0:2:0:0:
132,294,90999,6,0,L|124:175,1,86,2|0,0:2|0:2,0:2:0:0:
123,133,91759,1,2,0:2:0:0:
38,334,92266,1,2,0:2:0:0:
19,374,93027,6,0,L|115:362,1,86,2|0,0:2|0:2,0:2:0:0:
183,346,93765,1,2,0:2:0:0:
54,174,94258,1,2,0:2:0:0:
27,213,94997,6,0,L|139:222,1,86,2|0,0:2|0:2,0:2:0:0:
182,257,95747,1,2,0:2:0:0:
175,88,96247,2,0,P|181:135|187:204,1,86,2|0,0:2|0:2,0:2:0:0:
166,302,96997,6,0,P|235:320|275:337,1,86,2|0,0:2|0:2,0:2:0:0:
309,381,97754,1,2,0:2:0:0:
428,242,98259,1,2,0:2:0:0:
457,216,99017,6,0,L|347:192,1,86,2|0,0:2|0:2,0:2:0:0:
295,182,99760,1,2,0:2:0:0:
435,348,100256,1,2,0:2:0:0:
404,376,101000,6,0,B|351:340|288:255|388:173|457:231|422:290,1,258,2|0,0:2|0:2,0:2:0:0:
309,316,103010,6,0,L|328:152,1,129,2|2,0:2|0:2,0:2:0:0:
260,158,104019,2,0,L|245:45,1,86,0|2,0:2|0:2,0:2:0:0:
297,352,105022,5,0,1:2:0:0:
329,339,105521,5,2,0:2:0:0:
397,270,105771,1,2,0:2:0:0:
298,131,106021,2,0,L|317:264,1,129.00000492096,10|2,0:2|0:2,0:2:0:0:
195,352,106771,2,0,L|202:271,1,64.5000024604798,2|0,0:2|0:2,0:2:0:0:
153,191,107271,1,2,0:2:0:0:
217,98,107521,1,2,1:2:0:0:
266,199,107771,1,2,0:2:0:0:
58,181,108021,2,0,L|41:40,1,129.00000492096,8|0,0:2|0:2,0:2:0:0:
73,301,109021,5,0,1:2:0:0:
54,333,109520,5,2,0:2:0:0:
151,288,109770,1,2,0:2:0:0:
292,375,110020,2,0,L|431:355,1,129.00000492096,10|2,0:2|0:2,0:2:0:0:
495,270,110770,2,0,P|500:239|504:199,1,64.5000024604798,2|0,0:2|0:2,0:2:0:0:
408,106,111270,1,2,0:2:0:0:
397,208,111520,1,2,1:2:0:0:
501,110,111770,1,2,0:2:0:0:
327,10,112020,1,8,0:2:0:0:
253,76,112270,2,0,P|265:136|275:218,1,129.00000492096,0|0,0:2|0:2,0:2:0:0:
212,326,113020,5,0,1:2:0:0:
187,358,113519,5,2,0:2:0:0:
246,263,113769,1,2,0:2:0:0:
130,152,114019,2,0,P|147:224|161:300,1,129.00000492096,10|2,0:2|0:2,0:2:0:0:
229,170,114769,2,0,P|274:160|310:165,1,64.5000024604798,2|0,0:2|0:2,0:2:0:0:
402,215,115269,1,2,0:2:0:0:
397,102,115519,1,2,1:2:0:0:
501,155,115769,1,2,0:2:0:0:
395,299,116019,2,0,P|325:288|242:275,1,129.00000492096,8|0,0:2|0:2,0:2:0:0:
193,318,116769,1,2,0:2:0:0:
52,229,117019,6,0,P|73:157|93:85,1,129.00000492096,2|0,1:2|0:2,0:2:0:0:
213,235,117768,2,0,B|42:264|42:264|121:322,1,258.000009841919,2|0,1:2|0:2,0:2:0:0:
206,362,119018,1,0,1:2:0:0:
222,253,119268,1,0,0:2:0:0:
238,144,119518,1,0,0:2:0:0:
355,33,119768,2,0,L|363:113,1,64.5000024604798,0|0,1:2|0:2,0:2:0:0:
323,254,120268,5,10,0:2:0:0:
423,288,120518,1,10,0:2:0:0:
227,219,120768,1,2,1:2:0:0:
381,127,121018,6,0,B|396:175|396:175|357:261,1,129.00000492096,2|2,1:2|0:2,0:2:0:0:
299,364,121767,2,0,P|309:328|297:287,1,64.5000024604798,2|8,0:2|0:2,0:2:0:0:
239,224,122267,2,0,P|229:186|241:147,1,64.5000024604798,2|0,0:2|0:2,0:2:0:0:
307,80,122767,5,2,0:2:0:0:
142,137,123017,1,0,1:2:0:0:
178,48,123267,2,0,L|176:125,1,64.5000024604798,2|0,0:2|0:2,0:2:0:0:
24,77,123767,2,0,L|26:0,1,64.5000024604798,2|8,0:2|0:2,0:2:0:0:
64,176,124267,2,0,L|-13:174,1,64.5000024604798,2|0,0:2|0:2,0:2:0:0:
64,257,124767,5,2,0:2:0:0:
202,146,125017,1,0,1:2:0:0:
279,220,125266,2,0,B|286:256|286:256|275:294,1,64.5000024604798,2|0,0:2|0:2,0:2:0:0:
138,371,125766,2,0,B|127:336|127:336|136:300,1,64.5000024604798,2|8,0:2|0:2,0:2:0:0:
218,178,126266,2,0,L|310:187,1,64.5000024604798,2|0,0:2|0:2,0:2:0:0:
350,284,126766,2,0,L|442:275,1,64.5000024604798,6|0,0:3|1:2,0:2:0:0:
497,202,127266,1,2,0:2:0:0:
402,107,127516,6,0,L|418:261,1,129.00000492096,2|8,0:2|0:2,0:2:0:0:
304,355,128266,1,2,0:2:0:0:
225,303,128516,2,0,P|213:272|229:224,1,64.5000024604798,2|0,0:2|0:2,0:2:0:0:
274,139,129016,6,0,B|220:169|220:169|154:136,1,129.00000492096,2|2,1:2|0:2,0:2:0:0:
28,91,129765,2,0,P|79:82|106:77,1,64.5000024604798,2|8,0:2|0:2,0:2:0:0:
166,178,130265,2,0,P|115:169|88:164,1,64.5000024604798,2|0,0:2|0:2,0:2:0:0:
32,286,130765,2,0,P|83:277|110:272,1,64.5000024604798,6|0,0:3|1:2,0:2:0:0:
195,359,131265,1,2,0:2:0:0:
291,304,131515,2,0,P|268:260|181:246,1,129.00000492096,2|8,0:2|0:2,0:2:0:0:
63,376,132265,1,2,0:2:0:0:
32,287,132515,2,0,P|83:278|110:273,1,64.5000024604798,2|0,0:2|0:2,0:2:0:0:
220,164,133015,6,0,B|182:160|158:189|158:189|133:161|96:167,1,129.00000492096,2|0,1:2|0:2,0:2:0:0:
0,71,133764,2,0,P|15:106|21:140,1,64.5000024604798,2|8,0:2|0:2,0:2:0:0:
94,37,134264,2,0,P|133:24|174:34,1,64.5000024604798,2|0,0:2|0:2,0:2:0:0:
224,129,134764,2,0,P|263:142|304:132,1,64.5000024604798,2|4,0:2|0:3,0:2:0:0:
376,41,135264,1,10,0:2:0:0:
452,150,135514,2,0,P|439:205|427:285,1,129.00000492096,2|4,1:2|0:3,0:2:0:0:
287,183,136264,1,2,0:2:0:0:
326,340,136514,2,0,L|334:260,1,64.5000024604798,2|0,0:2|0:2,0:2:0:0:
421,137,137014,6,0,P|339:173|295:152,1,141.900004330444,0|0,1:2|0:2,0:2:0:0:
252,80,138013,2,0,P|170:44|126:65,1,141.900004330444,0|0,1:2|0:2,0:2:0:0:
78,129,139013,2,0,P|88:201|97:282,1,141.900004330444,0|0,1:2|0:2,0:2:0:0:
20,384,140013,1,8,0:2:0:0:
39,359,140513,6,0,L|98:355,1,47.3000014434815,0|0,0:2|0:2,0:2:0:0:
169,259,141013,2,0,B|204:235|258:269|243:294|290:323|349:280,1,189.200005773926,0|0,1:2|1:2,0:2:0:0:
476,95,142262,5,0,0:2:0:0:
405,199,142512,1,0,0:2:0:0:
486,298,142762,1,0,0:2:0:0:
388,111,143012,6,0,P|325:125|281:133,1,94.600002886963,0|0,1:2|1:2,0:2:0:0:
234,132,143679,1,0,1:2:0:0:
235,151,143845,1,0,1:2:0:0:
236,170,144012,1,8,0:3:0:0:
171,377,144262,6,0,P|164:312|154:264,1,94.600002886963,2|2,0:2|0:2,0:2:0:0:
145,110,145012,6,0,P|73:108|33:211,1,172,6|2,1:2|0:2,0:2:0:0:
130,312,145761,1,2,0:2:0:0:
305,141,146011,1,8,0:1:0:0:
412,233,146261,2,0,P|423:275|396:323,1,86,2|0,0:2|0:2,0:2:0:0:
221,306,146761,2,0,P|210:264|237:216,1,94.600002886963,6|0,0:3|1:2,0:2:0:0:
431,109,147261,2,0,B|384:99|351:122|351:122|320:90|264:95,1,154.799995275879,2|0,0:2|0:2,0:2:0:0:
104,172,148011,1,8,0:1:0:0:
168,25,148261,2,0,L|178:138,1,86,2|0,0:2|0:2,0:2:0:0:
100,247,148761,1,2,0:2:0:0:
282,130,149011,6,0,P|265:197|241:312,1,172,2|2,1:2|0:2,0:2:0:0:
104,172,149760,1,2,0:2:0:0:
274,23,150010,1,8,0:1:0:0:
375,112,150260,2,0,P|421:119|460:100,1,86,2|0,0:2|0:2,0:2:0:0:
284,210,150760,2,0,P|235:189|183:199,1,94.600002886963,6|0,0:3|1:2,0:2:0:0:
354,346,151260,2,0,L|360:180,1,154.799995275879,2|0,0:2|1:2,0:2:0:0:
233,47,152010,1,8,0:1:0:0:
129,106,152260,2,0,L|133:198,1,86,2|0,0:2|0:2,0:2:0:0:
30,318,152760,1,2,0:2:0:0:
216,384,153010,6,0,P|304:369|407:359,1,172,2|2,1:2|0:2,0:2:0:0:
504,244,153759,1,2,0:2:0:0:
325,111,154009,1,8,0:1:0:0:
254,220,154259,2,0,B|287:244|287:244|342:238,1,86,2|0,0:2|0:2,0:2:0:0:
209,67,154759,2,0,B|158:61|158:61|121:88,1,94.600002886963,6|0,0:3|1:2,0:2:0:0:
5,260,155259,2,0,B|59:293|59:293|150:252,1,154.799995275879,2|0,0:2|0:2,0:2:0:0:
340,340,156009,1,10,0:1:0:0:
217,384,156259,2,0,P|205:341|220:303,1,86,2|0,0:2|0:2,0:2:0:0:
352,152,156759,6,0,L|442:177,1,86,2|0,0:2|1:2,0:2:0:0:
292,37,157258,2,0,L|216:53,1,77.3999976379395,2|0,0:2|0:2,0:2:0:0:
136,150,157758,2,0,L|203:164,1,68.8,2|8,0:2|0:1,0:2:0:0:
67,35,158258,5,2,0:2:0:0:
0,153,158508,1,0,0:2:0:0:
83,265,158758,1,6,0:3:0:0:
204,64,159008,2,0,L|295:76,1,86,0|2,1:2|0:2,0:2:0:0:
471,139,159508,5,10,0:1:0:0:
326,256,159758,1,0,1:2:0:0:
322,220,159883,1,0,1:2:0:0:
318,184,160008,1,8,0:1:0:0:
443,325,160258,2,0,P|355:341|337:346,1,86,10|0,0:3|0:2,0:2:0:0:
246,382,160758,1,2,0:0:0:0:
88,239,161008,6,0,B|53:195|53:195|91:86,1,172,6|2,1:2|0:2,0:2:0:0:
205,0,161757,1,2,0:2:0:0:
324,181,162007,1,8,0:1:0:0:
198,268,162257,2,0,L|193:182,1,86,2|0,0:2|0:2,0:2:0:0:
383,248,162757,2,0,L|375:351,1,94.600002886963,6|0,0:3|1:2,0:2:0:0:
293,114,163257,2,0,B|347:90|374:115|366:130|396:162|455:126,1,154.799995275879,2|0,0:2|0:2,0:2:0:0:
294,217,164007,1,8,0:1:0:0:
477,72,164257,2,0,P|472:115|466:161,1,86,2|0,0:2|0:2,0:2:0:0:
494,293,164757,1,2,0:2:0:0:
296,371,165007,6,0,P|262:293|295:217,1,172,2|2,1:2|0:2,0:2:0:0:
461,187,165756,1,2,0:2:0:0:
282,9,166006,1,8,0:1:0:0:
239,136,166256,2,0,P|289:150|333:127,1,86,2|0,0:2|0:2,0:2:0:0:
144,82,166756,2,0,P|94:68|50:91,1,94.600002886963,6|0,0:3|1:2,0:2:0:0:
1,229,167256,1,2,0:2:0:0:
160,268,167506,2,0,P|171:216|153:183,1,77.3999976379395,2|4,1:2|0:3,0:2:0:0:
0,141,168006,1,8,0:1:0:0:
61,326,168256,2,0,L|164:306,1,86,2|0,0:2|0:2,0:2:0:0:
277,357,168756,1,2,0:2:0:0:
406,194,169006,6,0,B|324:187|324:187|306:195|306:195|226:189,1,172,2|2,1:2|0:2,0:2:0:0:
74,175,169755,1,2,0:2:0:0:
272,2,170005,1,8,0:1:0:0:
390,67,170255,2,0,L|381:164,1,86,2|0,0:2|0:2,0:2:0:0:
244,275,170755,2,0,L|233:172,1,94.600002886963,6|0,0:3|1:2,0:2:0:0:
474,166,171255,2,0,L|459:324,1,154.799995275879,2|0,0:2|0:2,0:2:0:0:
356,181,172005,1,10,0:1:0:0:
250,326,172255,2,0,P|204:317|148:310,1,86,2|0,0:2|0:2,0:2:0:0:
13,235,172755,6,0,L|121:211,1,86,6|0,0:3|1:2,0:2:0:0:
201,64,173254,2,0,L|296:82,1,77.3999976379395,2|0,0:2|0:2,0:2:0:0:
359,205,173754,2,0,L|291:219,1,68.8,2|8,0:2|0:1,0:2:0:0:
394,106,174254,2,0,L|461:120,1,68.8,2|0,0:2|0:2,0:2:0:0:
503,282,174754,5,10,0:3:0:0:
340,171,175004,1,0,1:2:0:0:
322,347,175254,1,2,1:2:0:0:
427,104,175504,1,10,0:1:0:0:
188,161,175754,1,8,0:1:0:0:
330,312,176004,2,0,P|358:305|392:297,1,60.1999981628419,8|0,0:3|0:2,0:2:0:0:
449,198,176504,2,0,P|421:191|387:183,1,60.1999981628419,8|0,0:3|0:2,0:2:0:0:
317,220,177004,5,0,0:2:0:0:
207,94,192250,6,0,P|207:64|204:93,1,86,2|2,0:2|0:2,0:2:0:0:
166,152,193000,6,0,B|214:129|251:148|242:164|274:189|336:164,1,154.799995275879,6|2,1:2|0:2,0:2:0:0:
427,89,193749,1,2,0:2:0:0:
302,263,193999,1,8,0:1:0:0:
422,354,194249,2,0,L|431:262,1,77.3999976379395,2|0,0:2|0:2,0:2:0:0:
337,350,194749,2,0,L|346:258,1,77.3999976379395,6|0,0:3|1:2,0:2:0:0:
255,344,195249,2,0,L|271:172,1,154.799995275879,2|0,0:2|0:2,0:2:0:0:
364,22,195999,1,8,0:1:0:0:
202,102,196249,2,0,P|290:112|372:125,1,154.799995275879,2|2,0:2|0:2,0:2:0:0:
186,16,196999,6,0,B|117:37|117:37|108:52|108:52|36:76,1,154.799995275879,2|2,1:2|0:2,0:2:0:0:
0,179,197748,1,2,0:2:0:0:
117,334,197998,1,8,0:1:0:0:
195,251,198248,2,0,P|155:226|112:228,1,77.3999976379395,2|0,0:2|0:2,0:2:0:0:
214,351,198748,2,0,P|252:347|283:325,1,77.3999976379395,6|0,0:3|1:2,0:2:0:0:
428,246,199248,2,0,P|362:204|268:245,1,154.799995275879,2|0,0:2|0:2,0:2:0:0:
157,58,199998,1,8,0:1:0:0:
254,0,200248,2,0,L|240:167,1,154.799995275879,2|2,0:2|0:2,0:2:0:0:
106,291,200998,6,0,P|43:281|23:191,1,154.799995275879,2|2,1:2|0:2,0:2:0:0:
101,125,201747,1,2,0:2:0:0:
246,297,201997,1,8,0:1:0:0:
135,357,202247,2,0,B|113:321|113:321|129:266,1,77.3999976379395,2|0,0:2|0:2,0:2:0:0:
225,201,202747,2,0,B|247:165|247:165|231:110,1,77.3999976379395,6|0,0:3|1:2,0:2:0:0:
125,22,203247,2,0,B|179:55|179:55|270:14,1,154.799995275879,2|0,0:2|0:2,0:2:0:0:
432,138,203997,1,10,0:1:0:0:
336,223,204247,2,0,P|286:215|254:210,1,77.3999976379395,2|0,0:2|0:2,0:2:0:0:
133,142,204747,6,0,P|142:194|148:226,1,77.3999976379395,6|0,0:3|1:2,0:2:0:0:
252,249,205246,2,0,P|243:301|237:333,1,77.3999976379395,2|0,0:2|0:2,0:2:0:0:
369,214,205746,2,0,P|378:266|384:298,1,77.3999976379395,2|8,0:2|0:1,0:2:0:0:
296,170,206246,2,0,P|305:118|311:86,1,77.3999976379395,2|0,0:2|0:2,0:2:0:0:
436,11,206746,2,0,P|486:27|507:130,1,154.799995275879,2|2,0:2|0:2,0:2:0:0:
369,229,207496,5,0,1:0:0:0:
273,95,207746,1,0,0:0:0:0:
467,233,207996,1,8,0:1:0:0:
436,11,208246,2,0,L|423:99,1,77.3999976379395,0|0,1:0|0:0,0:0:0:0:
380,262,208746,1,0,0:0:0:0:
273,95,208996,6,0,P|315:34|391:50,1,137.6,4|8,0:2|0:1,0:2:0:0:
424,87,209573,2,0,L|419:146,2,40.1333321085612,8|4|8,0:1|0:3|0:3,0:2:0:0:
358,197,210029,2,0,L|363:254,2,34.3999989501953,4|8|4,0:3|0:3|0:3,0:2:0:0:
419,320,210485,5,8,0:3:0:0:
460,294,212245,6,0,P|388:310|311:343,1,137.6,2|2,0:2|0:2,0:2:0:0:
164,133,212995,6,0,P|189:47|278:38,1,189.200005773926,6|2,0:2|0:2,0:2:0:0:
377,224,213744,1,2,0:2:0:0:
94,281,213994,1,8,0:1:0:0:
203,143,214244,2,0,P|199:197|193:262,1,94.600002886963,2|0,0:2|0:2,0:2:0:0:
15,373,214744,2,0,P|11:319|4:246,1,103.199996850586,6|0,0:3|1:2,0:2:0:0:
160,59,215244,2,0,L|341:87,1,172,2|0,0:2|0:2,0:2:0:0:
511,228,215994,1,8,0:1:0:0:
342,351,216244,2,0,L|352:238,1,94.600002886963,2|0,0:2|0:2,0:2:0:0:
412,91,216744,1,2,0:2:0:0:
236,284,216994,6,0,L|226:171,1,94.600002886963,2|0,1:2|0:2,0:2:0:0:
166,24,217493,1,2,0:2:0:0:
312,131,217743,1,2,0:2:0:0:
160,324,217993,1,8,0:1:0:0:
62,216,218243,2,0,P|106:209|162:198,1,94.600002886963,2|0,0:2|0:2,0:2:0:0:
272,37,218743,2,0,P|316:44|377:56,1,103.199996850586,6|0,0:3|1:2,0:2:0:0:
484,246,219243,2,0,P|406:258|307:277,1,172,2|0,0:2|0:2,0:2:0:0:
69,379,219993,1,8,0:1:0:0:
150,202,220243,2,0,P|168:251|131:296,1,94.600002886963,2|0,0:2|0:2,0:2:0:0:
4,179,220743,1,2,0:2:0:0:
172,11,220993,6,0,P|232:5|290:44,1,94.600002886963,2|0,1:2|0:2,0:2:0:0:
362,157,221492,1,2,0:2:0:0:
488,9,221742,1,2,0:2:0:0:
237,135,221992,1,8,0:1:0:0:
365,246,222242,2,0,B|381:199|381:199|360:152,1,94.600002886963,2|0,0:2|0:2,0:2:0:0:
125,160,222742,2,0,B|107:210|107:210|130:261,1,103.199996850586,6|0,0:3|1:2,0:2:0:0:
341,378,223242,2,0,P|441:364|532:353,1,172,2|0,0:2|0:2,0:2:0:0:
345,124,223992,1,10,0:1:0:0:
232,213,224242,2,0,L|247:324,1,94.600002886963,2|0,0:2|0:2,0:2:0:0:
416,56,224742,6,0,P|371:28|324:31,1,94.600002886963,2|0,0:2|1:2,0:2:0:0:
245,175,225241,2,0,P|205:199|164:196,1,86,2|0,0:2|0:2,0:2:0:0:
117,54,225741,2,0,P|80:31|43:34,1,77.3999976379395,2|8,0:2|0:1,0:2:0:0:
0,158,226241,1,2,0:2:0:0:
195,97,226491,1,0,0:2:0:0:
166,298,226741,1,2,0:2:0:0:
26,143,226991,2,0,L|39:40,1,94.600002886963,4|2,1:2|0:2,0:2:0:0:
244,180,227491,5,14,0:1:0:0:
98,354,227741,1,0,1:2:0:0:
62,347,227866,1,0,1:2:0:0:
26,341,227991,1,8,0:1:0:0:
159,194,228241,5,2,1:2:0:0:
272,286,228491,1,4,0:3:0:0:
365,204,228741,1,10,0:3:0:0:
510,380,228991,6,0,P|404:357|302:345,1,189.200005773926,6|2,1:2|0:2,0:2:0:0:
147,382,229740,1,2,0:2:0:0:
267,115,229990,1,8,0:1:0:0:
392,232,230240,2,0,L|376:328,1,94.600002886963,2|0,0:2|0:2,0:2:0:0:
212,186,230740,2,0,L|228:293,1,103.199996850586,6|0,0:3|1:2,0:2:0:0:
49,152,231240,2,0,L|16:347,1,172,2|0,0:2|0:2,0:2:0:0:
182,108,231990,1,8,0:1:0:0:
308,300,232240,2,0,L|427:278,1,94.600002886963,2|0,0:2|0:2,0:2:0:0:
282,109,232740,1,2,0:2:0:0:
145,289,232990,6,0,L|161:393,1,94.600002886963,2|0,1:2|0:2,0:2:0:0:
294,207,233489,1,2,0:2:0:0:
134,127,233739,1,2,0:2:0:0:
261,378,233989,1,8,0:1:0:0:
401,282,234239,2,0,P|421:234|400:167,1,94.600002886963,2|0,0:2|0:2,0:2:0:0:
236,108,234739,2,0,P|217:47|233:7,1,103.199996850586,6|0,0:3|1:2,0:2:0:0:
415,153,235239,1,2,0:2:0:0:
242,275,235489,2,0,P|195:271|130:264,1,86,2|4,1:2|0:3,0:2:0:0:
367,64,235989,1,8,0:1:0:0:
494,215,236239,2,0,L|476:342,1,94.600002886963,2|0,0:2|0:2,0:2:0:0:
312,167,236739,1,2,0:2:0:0:
464,7,236989,6,0,L|482:134,1,94.600002886963,2|0,1:2|0:2,0:2:0:0:
367,233,237488,1,2,0:2:0:0:
241,126,237738,1,2,0:2:0:0:
41,309,237988,1,8,0:1:0:0:
189,365,238238,2,0,L|198:268,1,94.600002886963,2|0,0:2|0:2,0:2:0:0:
44,156,238738,2,0,L|33:48,1,103.199996850586,6|0,0:3|1:2,0:2:0:0:
299,0,239238,2,0,L|280:185,1,172,2|0,0:2|0:2,0:2:0:0:
445,384,239988,1,10,0:1:0:0:
245,369,240238,2,0,B|233:319|233:319|258:263,1,94.600002886963,2|0,0:2|0:2,0:2:0:0:
424,120,240738,6,0,L|316:96,1,94.600002886963,2|0,0:2|1:2,0:2:0:0:
176,200,241237,2,0,L|271:182,1,86,2|0,0:2|0:2,0:2:0:0:
192,61,241737,2,0,L|115:45,1,77.3999976379395,2|8,0:2|0:1,0:2:0:0:
10,162,242237,2,0,L|92:145,1,77.3999976379395,2|0,0:2|0:2,0:2:0:0:
290,217,242737,5,6,0:3:0:0:
116,295,242987,1,0,1:2:0:0:
272,101,243237,1,10,0:1:0:0:
371,295,243487,1,6,0:3:0:0:
186,218,243737,1,8,0:3:0:0:
371,53,243987,5,8,0:1:0:0:
314,210,244237,2,0,L|307:124,1,86,2|0,0:2|1:2,0:2:0:0:
467,228,244737,1,2,0:2:0:0:
184,358,244987,5,10,0:1:0:0:
271,56,245236,1,8,0:1:0:0:
282,82,246236,6,0,B|288:39|349:16|406:74|363:156|287:182,1,236.500007217407,6|0,0:2|0:2,0:2:0:0:
230,255,246979,2,0,P|263:225|372:244,1,141.900004330444,4|0,0:2|0:2,0:2:0:0:
439,229,247508,6,0,L|430:298,2,57.3333333333333,4|4|4,0:3|0:3|0:3,0:2:0:0:
313,366,247974,2,0,L|304:300,2,51.599998425293,4|4|6,0:3|0:3|0:3,0:2:0:0:
181,252,248441,2,0,L|173:316,2,45.8666666666667,4|4|6,0:3|0:3|0:3,0:2:0:0:
10,139,248986,6,0,B|88:124|88:124|123:142|123:142|205:124,1,189.200005773926,6|2,1:2|0:2,0:2:0:0:
392,70,249735,1,10,0:3:0:0:
349,331,249985,1,8,0:1:0:0:
201,257,250235,2,0,L|184:147,1,94.600002886963,2|0,0:2|0:2,0:2:0:0:
392,70,250735,2,0,L|375:180,1,103.199996850586,2|0,0:2|1:2,0:2:0:0:
187,20,251235,2,0,P|74:19|52:85,1,172,2|0,0:2|0:2,0:2:0:0:
117,237,251985,1,8,0:1:0:0:
328,187,252235,2,0,P|340:130|310:89,1,94.600002886963,2|0,0:2|0:2,0:2:0:0:
140,100,252735,1,2,0:2:0:0:
278,325,252985,6,0,L|389:308,1,94.600002886963,2|0,1:2|0:2,0:2:0:0:
512,358,253484,1,2,0:2:0:0:
395,207,253734,1,2,0:2:0:0:
213,384,253984,1,8,0:1:0:0:
139,262,254234,2,0,B|175:234|175:234|227:244,1,94.600002886963,2|0,0:2|0:2,0:2:0:0:
375,120,254734,2,0,B|333:87|333:87|273:99,1,103.199996850586,6|0,0:3|1:2,0:2:0:0:
45,53,255234,2,0,B|122:11|122:11|220:30,1,172,2|0,0:2|0:2,0:2:0:0:
306,231,255984,1,10,0:1:0:0:
110,249,256234,2,0,L|104:149,1,94.600002886963,2|0,0:2|0:2,0:2:0:0:
292,9,256734,6,0,P|345:7|384:43,1,94.600002886963,2|0,0:2|1:2,0:2:0:0:
419,189,257233,2,0,P|382:213|338:209,1,86,2|0,0:2|0:2,0:2:0:0:
200,114,257733,2,0,L|215:207,1,77.3999976379395,2|8,0:2|0:1,0:2:0:0:
306,308,258233,2,0,L|291:401,1,77.3999976379395,2|0,0:2|0:2,0:2:0:0:
164,283,258733,1,6,0:3:0:0:
255,165,258983,1,4,1:2:0:0:
165,35,259233,1,2,0:2:0:0:
306,308,259483,5,10,0:1:0:0:
419,121,259733,1,0,1:2:0:0:
383,116,259858,1,0,1:2:0:0:
347,111,259983,1,8,0:1:0:0:
204,222,260233,1,2,0:2:0:0:
343,323,260483,1,0,0:2:0:0:
252,139,260733,1,2,0:2:0:0:
80,358,260983,6,0,B|132:359|173:323|173:323|207:365|281:361,1,189.200005773926,6|2,1:2|0:2,0:2:0:0:
423,285,261732,1,2,0:2:0:0:
289,63,261982,1,8,0:1:0:0:
177,192,262232,2,0,L|77:181,1,94.600002886963,2|0,0:2|0:2,0:2:0:0:
278,289,262732,2,0,L|427:272,1,103.199996850586,6|0,0:3|1:2,0:2:0:0:
470,70,263232,2,0,P|410:15|320:49,1,172,2|0,0:2|0:2,0:2:0:0:
384,299,263982,1,8,0:1:0:0:
497,150,264232,2,0,L|399:130,1,94.600002886963,2|0,0:2|0:2,0:2:0:0:
238,233,264732,1,2,0:2:0:0:
458,369,264982,6,0,P|466:325|479:264,1,94.600002886963,2|0,1:2|0:2,0:2:0:0:
358,124,265481,1,2,0:2:0:0:
504,24,265731,1,2,0:2:0:0:
345,252,265981,1,8,0:1:0:0:
234,110,266231,2,0,P|184:96|137:122,1,94.600002886963,6|8,0:3|0:3,0:2:0:0:
151,304,266731,2,0,P|201:318|250:291,1,103.199996850586,6|0,0:3|1:2,0:2:0:0:
362,105,267231,1,2,0:2:0:0:
501,280,267481,2,0,L|481:379,1,86,6|0,0:3|1:2,0:2:0:0:
273,228,267981,1,8,0:1:0:0:
419,51,268231,2,0,L|511:69,1,94.600002886963,2|0,0:2|0:2,0:2:0:0:
358,242,268731,1,2,0:2:0:0:
224,13,268981,6,0,P|142:12|110:120,1,189.200005773926,6|2,1:2|0:2,0:2:0:0:
219,207,269730,1,2,0:2:0:0:
73,373,269980,1,8,0:1:0:0:
0,236,270230,2,0,P|47:211|105:227,1,94.600002886963,2|0,0:2|0:2,0:2:0:0:
219,357,270730,2,0,P|269:361|313:336,1,103.199996850586,6|0,0:3|1:2,0:2:0:0:
431,138,271230,2,0,P|373:71|286:86,1,172,2|0,0:2|0:2,0:2:0:0:
163,267,271980,1,10,0:1:0:0:
354,365,272230,2,0,L|371:257,1,94.600002886963,2|0,0:2|0:2,0:2:0:0:
259,81,272730,6,0,P|207:81|174:111,1,94.600002886963,2|0,0:2|1:2,0:2:0:0:
51,227,273229,2,0,P|87:255|133:253,1,86,2|0,0:2|0:2,0:2:0:0:
83,61,273729,2,0,L|69:153,1,77.3999976379395,2|8,0:2|0:1,0:2:0:0:
248,231,274229,2,0,L|234:139,1,77.3999976379395,2|0,0:2|0:2,0:2:0:0:
145,7,274729,5,2,0:2:0:0:
356,119,274979,1,0,1:2:0:0:
120,240,275229,1,10,0:3:0:0:
217,41,275479,1,6,0:3:0:0:
354,229,275729,1,0,1:2:0:0:
44,155,275979,1,8,0:1:0:0:
216,73,276229,2,0,L|209:158,1,86,2|0,0:2|0:2,0:2:0:0:
244,337,276729,1,2,0:2:0:0:
440,142,276979,6,0,P|394:88|302:108,1,172,6|2,1:2|0:2,0:2:0:0:
273,244,277728,1,2,0:2:0:0:
494,223,277978,1,8,0:1:0:0:
370,339,278228,2,0,B|354:292|354:292|374:248,1,86,2|0,0:2|0:2,0:2:0:0:
272,130,278728,2,0,B|288:177|288:177|268:221,1,86,2|0,0:2|1:1,0:2:0:0:
128,341,279228,2,0,B|231:307|231:307|292:344,1,172,2|0,0:2|0:2,0:2:0:0:
374,184,279978,1,8,0:1:0:0:
269,56,280228,2,0,P|181:66|95:79,1,172,2|2,0:2|0:2,0:2:0:0:
4,218,280978,6,0,P|71:267|153:248,1,172,2|2,1:2|0:2,0:2:0:0:
251,139,281727,1,2,0:2:0:0:
0,20,281977,1,8,0:1:0:0:
112,162,282227,2,0,P|113:117|116:52,1,86,2|0,0:2|0:2,0:2:0:0:
4,217,282727,2,0,P|5:261|8:327,1,86,6|0,0:3|1:2,0:2:0:0:
210,376,283227,2,0,P|212:304|216:197,1,172,2|0,0:2|0:2,0:2:0:0:
139,48,283977,1,8,0:1:0:0:
285,0,284227,2,0,B|322:48|322:48|286:162,1,172,2|2,0:2|0:2,0:2:0:0:
213,302,284977,6,0,B|283:297|283:297|310:312|310:312|389:306,1,172,2|2,1:2|0:2,0:2:0:0:
485,184,285726,1,2,0:2:0:0:
253,76,285976,1,8,0:1:0:0:
324,221,286226,2,0,P|368:226|410:198,1,86,2|0,0:2|0:2,0:2:0:0:
193,142,286726,2,0,P|149:137|107:165,1,86,6|0,0:3|1:2,0:2:0:0:
6,302,287226,2,0,P|56:367|164:347,1,172,2|0,0:2|0:2,0:2:0:0:
282,225,287976,1,10,0:1:0:0:
69,150,288226,2,0,L|77:248,1,86,2|0,0:2|0:2,0:2:0:0:
224,48,288726,6,0,P|179:24|123:45,1,86,2|0,0:2|1:2,0:2:0:0:
114,145,289225,2,0,P|149:167|192:164,1,86,2|0,0:2|0:2,0:2:0:0:
312,42,289725,2,0,P|357:18|413:39,1,86,2|8,0:2|0:1,0:2:0:0:
421,142,290225,2,0,P|385:164|342:161,1,86,2|0,0:2|0:2,0:2:0:0:
224,48,290725,2,0,P|249:93|250:134,1,86,2|0,0:0|1:1,0:1:0:0:
102,218,291225,1,8,0:1:0:0:
221,370,291475,6,0,P|239:330|233:280,1,86,10|0,0:1|0:2,0:2:0:0:
195,150,291975,1,0,1:2:0:0:
195,150,292100,1,0,1:2:0:0:
195,150,292225,2,0,L|256:158,1,43,6|4,0:3|0:3,0:2:0:0:
397,213,292475,1,8,0:1:0:0:
196,258,292725,1,2,1:2:0:0:
382,36,292975,6,0,P|468:89|451:178,1,189.200005773926,6|2,1:2|0:2,0:2:0:0:
339,295,293724,1,2,0:2:0:0:
194,115,293974,1,8,0:1:0:0:
295,6,294224,2,0,P|346:-6|399:18,1,94.600002886963,2|0,0:2|0:2,0:2:0:0:
391,194,294724,2,0,P|339:210|281:181,1,103.199996850586,6|0,0:3|1:2,0:2:0:0:
118,46,295224,2,0,P|160:98|182:215,1,172,2|0,0:2|0:2,0:2:0:0:
42,375,295974,1,8,0:1:0:0:
187,234,296224,2,0,B|231:199|283:231|256:261|317:297|374:244,1,189.200005773926,2|2,0:2|0:2,0:2:0:0:
502,148,296974,6,0,P|434:137|307:115,1,189.200005773926,2|2,1:2|0:2,0:2:0:0:
190,17,297723,1,2,0:2:0:0:
46,180,297973,1,8,0:1:0:0:
130,278,298223,2,0,P|182:271|240:264,1,94.600002886963,2|0,0:2|0:2,0:2:0:0:
319,102,298723,2,0,P|365:107|412:114,1,94.600002886963,2|0,0:3|1:2,0:2:0:0:
468,318,299223,1,2,0:2:0:0:
270,172,299473,1,4,0:3:0:0:
426,42,299723,1,0,1:2:0:0:
314,304,299973,6,0,P|246:290|196:283,1,86,12|2,0:1|0:2,0:2:0:0:
85,191,300473,1,0,0:2:0:0:
172,73,300723,1,2,0:2:0:0:
427,180,300973,6,0,P|416:258|404:353,1,172,6|2,1:2|0:2,0:2:0:0:
267,256,301722,1,2,0:2:0:0:
424,70,301972,1,8,0:1:0:0:
380,211,302222,2,0,P|335:202|277:193,1,86,2|0,0:2|0:2,0:2:0:0:
191,40,302722,2,0,P|236:31|294:22,1,86,6|0,0:3|1:2,0:2:0:0:
141,188,303222,2,0,P|160:268|177:379,1,172,2|0,0:2|0:2,0:2:0:0:
282,220,303972,1,10,0:1:0:0:
131,96,304222,2,0,L|35:120,1,86,2|0,0:2|0:2,0:2:0:0:
225,157,304722,6,0,P|245:91|235:68,1,86,2|0,0:2|1:2,0:2:0:0:
115,201,305221,2,0,P|110:243|130:280,1,86,2|0,0:2|0:2,0:2:0:0:
152,92,305721,2,0,P|107:68|51:89,1,86,2|8,0:2|0:1,0:2:0:0:
207,250,306221,2,0,P|249:253|285:230,1,86,2|0,0:2|0:2,0:2:0:0:
385,66,306721,2,0,B|354:115|354:115|378:243,1,172,2|2,0:2|0:2,0:2:0:0:
251,358,307471,6,0,P|186:341|137:352,1,86,2|0,0:2|1:2,0:2:0:0:
118,368,307846,1,8,0:1:0:0:
118,368,307971,1,8,0:1:0:0:
17,195,308221,2,0,B|73:164|73:164|195:198,1,172,2|2,1:2|0:2,0:2:0:0:
386,356,308971,6,0,B|367:279|367:279|384:248|384:248|368:164,1,189.200005773926,6|2,1:2|0:2,0:2:0:0:
374,14,309720,1,2,0:2:0:0:
179,183,309970,1,8,0:1:0:0:
276,296,310220,2,0,L|379:277,1,94.600002886963,2|0,0:2|0:2,0:2:0:0:
305,102,310720,2,0,L|199:84,1,103.199996850586,6|0,0:3|1:2,0:2:0:0:
44,210,311220,2,0,P|47:272|158:313,1,172,2|0,0:2|0:2,0:2:0:0:
332,176,311970,1,8,0:1:0:0:
188,0,312220,2,0,P|128:17|115:142,1,189.200005773926,2|2,0:2|0:2,0:2:0:0:
215,342,312970,6,0,P|203:271|184:132,1,189.200005773926,2|2,1:2|0:2,0:2:0:0:
312,10,313719,1,2,0:2:0:0:
453,233,313969,1,8,0:1:0:0:
266,193,314219,2,0,L|277:92,1,94.600002886963,2|0,0:2|0:2,0:2:0:0:
473,23,314719,2,0,L|484:124,1,94.600002886963,6|0,0:3|1:2,0:2:0:0:
378,289,315219,2,0,B|256:250|256:250|192:293,1,189.200005773926,2|0,0:2|0:2,0:2:0:0:
43,154,315969,1,8,0:1:0:0:
119,10,316219,2,0,P|180:13|234:130,1,189.200005773926,2|2,0:2|0:2,0:2:0:0:
148,301,316969,6,0,P|136:210|125:119,1,172,6|2,1:2|0:2,0:2:0:0:
255,16,317718,1,0,0:2:0:0:
371,203,317968,2,0,B|414:215|414:215|472:191,1,86,10|0,0:1|0:2,0:2:0:0:
509,16,318468,2,0,B|470:0|470:0|427:12,1,86,2|0,0:2|0:2,0:2:0:0:
277,113,318968,2,0,L|283:212,1,86,2|0,1:2|0:2,0:2:0:0:
470,315,319468,2,0,L|476:216,1,86,2|0,1:2|0:2,0:2:0:0:
328,52,319968,1,10,0:1:0:0:
198,233,320218,1,2,0:2:0:0:
353,127,320468,1,2,0:2:0:0:
436,313,320718,1,2,0:2:0:0:
218,113,320968,6,0,B|175:81|127:114|144:135|90:157|37:130,1,172,2|0,1:2|0:2,0:2:0:0:
138,303,321717,1,2,0:2:0:0:
138,303,321842,1,2,1:2:0:0:
138,303,321967,1,10,0:1:0:0:
297,73,322217,1,0,1:2:0:0:
81,189,322467,1,12,0:1:0:0:
313,337,322717,1,12,0:1:0:0:
205,159,322967,5,0,1:2:0:0:
48,367,323217,1,12,0:1:0:0:
297,246,323467,1,8,0:1:0:0:
124,96,323717,1,0,1:1:0:0:
138,302,323967,6,0,P|199:316|229:326,1,68.8,8|2,0:3|0:2,0:2:0:0:
363,230,324467,2,0,P|329:236|296:245,1,68.8,8|2,0:3|0:2,0:2:0:0:
176,91,324967,6,0,P|227:48|285:62,1,111.799994882202,6|2,0:2|0:2,0:2:0:0:
322,100,325720,1,2,0:2:0:0:
136,177,326223,1,2,0:0:0:0:
129,94,326679,1,2,0:0:0:0:
122,11,327220,1,2,0:0:0:0:
127,216,328233,6,0,P|176:191|237:205,1,111.799994882202,2|2,0:2|0:2,0:2:0:0:
279,259,328987,6,0,L|272:134,1,111.799994882202,2|2,0:2|0:2,0:2:0:0:
270,75,329700,1,2,0:2:0:0:
420,8,330175,2,0,B|443:47|443:47|421:114,2,111.799994882202,2|2|2,0:2|0:2|0:2,0:2:0:0:
388,8,332203,6,0,P|443:23|504:40,1,111.799994882202,2|2,0:2|0:2,0:2:0:0:
512,111,332959,6,0,B|470:141|470:141|394:122,1,111.799994882202,2|2,0:2|0:2,0:2:0:0:
339,103,333697,1,2,0:2:0:0:
247,199,334190,2,0,P|293:187|356:214,2,111.799994882202,2|2|2,0:2|0:2|0:2,0:2:0:0:
216,223,335962,5,2,0:2:0:0:
216,223,336215,2,0,L|225:110,1,111.799994882202,2|2,0:2|0:2,0:2:0:0:
107,22,337227,2,0,P|114:73|121:134,2,111.799994882202,2|2|2,0:2|0:2|0:2,0:2:0:0:
242,119,338746,1,2,0:2:0:0:
146,268,339253,1,2,0:2:0:0:
146,268,339506,2,0,P|76:254|33:248,1,111.799994882202,2|0,0:2|0:2,0:2:0:0:
128,353,340265,6,0,P|187:338|250:326,1,111.799994882202,2|0,0:2|0:2,0:2:0:0:
329,345,341025,5,2,0:2:0:0:
240,195,341673,1,2,0:2:0:0:
157,344,342471,1,2,0:2:0:0:
345,236,343327,1,2,0:2:0:0:
208,97,344225,2,0,L|201:178,1,75.2499977035523,2|0,0:2|0:2,0:2:0:0:
200,208,345208,1,2,0:2:0:0:
235,184,346510,5,2,0:2:0:0:
151,324,347591,1,2,0:2:0:0:
346,315,348629,1,2,0:2:0:0:
272,178,349668,1,2,0:2:0:0:
156,336,350827,1,2,0:2:0:0:
303,115,352182,2,0,P|309:165|314:210,1,83.8499961616518,2|0,0:2|0:2,0:2:0:0:
309,235,352987,1,2,0:2:0:0:
330,262,354058,5,0,0:2:0:0:
353,286,354242,2,0,L|377:288,2,21.5,0|0|0,0:2|0:2|0:2,0:2:0:0:
305,350,354540,5,0,0:2:0:0:
256,192,354665,12,0,361540,0:2:0:0:
