osu file format v14

[General]
AudioFilename: audio.mp3
AudioLeadIn: 0
PreviewTime: 54800
Countdown: 0
SampleSet: Soft
StackLeniency: 0.5
Mode: 0
LetterboxInBreaks: 0
WidescreenStoryboard: 0

[Editor]
Bookmarks: 6386,7007,7421,21697,77559
DistanceSpacing: 1
BeatDivisor: 4
GridSize: 4
TimelineZoom: 2.299999

[Metadata]
Title:My Soul, Your Beats! (Gldemo ver.) (TV Size)
TitleUnicode:My Soul, Your Beats! (Gldemo ver.) (TV Size)
Artist:Girls Dead Monster
ArtistUnicode:Girls Dead Monster
Creator:KEsHa_cHoKE
Version:Soul Beats
Source:Angel Beats!
Tags:tv size anime opening エンジェルビーツ enjieru bitsu LiSA Keep The Beats! ガルデモアルバム Maeda Jun 麻枝 准 manquito PantyDev
BeatmapID:1602943
BeatmapSetID:691062

[Difficulty]
HPDrainRate:6
CircleSize:4
OverallDifficulty:8
ApproachRate:8.5
SliderMultiplier:1.8
SliderTickRate:1

[Events]
//Background and Video events
0,0,"1470140.jpg",0,0
//Break Periods
//Storyboard Layer 0 (Background)
//Storyboard Layer 1 (Fail)
//Storyboard Layer 2 (Pass)
//Storyboard Layer 3 (Foreground)
//Storyboard Sound Samples

[TimingPoints]
180,413.793103448276,4,2,3,100,1,0
180,-100,4,2,3,40,0,0
1214,-100,4,2,1,40,0,0
1835,-90.9090909090909,4,2,1,60,0,0
6904,-90.9090909090909,4,2,1,5,0,0
7007,-90.9090909090909,4,2,1,60,0,0
7628,-90.9090909090909,4,2,1,60,0,0
8766,-90.9090909090909,4,2,1,5,0,0
8869,-90.9090909090909,4,2,1,60,0,0
9180,-90.9090909090909,4,2,1,5,0,0
9283,-90.9090909090909,4,2,1,60,0,0
13421,-90.9090909090909,4,2,1,50,0,0
14042,-90.9090909090909,4,2,1,40,0,0
14662,-90.9090909090909,4,2,1,25,0,0
15283,-90.9090909090909,4,2,1,10,0,0
15904,-90.9090909090909,4,2,1,5,0,0
16731,-90.9090909090909,4,2,1,30,0,0
18386,-90.9090909090909,4,2,2,60,0,0
19835,-90.9090909090909,4,3,2,60,0,0
21697,-100,4,2,2,50,0,0
34938,-100,4,2,2,50,0,0
41869,-100,4,2,2,5,0,0
41973,-100,4,2,2,50,0,0
42283,-100,4,2,2,5,0,0
42386,-100,4,2,2,50,0,0
42697,-100,4,2,2,5,0,0
42800,-100,4,2,2,50,0,0
43111,-100,4,2,2,5,0,0
43214,-100,4,2,2,50,0,0
44766,-100,4,2,2,5,0,0
44869,-100,4,2,2,50,0,0
45180,-100,4,2,2,5,0,0
45283,-100,4,2,2,50,0,0
45593,-100,4,2,2,5,0,0
45697,-100,4,2,2,50,0,0
46007,-100,4,2,2,5,0,0
46111,-100,4,2,2,50,0,0
46421,-100,4,2,2,5,0,0
46524,-100,4,2,2,50,0,0
47869,-100,4,2,3,50,0,0
47973,-100,4,2,2,50,0,0
48180,-90.9090909090909,4,2,2,50,0,0
54180,-90.9090909090909,4,2,2,60,0,0
54800,-83.3333333333333,4,2,2,80,0,1
67628,-83.3333333333333,4,2,2,80,0,0
68042,-83.3333333333333,4,2,2,80,0,1
79628,-100,4,2,2,50,0,0
79938,-100,4,2,2,5,0,0
80042,-100,4,2,2,50,0,0
80352,-100,4,2,2,5,0,0
80455,-100,4,2,2,50,0,0
80766,-100,4,2,2,5,0,0
80869,-111.111111111111,4,2,2,50,0,0
81697,-100,4,2,2,50,0,0
83248,-100,4,2,2,5,0,0
83352,-100,4,2,2,50,0,0
83662,-100,4,2,2,5,0,0
83766,-100,4,2,2,50,0,0
84076,-100,4,2,2,5,0,0
84180,-111.111111111111,4,2,2,50,0,0
84800,-100,4,2,2,50,0,0
87904,-100,4,2,2,40,0,0
88524,-100,4,2,2,25,0,0
89145,-100,4,2,2,5,0,0

[Colours]
Combo1 : 253,49,182
Combo2 : 0,234,234
Combo3 : 0,225,0

[HitObjects]
328,156,180,5,8,0:0:0:0:
324,168,593,1,8,0:0:0:0:
320,180,1007,1,8,0:0:0:0:
240,112,1214,5,2,0:0:0:0:
284,344,1421,1,8,0:0:0:0:
196,200,1628,1,2,0:0:0:0:
332,259,1835,6,0,P|400:197|356:111,1,198.000006042481,6|2,0:0|0:3,0:0:0:0:
184,57,2455,1,0,0:0:0:0:
184,57,2662,2,0,L|196:169,1,99.0000030212403,8|2,0:0|0:0,0:0:0:0:
133,222,3076,6,0,B|136:276|118:323|118:323|168:321|215:347|215:347|273:330|321:362|321:362|348:315|329:273|329:273|350:220|311:170|311:170|263:190|256:264,1,594.000018127442,6|8,0:0|0:0,0:0:0:0:
425,321,4524,1,0,0:0:0:0:
317,94,4731,1,8,0:0:0:0:
240,267,4938,1,2,0:0:0:0:
428,228,5145,6,0,P|444:196|436:104,1,99.0000030212403,4|2,0:0|0:0,0:0:0:0:
335,0,5559,2,0,P|319:32|327:124,1,99.0000030212403,2|2,0:3|0:0,0:0:0:0:
210,228,5973,2,0,P|194:196|202:104,1,99.0000030212403,8|2,0:0|0:0,0:0:0:0:
337,257,6386,6,0,B|356:284|360:320|352:352|352:352|320:336|265:329|200:356,1,247.500007553101,4|0,0:0|0:0,0:0:0:0:
175,367,7007,2,0,B|122:389|63:379|63:379|37:341|51:291,1,198.000006042481,2|2,0:0|0:0,0:0:0:0:
200,208,7628,2,0,L|204:143,2,66.0000020141602,8|8|8,0:0|0:0|0:0,0:0:0:0:
172,232,8042,2,0,L|100:235,2,66.0000020141602,2|2|2,0:0|0:0|0:0,0:0:0:0:
216,244,8455,6,0,B|260:220|260:220|364:236,1,148.50000453186,6|0,0:0|0:0,0:0:0:0:
396,248,8869,2,0,B|420:204|420:204|404:100,1,148.50000453186,2|0,0:3|0:0,0:0:0:0:
364,108,9283,2,0,L|240:100,1,99.0000030212403,8|2,0:0|0:0,0:0:0:0:
212,260,9697,2,0,L|205:161,1,99.0000030212403,2|0,0:0|0:0,0:0:0:0:
52,76,10111,6,0,B|112:48|168:72|168:72|192:28|248:12|248:12|292:28|340:24|379:3|379:3|360:20|352:40,1,396.000012084961,4|8,0:0|0:0,0:0:0:0:
205,161,11145,1,0,0:0:0:0:
367,300,11352,1,8,0:0:0:0:
367,300,11455,1,8,0:0:0:0:
367,300,11559,1,2,0:0:0:0:
358,111,11766,6,0,L|362:211,1,99.0000030212403,6|0,0:0|0:0,0:0:0:0:
184,194,12180,2,0,L|181:251,1,49.5000015106202,2|0,0:0|2:0,0:0:0:0:
176,327,12386,1,8,0:0:0:0:
259,358,12593,1,2,0:0:0:0:
94,298,12800,1,2,0:0:0:0:
274,230,13007,5,6,0:0:0:0:
256,192,13421,12,0,16317,0:0:0:0:
108,320,16731,5,2,0:0:0:0:
160,252,16938,1,0,0:0:0:0:
72,244,17145,1,2,0:0:0:0:
196,328,17352,1,0,0:0:0:0:
212,184,17559,5,2,0:0:0:0:
160,252,17766,1,0,0:0:0:0:
248,260,17973,1,2,0:0:0:0:
124,176,18180,1,0,0:0:0:0:
196,328,18386,5,10,0:3:0:0:
176,108,18593,1,0,0:0:0:0:
248,260,18800,1,10,0:3:0:0:
92,96,19007,1,0,0:0:0:0:
160,252,19214,5,10,0:3:0:0:
232,44,19421,1,2,0:3:0:0:
40,164,19628,1,10,0:3:0:0:
252,264,19835,1,2,0:3:0:0:
252,264,19938,1,2,0:3:0:0:
252,264,20042,5,12,3:0:0:0:
292,100,21076,1,8,0:3:0:0:
324,308,21283,1,8,0:3:0:0:
160,208,21490,1,8,0:3:0:0:
207,368,21697,6,0,B|225:334|225:334|221:274,1,90,6|2,0:0|0:0,0:0:0:0:
213,128,22111,1,8,0:0:0:0:
160,208,22317,2,0,P|129:167|129:116,1,90,2|2,0:0|0:0,0:0:0:0:
209,32,22731,1,0,0:0:0:0:
304,131,22938,2,0,L|296:251,1,90,8|0,0:0|0:3,0:0:0:0:
284,344,23352,5,2,0:0:0:0:
160,208,23559,1,2,0:0:0:0:
288,116,23766,2,0,L|280:-4,1,90,8|2,0:0|0:0,0:0:0:0:
408,208,24180,1,0,0:3:0:0:
160,208,24387,1,2,0:0:0:0:
288,116,24593,1,8,0:0:0:0:
310,313,24800,2,0,P|317:332|317:356,1,45,0|0,0:0|2:0,0:0:0:0:
236,349,25007,6,0,B|204:372|204:372|153:369,1,90,2|2,0:0|0:0,0:0:0:0:
231,257,25421,1,8,0:0:0:0:
144,180,25628,2,0,B|176:157|176:157|260:161,1,90,2|0,0:0|0:0,0:0:0:0:
312,208,26042,1,2,0:0:0:0:
189,19,26248,2,0,B|224:35|224:35|263:109,1,90,2|0,0:0|0:0,0:0:0:0:
304,288,26662,5,2,0:0:0:0:
320,124,26869,1,2,0:0:0:0:
231,257,27076,1,8,0:0:0:0:
380,182,27283,1,2,0:0:0:0:
380,320,27490,1,0,0:0:0:0:
320,124,27697,1,2,0:0:0:0:
304,288,27904,1,8,0:0:0:0:
422,112,28111,1,0,0:0:0:0:
320,12,28317,6,0,L|224:20,1,90,2|2,0:0|0:0,0:0:0:0:
104,96,28731,2,0,L|200:104,1,90,8|2,0:0|0:0,0:0:0:0:
320,194,29145,2,0,L|224:186,1,90,0|2,0:0|0:0,0:0:0:0:
104,278,29559,2,0,L|193:270,1,90,8|0,0:0|0:0,0:0:0:0:
384,264,29973,6,0,P|412:220|412:156,1,90,2|2,0:0|0:0,0:0:0:0:
288,288,30386,1,8,0:0:0:0:
440,164,30593,2,0,P|442:111|410:56,1,90,2|0,0:0|0:0,0:0:0:0:
384,264,31007,1,2,0:0:0:0:
358,131,31214,1,8,0:0:0:0:
295,208,31421,1,0,0:0:0:0:
216,48,31628,6,0,L|224:144,1,90,2|2,0:0|0:0,0:0:0:0:
140,284,32042,2,0,L|148:188,1,90,8|2,0:0|0:0,0:0:0:0:
300,240,32455,2,0,L|308:336,1,90,0|2,0:0|0:0,0:0:0:0:
384,184,32869,2,0,L|376:88,1,90,8|0,0:0|0:0,0:0:0:0:
280,220,33283,5,2,0:0:0:0:
432,280,33490,1,2,0:0:0:0:
300,140,33697,1,8,0:0:0:0:
464,104,33904,1,2,0:0:0:0:
340,288,34111,1,2,0:0:0:0:
267,29,34317,1,8,0:0:0:0:
447,193,34524,1,2,0:0:0:0:
181,223,34731,1,10,0:0:0:0:
344,40,34938,6,0,L|350:129,1,90,6|2,0:0|0:0,0:0:0:0:
196,96,35352,1,8,0:0:0:0:
208,236,35559,2,0,L|216:340,1,90,2|0,0:0|0:0,0:0:0:0:
316,240,35973,1,2,0:0:0:0:
84,260,36180,2,0,L|90:170,1,90,8|0,0:0|0:0,0:0:0:0:
208,236,36593,5,2,0:0:0:0:
76,352,36800,1,2,0:0:0:0:
112,152,37007,1,8,0:0:0:0:
196,336,37214,2,0,B|304:364|268:292|380:316,1,180,2|2,0:0|0:0,0:0:0:0:
504,344,37835,1,8,0:0:0:0:
400,235,38042,2,0,L|420:179,1,45,0|0,0:0|2:0,0:0:0:0:
449,116,38248,5,2,0:0:0:0:
368,313,38455,1,2,0:0:0:0:
312,168,38662,1,8,0:0:0:0:
196,336,38869,2,0,B|172:308|172:308|168:232,1,90,2|0,0:0|0:0,0:0:0:0:
280,264,39283,1,2,0:0:0:0:
200,144,39490,2,0,B|172:128|172:128|104:128,1,90,8|0,0:0|0:0,0:0:0:0:
80,128,39800,1,0,0:0:0:0:
80,128,39904,5,2,0:0:0:0:
136,232,40111,1,2,0:0:0:0:
156,32,40317,1,8,0:0:0:0:
10,182,40524,1,2,0:0:0:0:
73,26,40731,1,2,0:0:0:0:
119,251,40938,1,2,0:0:0:0:
0,84,41145,1,8,0:0:0:0:
18,278,41352,1,0,0:0:0:0:
220,276,41559,6,0,P|256:228|262:151,1,135,2|0,0:0|0:0,0:0:0:0:
300,156,41973,2,0,P|304:222|343:276,1,135,8|0,0:0|0:0,0:0:0:0:
380,276,42386,2,0,B|416:228|416:228|422:151,1,135
448,128,42800,2,0,B|455:69|455:69|422:-1,1,135,8|0,0:0|0:0,0:0:0:0:
391,20,43214,6,0,P|353:42|309:38,1,90,2|2,0:0|0:0,0:0:0:0:
160,28,43628,1,8,0:0:0:0:
292,76,43835,2,0,P|314:114|310:158,1,90,2|0,0:0|0:0,0:0:0:0:
300,308,44249,1,2,0:0:0:0:
204,360,44455,2,0,B|208:312|208:312|184:216,1,135,8|0,0:0|0:0,0:0:0:0:
152,228,44869,6,0,B|130:312|130:312|134:360,1,135,2|0,0:0|0:0,0:0:0:0:
92,360,45283,2,0,B|96:312|96:312|72:216,1,135,8|0,0:0|0:0,0:0:0:0:
44,208,45697,2,0,P|112:160|112:88,1,135
152,96,46111,2,0,P|185:152|249:168,1,135,8|0,0:0|0:0,0:0:0:0:
280,148,46524,5,8,0:0:0:0:
228,336,46731,1,8,0:0:0:0:
376,252,46938,1,2,0:0:0:0:
232,84,47145,1,8,0:0:0:0:
302,295,47352,1,8,0:0:0:0:
316,48,47766,1,8,0:0:0:0:
320,60,47869,1,8,0:0:0:0:
324,72,47973,1,8,0:0:0:0:
158,184,48180,5,6,0:0:0:0:
0,156,48386,2,0,B|48:128|48:128|96:128,1,99.0000030212403,2|8,0:0|0:0,0:0:0:0:
86,273,48800,2,0,L|102:377,1,99.0000030212403,2|2,0:0|0:0,0:0:0:0:
200,312,49214,1,0,0:0:0:0:
200,312,49421,2,0,L|216:208,1,99.0000030212403,8|0,0:0|0:0,0:0:0:0:
296,214,49835,6,0,L|312:312,1,99.0000030212403,2|2,0:0|0:0,0:0:0:0:
410,370,50248,2,0,L|426:273,1,99.0000030212403,8|0,0:0|0:0,0:0:0:0:
488,144,50662,2,0,L|391:160,1,99.0000030212403,2|2,0:0|0:0,0:0:0:0:
215,182,51076,1,8,0:0:0:0:
325,240,51283,1,0,0:0:0:0:
309,111,51490,5,2,0:0:0:0:
233,265,51697,1,2,0:0:0:0:
390,160,51904,1,8,0:0:0:0:
322,33,52111,2,0,P|273:36|239:71,1,99.0000030212403,2|2,0:0|0:0,0:0:0:0:
233,288,52524,1,2,0:0:0:0:
281,151,52731,1,8,0:0:0:0:
308,336,52938,1,0,0:0:0:0:
170,135,53145,5,8,0:0:0:0:
348,224,53352,1,2,0:0:0:0:
152,300,53559,1,2,0:0:0:0:
276,120,53766,1,6,0:0:0:0:
308,356,53973,1,0,0:0:0:0:
360,100,54180,1,2,0:0:0:0:
232,328,54386,1,8,0:0:0:0:
219,55,54593,1,8,0:0:0:0:
360,224,54800,6,0,B|384:256|384:256|392:360,1,107.999996704102,6|2,0:0|0:0,0:0:0:0:
236,168,55214,2,0,L|292:164,1,53.9999983520508,8|0,0:0|2:0,0:0:0:0:
432,156,55421,1,2,0:0:0:0:
432,156,55524,1,8,0:0:0:0:
432,156,55628,1,0,0:0:0:0:
268,252,55835,1,2,0:0:0:0:
358,106,56042,5,8,0:0:0:0:
153,106,56248,2,0,B|176:224|88:208|112:312,1,215.999993408203,2|2,0:0|0:0,0:0:0:0:
256,192,56869,1,8,0:0:0:0:
400,310,57076,2,0,B|424:208|336:224|359:106,1,215.999993408203,2|2,0:0|0:0,0:0:0:0:
128,112,57697,1,12,0:0:0:0:
384,92,57904,1,0,0:0:0:0:
256,260,58111,6,0,L|244:152,1,107.999996704102,2|2,0:0|0:0,0:0:0:0:
372,244,58524,2,0,L|364:311,1,53.9999983520508,8|0,0:0|2:0,0:0:0:0:
264,356,58731,2,0,B|216:360|172:328|161:275|161:275|132:280|108:332,1,215.999993408203,2|2,0:0|0:0,0:0:0:0:
256,260,59352,5,8,0:0:0:0:
111,325,59559,2,0,B|88:207|176:223|152:119,1,215.999993408203,2|2,0:0|0:0,0:0:0:0:
256,284,60180,1,8,0:0:0:0:
359,120,60386,2,0,B|336:223|424:207|401:325,1,215.999993408203,0|8,0:0|0:0,0:0:0:0:
256,236,61007,1,8,0:0:0:0:
256,208,61111,1,8,0:0:0:0:
256,180,61214,1,2,0:0:0:0:
256,152,61317,1,2,0:0:0:0:
256,124,61421,5,6,0:0:0:0:
337,335,61628,1,2,0:0:0:0:
131,208,61835,1,8,0:0:0:0:
383,186,62042,1,2,0:0:0:0:
189,339,62248,1,0,0:0:0:0:
396,220,62455,1,2,0:0:0:0:
139,178,62662,1,8,0:0:0:0:
270,373,62869,1,2,0:0:0:0:
202,121,63076,5,0,0:0:0:0:
189,339,63283,1,2,0:0:0:0:
268,76,63490,1,8,0:0:0:0:
143,270,63697,1,2,0:0:0:0:
143,270,63800,1,8,0:0:0:0:
143,270,63904,1,0,0:0:0:0:
312,280,64111,6,0,B|336:248|336:248|340:152,2,107.999996704102,2|8|0,0:0|0:0|0:0,0:0:0:0:
241,175,64731,2,0,B|244:108|244:108|268:76,1,107.999996704102,2|2,0:0|0:0,0:0:0:0:
433,185,65145,1,8,0:0:0:0:
212,272,65352,1,2,0:0:0:0:
212,272,65455,1,8,0:0:0:0:
212,272,65559,1,2,0:0:0:0:
150,200,65766,1,2,0:0:0:0:
264,344,65973,1,8,0:0:0:0:
240,184,66180,1,2,0:0:0:0:
120,368,66386,5,2,0:0:0:0:
324,220,66593,1,8,0:0:0:0:
327,193,66696,1,8,0:0:0:0:
331,166,66799,1,2,0:0:0:0:
335,139,66903,1,2,0:0:0:0:
339,113,67007,2,0,P|313:104|286:104,1,53.9999983520508,2|2,0:0|2:0,0:0:0:0:
200,126,67214,2,0,P|225:134|252:134,1,53.9999983520508,2|2,0:0|2:0,0:0:0:0:
153,8,67421,2,0,L|144:61,1,53.9999983520508,2|0,0:0|2:0,0:0:0:0:
128,180,67628,1,8,0:0:0:0:
128,180,67731,1,8,0:0:0:0:
128,180,67835,1,2,0:0:0:0:
56,112,68042,6,0,L|37:218,1,107.999996704102,6|2,0:0|2:0,0:0:0:0:
84,343,68455,2,0,L|144:355,1,53.9999983520508,8|0,0:0|2:0,0:0:0:0:
228,376,68662,1,2,0:0:0:0:
228,376,68766,1,8,0:0:0:0:
228,376,68869,1,0,0:0:0:0:
352,140,69076,1,2,0:0:0:0:
256,188,69283,5,8,0:0:0:0:
444,240,69490,2,0,B|326:217|342:305|238:281,1,215.999993408203,2|2,0:0|0:0,0:0:0:0:
148,188,70111,1,8,0:0:0:0:
280,34,70317,2,0,B|178:11|194:99|76:76,1,215.999993408203,2|2,0:0|0:0,0:0:0:0:
128,272,70938,1,8,0:0:0:0:
52,52,71145,1,0,0:0:0:0:
203,199,71352,5,2,0:0:0:0:
278,105,71559,1,2,0:0:0:0:
303,282,71766,1,8,0:0:0:0:
418,162,71973,2,0,B|463:228|458:310|458:310|418:306|404:287,1,215.999993408203,2|2,0:0|0:0,0:0:0:0:
291,200,72593,5,8,0:0:0:0:
448,48,72800,2,0,B|346:25|362:113|244:90,1,215.999993408203,2|2,0:0|0:0,0:0:0:0:
108,40,73421,1,8,0:0:0:0:
118,214,73628,1,2,0:0:0:0:
280,15,73835,1,0,0:0:0:0:
208,240,74042,1,2,0:0:0:0:
208,240,74145,1,8,0:0:0:0:
208,240,74248,1,0,0:0:0:0:
44,188,74455,1,2,0:0:0:0:
148,332,74662,6,0,P|199:351|256:333,1,107.999996704102,6|2,0:0|0:0,0:0:0:0:
360,188,75076,2,0,P|318:222|305:281,1,107.999996704102,8|2,0:0|0:0,0:0:0:0:
432,360,75490,2,0,P|422:306|378:265,1,107.999996704102,2|2,0:0|0:0,0:0:0:0:
228,244,75904,1,8,0:0:0:0:
340,348,76111,1,2,0:0:0:0:
300,148,76317,6,0,L|288:40,1,107.999996704102,2|2,0:0|0:0,0:0:0:0:
128,96,76731,1,8,0:0:0:0:
220,96,76938,1,2,0:0:0:0:
56,40,77145,2,0,L|44:148,1,107.999996704102,2|2,0:0|0:0,0:0:0:0:
200,272,77559,1,8,0:0:0:0:
176,172,77766,1,2,0:0:0:0:
128,348,77973,5,8,0:0:0:0:
272,196,78180,1,2,0:0:0:0:
28,164,78386,1,2,0:0:0:0:
208,376,78593,1,2,0:0:0:0:
242,101,78800,1,8,0:0:0:0:
284,332,79007,1,2,0:0:0:0:
284,332,79111,1,2,0:0:0:0:
284,332,79214,2,0,L|360:328,1,53.9999983520508,8|2,0:0|0:0,0:0:0:0:
216,248,79421,2,0,L|140:252,1,53.9999983520508,2|2,0:0|0:0,0:0:0:0:
312,200,79628,6,0,B|308:112|308:112|328:69,1,135,6|0,0:0|0:0,0:0:0:0:
292,72,80042,2,0,P|235:92|168:66,1,135,12|0,0:0|0:0,0:0:0:0:
136,84,80455,2,0,P|156:140|130:207,1,135,8|0,0:0|0:0,0:0:0:0:
104,235,80869,6,0,B|247:210|182:304|333:275,1,242.999992584229,6|2,0:0|0:0,0:0:0:0:
396,212,81697,1,8,0:0:0:0:
304,196,81904,1,2,0:0:0:0:
336,360,82111,1,2,0:0:0:0:
416,312,82317,1,2,0:0:0:0:
256,292,82524,1,8,0:0:0:0:
396,212,82731,1,2,0:0:0:0:
300,68,82938,6,0,P|320:133|303:196,1,135,6|0,0:0|0:0,0:0:0:0:
268,200,83352,2,0,B|207:175|207:175|143:203,1,135,12|0,0:0|0:0,0:0:0:0:
116,224,83766,2,0,B|141:285|141:285|113:349,1,135,8|0,0:0|0:0,0:0:0:0:
136,368,84180,6,0,B|279:393|214:299|365:328,1,242.999992584229,6|2,0:0|0:0,0:0:0:0:
456,360,85007,1,8,0:0:0:0:
484,264,85214,1,2,0:0:0:0:
391,174,85421,2,0,L|468:166,2,60,8|8|2,0:0|0:0|0:0,0:0:0:0:
352,200,85835,2,0,L|275:192,2,60,8|8|0,0:0|0:0|0:0,0:0:0:0:
360,236,86248,6,0,L|372:332,1,90,6|2,0:0|0:0,0:0:0:0:
260,376,86662,2,0,L|272:280,1,90,8|2,0:0|0:0,0:0:0:0:
288,144,87076,1,2,0:0:0:0:
168,252,87283,1,2,0:0:0:0:
185,110,87490,5,6,0:0:0:0:
256,192,87904,12,0,89559,0:0:0:0:
