osu file format v14

[General]
AudioFilename: audio.mp3
AudioLeadIn: 0
PreviewTime: 43249
Countdown: 1
SampleSet: Normal
StackLeniency: 0.7
Mode: 0
LetterboxInBreaks: 0
WidescreenStoryboard: 0

[Editor]
Bookmarks: 19801,43249,67904,87215,109111,126697,128077,130835,152904,163422,181870
DistanceSpacing: 1.5
BeatDivisor: 4
GridSize: 16
TimelineZoom: 2.3

[Metadata]
Title:Crow Song
TitleUnicode:Crow Song
Artist:Girls Dead Monster
ArtistUnicode:Girls Dead Monster
Creator:Ameyy
Version:Tenshi
Source:
Tags:
BeatmapID:1146319
BeatmapSetID:540594

[Difficulty]
HPDrainRate:7
CircleSize:4
OverallDifficulty:8
ApproachRate:9
SliderMultiplier:1.8
SliderTickRate:1

[Events]
//Background and Video events
0,0,"8a963e7548c0c0c8e08c3898630aea7c.jpg",0,0
//Break Periods
2,68104,70235
2,155663,162822
//Storyboard Layer 0 (Background)
//Storyboard Layer 1 (Fail)
//Storyboard Layer 2 (Pass)
//Storyboard Layer 3 (Foreground)
//Storyboard Sound Samples

[TimingPoints]
491,344.827586206897,4,1,0,100,1,0
491,-100,4,2,0,30,0,0
3249,-100,4,2,0,70,0,0
19801,-90.9090909090909,4,2,0,70,0,0
19973,-90.9090909090909,4,2,0,70,0,0
24284,-100,4,2,0,70,0,0
24628,-111.111111111111,4,2,0,70,0,0
24973,-125,4,2,0,70,0,0
25318,-100,4,2,0,70,0,0
36353,-90.9090909090909,4,2,0,70,0,0
37042,-90.9090909090909,4,3,0,70,0,0
37732,-90.9090909090909,4,2,0,70,0,0
38422,-90.9090909090909,4,3,0,70,0,0
39111,-90.9090909090909,4,2,0,70,0,0
40491,-90.9090909090909,4,3,0,70,0,0
41697,-125,4,3,0,30,0,0
42559,-125,4,1,0,60,0,0
43249,-90.9090909090909,4,1,0,60,0,1
53939,-83.3333333333333,4,1,0,60,0,0
54284,-83.3333333333333,4,1,0,60,0,1
65146,-100,4,1,0,60,0,0
70835,-100,4,2,0,70,0,0
70835,-100,4,2,0,70,0,0
81870,-90.9090909090909,4,2,0,70,0,0
82559,-90.9090909090909,4,3,0,70,0,0
83249,-90.9090909090909,4,2,0,70,0,0
83939,-90.9090909090909,4,3,0,70,0,0
84628,-90.9090909090909,4,2,0,70,0,0
86008,-90.9090909090909,4,3,0,70,0,0
87042,-90.9090909090909,4,1,0,70,0,0
87387,-83.3333333333333,4,1,0,60,0,1
98249,-83.3333333333333,4,1,0,60,0,0
98422,-83.3333333333333,4,1,0,60,0,1
109111,-83.3333333333333,4,1,0,60,0,0
109456,-83.3333333333333,4,1,0,60,0,1
114628,-83.3333333333333,4,1,0,60,0,0
114973,-83.3333333333333,4,1,0,60,0,1
114973,-76.9230769230769,4,1,0,60,0,1
119801,-100,4,1,0,60,0,0
130835,-90.9090909090909,4,1,0,60,0,0
143422,-111.111111111111,4,1,0,60,0,0
143939,-90.9090909090909,4,1,0,60,0,0
163422,-100,4,1,0,60,0,0
163939,-100,4,2,0,70,0,0
164628,-100,4,3,0,70,0,0
165318,-100,4,2,0,70,0,0
169456,-100,4,3,0,70,0,0
170835,-83.3333333333333,4,1,0,60,0,1
181525,-83.3333333333333,4,1,0,60,0,0
181870,-83.3333333333333,4,1,0,60,0,1

[HitObjects]
256,315,491,5,2,0:0:0:0:
132,191,836,1,2,0:0:0:0:
256,68,1181,1,2,0:0:0:0:
379,192,1525,1,2,0:0:0:0:
182,16,1870,5,8,0:0:0:0:
148,28,1956,1,8,0:0:0:0:
114,41,2042,1,8,0:0:0:0:
87,64,2128,1,8,0:0:0:0:
67,94,2215,1,8,0:0:0:0:
54,127,2301,1,8,0:0:0:0:
45,161,2387,1,8,0:0:0:0:
46,196,2473,1,8,0:0:0:0:
57,230,2559,1,8,0:0:0:0:
77,259,2646,1,8,0:0:0:0:
97,288,2732,1,8,0:0:0:0:
121,313,2818,1,8,0:0:0:0:
149,334,2904,1,8,0:0:0:0:
182,347,2991,1,8,0:0:0:0:
217,353,3077,1,8,0:0:0:0:
252,352,3163,1,8,0:0:0:0:
277,342,3249,6,0,B|334:317|400:338,1,90,4|0,0:0|0:0,0:0:0:0:
426,220,3594,1,8,0:0:0:0:
452,335,3766,1,0,0:0:0:0:
368,124,3939,2,0,L|273:151,1,90
113,53,4284,2,0,L|208:80,1,90,8|0,0:0|0:0,0:0:0:0:
199,212,4628,5,0,0:0:0:0:
276,42,4801,1,0,0:0:0:0:
289,241,4973,2,0,L|249:341,1,90,8|0,0:0|0:0,0:0:0:0:
361,180,5318,2,0,P|327:155|250:156,1,90
199,212,5663,1,8,0:0:0:0:
450,181,5835,1,0,0:0:0:0:
256,326,6008,6,0,B|208:331|208:331|143:360,1,90
77,249,6353,1,8,0:0:0:0:
308,254,6525,1,0,0:0:0:0:
115,149,6697,2,0,L|74:254,1,90
240,111,7042,2,0,L|199:216,1,90,8|0,0:0|0:0,0:0:0:0:
330,60,7387,5,0,0:0:0:0:
147,77,7559,1,0,0:0:0:0:
398,16,7732,2,0,P|410:74|375:129,1,90,8|0,0:0|0:0,0:0:0:0:
308,255,8077,2,0,P|296:197|331:142,1,90
381,348,8422,2,0,L|275:348,1,90,8|0,0:0|0:0,0:0:0:0:
399,268,8766,5,0,0:0:0:0:
221,315,8939,1,0,0:0:0:0:
457,198,9111,2,0,P|447:160|452:99,1,90,8|0,0:0|0:0,0:0:0:0:
511,13,9456,1,0,0:0:0:0:
308,166,9628,1,0,0:0:0:0:
186,39,9801,2,0,L|296:61,1,90,8|0,0:0|0:0,0:0:0:0:
308,166,10146,5,0,0:0:0:0:
156,123,10318,1,0,0:0:0:0:
35,268,10491,2,0,L|103:181,1,90,8|0,0:0|0:0,0:0:0:0:
202,271,10835,1,0,0:0:0:0:
308,166,11008,1,0,0:0:0:0:
90,195,11180,2,0,P|154:200|206:191,1,90,8|0,0:0|0:0,0:0:0:0:
397,168,11525,6,0,P|333:163|281:172,1,90
402,262,11870,1,8,0:0:0:0:
469,49,12042,1,0,0:0:0:0:
272,97,12215,2,0,P|232:142|244:201,1,90
360,334,12559,2,0,P|400:289|388:230,1,90,8|0,0:0|0:0,0:0:0:0:
266,275,12904,5,0,0:0:0:0:
482,209,13077,1,0,0:0:0:0:
232,171,13249,1,8,0:0:0:0:
470,202,13422,1,0,0:0:0:0:
345,71,13594,1,0,0:0:0:0:
359,335,13766,1,0,0:0:0:0:
232,171,13939,1,8,0:0:0:0:
200,167,14025,1,0,0:0:0:0:
168,169,14111,1,0,0:0:0:0:
137,176,14197,1,0,0:0:0:0:
106,185,14284,6,0,L|54:277,1,90,4|0,0:0|0:0,0:0:0:0:
189,305,14628,1,8,0:0:0:0:
70,91,14801,1,0,0:0:0:0:
273,71,14973,2,0,B|227:77|227:77|150:66,1,90
299,0,15318,1,8,0:0:0:0:
370,195,15491,1,0,0:0:0:0:
453,78,15663,6,0,L|485:181,1,90
400,293,16008,2,0,L|368:190,1,90,8|0,0:0|0:0,0:0:0:0:
224,120,16353,2,0,L|256:223,1,90
163,349,16697,2,0,L|131:246,1,90,8|0,0:0|0:0,0:0:0:0:
245,342,17042,5,0,0:0:0:0:
78,172,17215,1,0,0:0:0:0:
251,208,17387,2,0,P|310:203|354:184,1,90,8|0,0:0|0:0,0:0:0:0:
220,125,17732,1,0,0:0:0:0:
427,275,17904,1,0,0:0:0:0:
420,155,18077,2,0,L|308:206,1,90,8|0,0:0|0:0,0:0:0:0:
401,72,18422,5,0,0:0:0:0:
427,275,18594,1,0,0:0:0:0:
216,131,18766,2,0,L|296:54,1,90,8|0,0:0|0:0,0:0:0:0:
255,227,19111,2,0,L|190:289,1,90
307,157,19456,1,8,0:0:0:0:
326,175,19542,1,0,0:0:0:0:
337,199,19628,1,0,0:0:0:0:
343,225,19715,1,0,0:0:0:0:
352,256,19801,6,0,L|256:352,1,99.0000030212403,4|0,0:0|0:0,0:0:0:0:
426,290,20146,1,8,0:0:0:0:
427,115,20318,1,0,0:0:0:0:
271,64,20491,2,0,L|313:172,1,99.0000030212403
194,68,20835,2,0,P|219:7|261:-12,1,99.0000030212403,8|0,0:0|0:0,0:0:0:0:
427,115,21180,6,0,P|414:161|375:191,1,99.0000030212403
386,42,21525,1,8,0:0:0:0:
261,228,21697,1,0,0:0:0:0:
134,139,21870,2,0,L|228:209,1,99.0000030212403
94,287,22215,1,8,0:0:0:0:
240,309,22387,1,0,0:0:0:0:
132,137,22559,6,0,B|139:85|139:85|172:24,1,99.0000030212403
310,49,22904,1,8,0:0:0:0:
57,164,23077,1,0,0:0:0:0:
270,138,23249,1,0,0:0:0:0:
6,100,23422,2,0,P|-19:155|-6:217,1,99.0000030212403,0|8,0:0|0:0,0:0:0:0:
130,210,23766,1,0,0:0:0:0:
270,138,23939,6,0,L|374:181,1,99.0000030212403
433,290,24284,2,0,L|324:247,1,90,8|0,0:0|0:0,0:0:0:0:
221,273,24628,2,0,L|312:318,1,80.9999975280763
171,335,24973,1,8,0:0:0:0:
152,313,25059,1,0,0:0:0:0:
142,286,25145,1,0,0:0:0:0:
143,257,25231,1,0,0:0:0:0:
141,226,25318,6,0,P|91:167|77:122,1,90,4|0,0:0|0:0,0:0:0:0:
189,68,25663,1,8,0:0:0:0:
313,118,25835,1,0,0:0:0:0:
232,223,26008,1,0,0:0:0:0:
288,44,26180,2,0,P|346:48|387:91,1,90,0|8,0:0|0:0,0:0:0:0:
232,223,26525,5,0,0:0:0:0:
382,180,26697,1,0,0:0:0:0:
152,202,26870,2,0,L|95:289,1,90,0|8,0:0|0:0,0:0:0:0:
309,210,27215,1,0,0:0:0:0:
229,81,27387,1,0,0:0:0:0:
153,202,27559,1,0,0:0:0:0:
309,303,27732,6,0,B|350:295|350:295|401:258,1,90,8|0,0:0|0:0,0:0:0:0:
389,266,27991,1,0,0:0:0:0:
389,266,28077,1,0,0:0:0:0:
432,120,28249,1,0,0:0:0:0:
479,277,28422,2,0,L|503:367,1,90,8|0,0:0|0:0,0:0:0:0:
432,120,28766,1,0,0:0:0:0:
304,62,28939,1,0,0:0:0:0:
285,216,29111,2,0,L|309:306,1,90,8|0,0:0|0:0,0:0:0:0:
207,191,29456,6,0,P|250:140|308:140,1,90
183,296,29801,2,0,P|140:347|82:347,1,90,8|0,0:0|0:0,0:0:0:0:
32,233,30146,2,0,L|123:233,1,90,0|2,0:0|0:0,0:0:0:0:
183,296,30491,1,8,0:0:0:0:
73,139,30663,1,2,0:0:0:0:
73,139,30749,1,2,0:0:0:0:
73,139,30835,6,4,B|69:89|69:89|91:35,1,90,2|0,0:0|0:0,0:0:0:0:
208,105,31180,1,8,0:0:0:0:
318,183,31353,1,0,0:0:0:0:
190,227,31525,1,0,0:0:0:0:
335,72,31697,2,0,P|388:88|417:131,1,90,0|8,0:0|0:0,0:0:0:0:
426,247,32042,5,0,0:0:0:0:
496,131,32215,1,0,0:0:0:0:
318,183,32387,1,0,0:0:0:0:
499,289,32559,2,0,P|453:326|399:319,1,90,8|0,0:0|0:0,0:0:0:0:
318,183,32904,5,0,0:0:0:0:
246,307,33077,1,0,0:0:0:0:
425,244,33249,1,8,0:0:0:0:
199,215,33422,1,2,0:0:0:0:
199,215,33508,1,2,0:0:0:0:
199,215,33594,6,0,L|83:193,2,90,0|0|8,0:0|0:0|0:0,0:0:0:0:
197,79,34111,1,0,0:0:0:0:
73,134,34284,2,0,P|35:189|48:231,1,90
142,291,34628,1,8,0:0:0:0:
254,194,34801,5,0,0:0:0:0:
413,286,34973,1,0,0:0:0:0:
381,117,35146,1,0,0:0:0:0:
285,300,35318,1,8,0:0:0:0:
485,207,35491,1,2,0:0:0:0:
237,113,35663,1,2,0:0:0:0:
446,317,35835,1,0,0:0:0:0:
187,228,36008,1,8,0:0:0:0:
381,117,36180,5,0,0:0:0:0:
381,117,36266,1,0,0:0:0:0:
381,117,36353,2,0,L|474:49,1,99.0000030212403,4|0,0:0|0:0,0:0:0:0:
405,206,36697,2,0,P|338:203|304:157,1,99.0000030212403,8|0,0:0|0:0,0:0:0:0:
168,165,37042,1,0,0:0:0:0:
257,284,37215,1,0,0:0:0:0:
94,247,37387,1,8,0:0:0:0:
332,302,37559,1,0,0:0:0:0:
80,243,37732,6,0,P|48:171|62:126,1,99.0000030212403
197,75,38077,2,0,P|194:123|167:164,1,99.0000030212403,8|0,0:0|0:0,0:0:0:0:
111,26,38422,1,0,0:0:0:0:
285,49,38594,1,0,0:0:0:0:
93,24,38766,1,8,0:0:0:0:
304,50,38939,1,0,0:0:0:0:
70,21,39111,6,0,L|12:106,1,99.0000030212403
223,246,39456,2,0,L|167:164,1,99.0000030212403,8|0,0:0|0:0,0:0:0:0:
162,313,39801,1,0,0:0:0:0:
292,201,39973,2,0,B|337:198|337:198|404:222,2,99.0000030212403,0|8|0,0:0|0:0|0:0,0:0:0:0:
338,343,40491,5,0,0:0:0:0:
461,158,40663,1,0,0:0:0:0:
492,325,40835,1,8,0:0:0:0:
385,98,41008,2,0,P|325:94|264:67,1,99.0000030212403
427,26,41353,2,0,P|465:75|452:142,1,99.0000030212403,0|8,0:0|0:0,0:0:0:0:
351,191,41697,5,0,0:0:0:0:
200,185,41870,2,4,L|150:271,1,72
385,253,42215,2,4,L|341:174,1,72,12|4,0:0|0:0,0:0:0:0:
128,122,42559,1,0,0:0:0:0:
111,136,42646,1,0,0:0:0:0:
96,151,42732,1,0,0:0:0:0:
83,168,42818,1,0,0:0:0:0:
72,186,42904,1,0,0:0:0:0:
64,206,42991,1,0,0:0:0:0:
57,226,43077,1,0,0:0:0:0:
52,247,43163,1,0,0:0:0:0:
54,266,43249,6,0,B|102:255|102:255|130:268|130:268|164:246|254:274,1,198.000006042481,4|8,0:0|0:0,0:0:0:0:
368,187,43766,1,0,0:0:0:0:
324,327,43939,2,0,P|265:293|239:263,1,99.0000030212403
288,130,44284,2,0,P|347:164|373:194,1,99.0000030212403,8|0,0:0|0:0,0:0:0:0:
219,196,44628,1,0,0:0:0:0:
441,249,44801,1,0,0:0:0:0:
268,55,44973,1,8,0:0:0:0:
493,116,45146,1,0,0:0:0:0:
171,129,45318,6,0,P|141:181|161:254,1,99.0000030212403
268,55,45663,2,0,P|188:14|144:22,1,99.0000030212403,8|0,0:0|0:0,0:0:0:0:
268,55,46008,2,0,P|363:72|473:59,1,198.000006042481,4|8,0:0|0:0,0:0:0:0:
475,210,46525,1,0,0:0:0:0:
310,315,46697,1,0,0:0:0:0:
459,209,46870,1,0,0:0:0:0:
169,201,47042,1,8,0:0:0:0:
439,209,47215,1,0,0:0:0:0:
153,199,47387,6,0,B|104:184|104:184|58:145,1,99.0000030212403
198,82,47732,1,8,0:0:0:0:
267,223,47904,1,0,0:0:0:0:
304,58,48077,1,0,0:0:0:0:
173,278,48249,1,0,0:0:0:0:
357,169,48422,1,8,0:0:0:0:
67,153,48594,1,0,0:0:0:0:
375,169,48766,6,0,B|332:266|408:266|370:366,1,198.000006042481,4|8,0:0|0:0,0:0:0:0:
451,226,49284,1,0,0:0:0:0:
432,87,49456,2,0,L|325:54,2,99.0000030212403,0|0|8,0:0|0:0|0:0,0:0:0:0:
451,226,49973,1,0,0:0:0:0:
266,264,50146,6,0,P|203:273|156:222,1,99.0000030212403
217,107,50491,2,0,P|235:160|211:221,1,99.0000030212403,8|0,0:0|0:0,0:0:0:0:
68,154,50835,2,0,P|124:141|166:168,1,99.0000030212403
123,312,51180,2,0,P|102:253|117:206,1,99.0000030212403,8|0,0:0|0:0,0:0:0:0:
141,60,51525,5,4,0:0:0:0:
227,201,51697,2,0,L|325:185,1,99.0000030212403,0|8,0:0|0:0,0:0:0:0:
393,317,52042,1,0,0:0:0:0:
415,131,52215,1,0,0:0:0:0:
313,293,52387,2,0,P|315:350|343:384,1,99.0000030212403,0|8,0:0|0:0,0:0:0:0:
415,131,52732,5,0,0:0:0:0:
393,317,52904,1,0,0:0:0:0:
339,104,53077,1,0,0:0:0:0:
312,293,53249,1,8,0:0:0:0:
485,207,53422,1,0,0:0:0:0:
243,168,53594,1,0,0:0:0:0:
506,211,53766,1,0,0:0:0:0:
219,164,53939,1,8,0:0:0:0:
197,163,54025,1,0,0:0:0:0:
175,164,54111,1,0,0:0:0:0:
153,167,54197,1,0,0:0:0:0:
132,172,54284,6,0,P|108:241|199:341,1,215.999993408203,4|8,0:0|0:0,0:0:0:0:
311,228,54801,1,0,0:0:0:0:
287,365,54973,2,0,P|249:373|183:317,1,107.999996704102
311,228,55318,2,0,L|408:284,1,107.999996704102,8|0,0:0|0:0,0:0:0:0:
323,141,55663,5,0,0:0:0:0:
254,297,55835,1,0,0:0:0:0:
418,178,56008,5,8,0:0:0:0:
292,42,56180,1,0,0:0:0:0:
180,241,56353,1,0,0:0:0:0:
404,281,56525,1,0,0:0:0:0:
195,87,56697,1,8,0:0:0:0:
429,108,56870,1,0,0:0:0:0:
181,88,57042,6,0,B|132:88|132:88|34:106|34:106|-38:105,1,215.999993408203,4|8,0:0|0:0,0:0:0:0:
115,171,57559,1,0,0:0:0:0:
126,15,57732,2,0,L|9:38,1,107.999996704102
75,266,58077,2,0,L|191:239,1,107.999996704102,8|0,0:0|0:0,0:0:0:0:
20,210,58422,6,0,P|-4:273|23:325,1,107.999996704102
230,297,58766,2,0,P|254:234|227:182,1,107.999996704102,8|0,0:0|0:0,0:0:0:0:
166,342,59111,2,0,P|228:375|276:358,1,107.999996704102
390,267,59456,5,8,0:0:0:0:
390,267,59542,1,0,0:0:0:0:
390,267,59628,1,0,0:0:0:0:
390,267,59715,1,0,0:0:0:0:
390,267,59801,6,0,B|383:208|408:162|408:162|379:115|388:49,1,215.999993408203,4|8,0:0|0:0,0:0:0:0:
288,128,60318,1,0,0:0:0:0:
270,275,60491,2,0,B|286:322|286:322|337:360,2,107.999996704102,0|0|8,0:0|0:0|0:0,0:0:0:0:
205,127,61008,1,0,0:0:0:0:
288,128,61180,5,0,0:0:0:0:
129,91,61353,1,0,0:0:0:0:
249,219,61525,1,8,0:0:0:0:
224,32,61697,1,0,0:0:0:0:
128,192,61870,1,0,0:0:0:0:
316,140,62042,5,0,0:0:0:0:
100,80,62215,1,8,0:0:0:0:
263,239,62387,1,0,0:0:0:0:
235,4,62559,6,0,B|292:9|334:51|334:51|374:9|437:5,1,215.999993408203,4|8,0:0|0:0,0:0:0:0:
476,161,63077,1,0,0:0:0:0:
316,140,63249,2,0,B|265:157|265:157|185:152,1,107.999996704102
48,155,63594,1,8,0:0:0:0:
147,282,63766,1,0,0:0:0:0:
51,134,63939,6,0,L|141:62,2,107.999996704102,0|0|8,0:0|0:0|0:0,0:0:0:0:
165,297,64456,2,0,L|79:384,2,107.999996704102
322,335,64973,1,8,0:0:0:0:
349,317,65059,1,0,0:0:0:0:
372,302,65146,1,0,0:0:0:0:
395,288,65232,1,0,0:0:0:0:
418,275,65318,1,0,0:0:0:0:
275,127,65491,5,0,0:0:0:0:
302,241,65663,1,8,0:0:0:0:
190,207,65835,1,0,0:0:0:0:
363,171,66008,5,0,0:0:0:0:
184,109,66180,1,0,0:0:0:0:
220,295,66353,1,8,0:0:0:0:
302,81,66525,5,0,0:0:0:0:
137,206,66697,1,0,0:0:0:0:
327,287,66870,1,0,0:0:0:0:
394,170,67042,5,8,0:0:0:0:
167,82,67215,1,0,0:0:0:0:
205,322,67387,1,0,0:0:0:0:
302,81,67559,6,0,L|250:190,1,90,0|8,0:0|0:0,0:0:0:0:
177,229,67904,1,4,0:0:0:0:
190,251,70835,6,0,L|230:143,1,90
283,287,71180,1,8,0:0:0:0:
155,83,71353,1,0,0:0:0:0:
305,140,71525,2,0,P|226:167|189:159,1,90
299,56,71870,1,8,0:0:0:0:
364,250,72042,1,0,0:0:0:0:
310,53,72215,2,0,B|354:57|354:57|414:86,1,90
364,250,72559,6,0,L|417:158,1,90,8|0,0:0|0:0,0:0:0:0:
412,307,72904,2,0,P|354:324|306:296,1,90
210,248,73249,1,8,0:0:0:0:
461,236,73422,1,0,0:0:0:0:
461,236,73508,1,0,0:0:0:0:
461,236,73594,6,0,P|495:293|487:344,1,90
368,361,73939,1,8,0:0:0:0:
210,248,74111,1,0,0:0:0:0:
228,371,74284,1,0,0:0:0:0:
254,161,74456,2,0,B|208:150|208:150|137:173,1,90,0|8,0:0|0:0,0:0:0:0:
273,78,74801,5,0,0:0:0:0:
359,181,74973,1,0,0:0:0:0:
446,77,75146,1,0,0:0:0:0:
199,28,75318,2,0,L|112:77,1,90,8|0,0:0|0:0,0:0:0:0:
78,200,75663,1,0,0:0:0:0:
250,150,75835,1,2,0:0:0:0:
46,202,76008,1,8,0:0:0:0:
280,135,76180,1,2,0:0:0:0:
280,135,76266,1,2,0:0:0:0:
280,135,76353,6,0,B|299:172|299:172|300:244,1,90
218,327,76697,2,0,B|199:290|199:290|198:218,1,90,8|0,0:0|0:0,0:0:0:0:
388,160,77042,1,0,0:0:0:0:
294,346,77215,2,0,P|263:389|201:399,1,90,0|8,0:0|0:0,0:0:0:0:
109,341,77559,1,0,0:0:0:0:
198,241,77732,1,0,0:0:0:0:
329,272,77904,2,0,L|414:333,2,90,0|8|0,0:0|0:0|0:0,0:0:0:0:
391,150,78422,5,0,0:0:0:0:
465,262,78594,1,0,0:0:0:0:
498,60,78766,1,8,0:0:0:0:
298,104,78939,1,0,0:0:0:0:
298,104,79025,1,0,0:0:0:0:
298,104,79111,6,0,P|283:162|315:218,1,90
465,262,79456,2,0,P|473:218|458:176,1,90,8|0,0:0|0:0,0:0:0:0:
382,64,79801,1,0,0:0:0:0:
205,164,79973,1,0,0:0:0:0:
266,275,80146,2,0,L|294:176,1,90,8|0,0:0|0:0,0:0:0:0:
189,278,80491,6,0,P|219:337|269:351,1,90
352,276,80835,1,8,0:0:0:0:
205,164,81008,1,2,0:0:0:0:
124,331,81180,1,2,0:0:0:0:
288,187,81353,1,0,0:0:0:0:
105,101,81525,1,8,0:0:0:0:
105,101,81611,1,0,0:0:0:0:
105,101,81697,1,0,0:0:0:0:
105,101,81784,1,0,0:0:0:0:
105,101,81870,6,0,P|85:163|100:228,1,99.0000030212403
270,281,82215,2,0,P|290:219|275:154,1,99.0000030212403,8|0,0:0|0:0,0:0:0:0:
390,88,82559,1,0,0:0:0:0:
419,226,82732,1,0,0:0:0:0:
450,27,82904,1,8,0:0:0:0:
403,223,83077,1,0,0:0:0:0:
434,24,83249,6,0,B|382:15|382:15|309:42,1,99.0000030212403
333,179,83594,2,0,P|325:242|351:292,1,99.0000030212403,8|0,0:0|0:0,0:0:0:0:
408,142,83939,1,0,0:0:0:0:
263,110,84111,1,0,0:0:0:0:
483,94,84284,1,8,0:0:0:0:
239,111,84456,1,0,0:0:0:0:
501,91,84628,6,0,L|521:206,1,99.0000030212403
405,286,84973,1,8,0:0:0:0:
266,340,85146,1,0,0:0:0:0:
422,211,85318,2,0,P|471:247|474:317,1,99.0000030212403
340,230,85663,2,0,P|354:158|410:128,1,99.0000030212403,8|0,0:0|0:0,0:0:0:0:
405,286,86008,5,0,0:0:0:0:
259,215,86180,1,0,0:0:0:0:
126,284,86353,1,8,0:0:0:0:
176,144,86525,1,0,0:0:0:0:
207,288,86697,2,0,P|177:346|111:362,1,99.0000030212403
176,144,87042,1,8,0:0:0:0:
207,120,87128,1,0,0:0:0:0:
243,104,87215,1,0,0:0:0:0:
281,93,87301,1,0,0:0:0:0:
324,91,87387,6,0,B|375:136|407:230|407:230|309:212,1,215.999993408203,4|8,0:0|0:0,0:0:0:0:
192,240,87904,1,0,0:0:0:0:
243,104,88077,2,0,B|248:48|248:48|307:3,1,107.999996704102
108,259,88422,2,0,P|121:197|178:155,1,107.999996704102,8|0,0:0|0:0,0:0:0:0:
382,298,88766,5,0,0:0:0:0:
192,240,88939,1,0,0:0:0:0:
416,155,89111,5,8,0:0:0:0:
257,332,89284,1,0,0:0:0:0:
382,298,89456,5,0,0:0:0:0:
340,85,89628,1,0,0:0:0:0:
192,240,89801,5,8,0:0:0:0:
416,155,89973,1,0,0:0:0:0:
282,31,90146,6,0,B|245:20|245:20|232:116|316:221,1,215.999993408203,4|8,0:0|0:0,0:0:0:0:
404,303,90663,1,0,0:0:0:0:
416,155,90835,2,0,P|444:103|497:73,1,107.999996704102
404,303,91180,2,0,P|376:355|323:385,1,107.999996704102,8|0,0:0|0:0,0:0:0:0:
487,321,91525,5,0,0:0:0:0:
345,242,91697,1,0,0:0:0:0:
212,337,91870,1,8,0:0:0:0:
363,232,92042,1,0,0:0:0:0:
203,148,92215,1,0,0:0:0:0:
337,380,92387,1,0,0:0:0:0:
111,260,92559,1,8,0:0:0:0:
381,227,92732,1,0,0:0:0:0:
90,255,92904,6,0,P|54:202|79:51,1,215.999993408203,4|8,0:0|0:0,0:0:0:0:
215,139,93422,1,0,0:0:0:0:
367,85,93594,2,0,B|425:58|425:114|499:63,1,107.999996704102
331,161,93939,2,0,P|289:105|294:42,1,107.999996704102,8|0,0:0|0:0,0:0:0:0:
437,8,94284,1,0,0:0:0:0:
491,160,94456,1,0,0:0:0:0:
329,161,94628,2,0,P|276:160|224:218,1,107.999996704102,8|0,0:0|0:0,0:0:0:0:
117,318,94973,5,0,0:0:0:0:
279,316,95146,1,0,0:0:0:0:
83,235,95318,1,8,0:0:0:0:
303,237,95491,1,0,0:0:0:0:
12,191,95663,6,0,P|115:154|164:262,1,215.999993408203,4|8,0:0|0:0,0:0:0:0:
125,71,96180,1,0,0:0:0:0:
83,235,96353,2,0,L|43:349,1,107.999996704102
303,237,96697,2,0,L|343:123,1,107.999996704102,8|0,0:0|0:0,0:0:0:0:
380,292,97042,2,0,P|321:326|250:309,1,107.999996704102
241,167,97387,2,0,P|284:136|338:134,1,107.999996704102,8|0,0:0|0:0,0:0:0:0:
479,214,97732,5,0,0:0:0:0:
413,48,97904,1,0,0:0:0:0:
303,238,98077,1,8,0:0:0:0:
482,368,98249,1,0,0:0:0:0:
482,368,98335,1,0,0:0:0:0:
482,368,98422,6,0,B|409:368|409:368|350:381|350:381|260:381,1,215.999993408203,4|8,0:0|0:0,0:0:0:0:
150,268,98939,1,0,0:0:0:0:
303,238,99111,2,0,B|392:258|392:258|352:293,1,107.999996704102
150,268,99456,2,0,P|150:198|206:161,1,107.999996704102,8|0,0:0|0:0,0:0:0:0:
320,109,99801,1,0,0:0:0:0:
216,233,99973,1,0,0:0:0:0:
239,49,100146,5,8,0:0:0:0:
397,173,100318,1,0,0:0:0:0:
130,84,100491,1,0,0:0:0:0:
386,171,100663,1,0,0:0:0:0:
247,318,100835,1,8,0:0:0:0:
241,132,101008,1,0,0:0:0:0:
130,84,101180,6,0,B|76:145|118:262|118:262|161:226,1,215.999993408203,4|8,0:0|0:0,0:0:0:0:
241,132,101697,1,0,0:0:0:0:
135,8,101870,2,0,P|77:29|55:100,1,107.999996704102
455,67,102215,2,0,P|427:22|377:8,1,107.999996704102,8|0,0:0|0:0,0:0:0:0:
256,62,102559,5,0,0:0:0:0:
385,192,102732,1,0,0:0:0:0:
255,321,102904,1,8,0:0:0:0:
126,191,103077,1,0,0:0:0:0:
385,192,103249,2,0,L|492:246,1,107.999996704102
141,206,103594,1,8,0:0:0:0:
141,206,103680,1,0,0:0:0:0:
141,206,103766,1,0,0:0:0:0:
141,206,103853,1,0,0:0:0:0:
141,206,103939,6,0,B|92:182|92:182|74:240|139:338,1,215.999993408203,4|8,0:0|0:0,0:0:0:0:
273,247,104456,1,0,0:0:0:0:
220,94,104628,2,0,B|272:88|272:88|363:100,1,107.999996704102
380,248,104973,2,0,B|328:254|328:254|237:242,1,107.999996704102,8|0,0:0|0:0,0:0:0:0:
418,173,105318,5,0,0:0:0:0:
391,333,105491,1,0,0:0:0:0:
327,95,105663,1,8,0:0:0:0:
284,348,105835,1,0,0:0:0:0:
229,61,106008,1,0,0:0:0:0:
174,348,106180,1,0,0:0:0:0:
150,83,106353,2,0,P|195:137|254:135,1,107.999996704102,8|0,0:0|0:0,0:0:0:0:
150,83,106697,6,0,P|110:189|130:317,1,215.999993408203,4|8,0:0|0:0,0:0:0:0:
261,209,107215,1,0,0:0:0:0:
175,346,107387,2,0,P|99:366|55:332,2,107.999996704102,0|0|8,0:0|0:0|0:0,0:0:0:0:
262,208,107904,1,0,0:0:0:0:
411,143,108077,2,0,L|439:273,1,107.999996704102
284,313,108422,2,0,L|256:183,1,107.999996704102,8|0,0:0|0:0,0:0:0:0:
101,180,108766,2,0,L|129:310,1,107.999996704102
196,140,109111,5,8,0:0:0:0:
196,140,109197,1,0,0:0:0:0:
196,140,109284,1,0,0:0:0:0:
196,140,109370,1,0,0:0:0:0:
196,140,109456,6,0,L|302:65,1,107.999996704102,4|0,0:0|0:0,0:0:0:0:
401,190,109801,1,8,0:0:0:0:
248,243,109973,1,0,0:0:0:0:
376,343,110146,1,0,0:0:0:0:
425,115,110318,2,0,P|470:151|466:228,1,107.999996704102,0|8,0:0|0:0,0:0:0:0:
330,266,110663,5,0,0:0:0:0:
463,357,110835,1,0,0:0:0:0:
245,317,111008,2,0,L|130:333,1,107.999996704102,0|8,0:0|0:0,0:0:0:0:
79,180,111353,1,0,0:0:0:0:
242,214,111525,2,0,P|258:271|231:335,1,107.999996704102
79,180,111870,2,0,P|63:123|90:59,1,107.999996704102,8|0,0:0|0:0,0:0:0:0:
232,121,112215,5,0,0:0:0:0:
128,245,112387,1,0,0:0:0:0:
335,128,112559,1,8,0:0:0:0:
154,337,112732,1,0,0:0:0:0:
152,109,112904,2,0,B|181:62|181:62|241:33,1,107.999996704102
184,195,113249,5,8,0:0:0:0:
335,128,113422,1,0,0:0:0:0:
366,286,113594,2,0,L|254:341,1,107.999996704102
375,210,113939,2,0,P|433:249|436:315,1,107.999996704102,8|0,0:0|0:0,0:0:0:0:
290,223,114284,1,0,0:0:0:0:
454,129,114456,1,0,0:0:0:0:
215,166,114628,1,8,0:0:0:0:
487,215,114801,1,0,0:0:0:0:
240,51,114973,6,0,L|207:196,1,116.999994644165,4|0,0:0|0:0,0:0:0:0:
454,129,115318,2,0,L|428:14,1,116.999994644165,12|0,0:0|0:0,0:0:0:0:
345,170,115663,1,4,0:0:0:0:
401,335,115835,1,0,0:0:0:0:
230,289,116008,1,12,0:0:0:0:
431,182,116180,5,0,0:0:0:0:
431,182,116353,2,0,B|460:229|460:229|471:320,1,116.999994644165,4|0,0:0|0:0,0:0:0:0:
345,170,116697,1,12,0:0:0:0:
230,289,116870,1,0,0:0:0:0:
465,290,117042,2,0,L|323:277,1,116.999994644165,4|0,0:0|0:0,0:0:0:0:
34,287,117387,2,0,L|176:274,1,116.999994644165,12|0,0:0|0:0,0:0:0:0:
287,335,117732,6,0,P|350:364|408:342,1,107.999996704102,2|0,0:0|0:0,0:0:0:0:
217,223,118077,2,0,P|154:194|96:216,1,107.999996704102,10|0,0:0|0:0,0:0:0:0:
34,287,118422,1,2,0:0:0:0:
81,132,118594,1,0,0:0:0:0:
150,276,118766,1,10,0:0:0:0:
148,79,118939,6,0,B|97:49|97:49|17:53,1,116.999994644165,0|2,0:0|0:0,0:0:0:0:
170,162,119284,2,0,P|222:125|232:60,1,116.999994644165,0|10,0:0|0:0,0:0:0:0:
391,69,119628,5,0,0:0:0:0:
391,69,119715,1,0,0:0:0:0:
391,69,119801,2,0,B|343:152|419:152|370:262,1,180,4|8,0:0|0:0,0:0:0:0:
493,211,120318,2,0,L|452:118,1,90
286,238,120663,2,0,P|298:300|345:329,1,90,0|8,0:0|0:0,0:0:0:0:
447,286,121008,1,0,0:0:0:0:
285,237,121180,6,0,L|171:194,1,90
125,317,121525,1,8,0:0:0:0:
93,186,121697,1,0,0:0:0:0:
46,363,121870,2,0,P|40:295|59:257,1,90
0,186,122215,1,8,0:0:0:0:
93,186,122387,1,0,0:0:0:0:
302,187,122559,6,0,P|228:204|109:180,2,180,0|8|0,0:0|0:0|0:0,0:0:0:0:
183,118,123422,2,0,P|137:167|116:212,1,90,0|8,0:0|0:0,0:0:0:0:
257,80,123766,1,0,0:0:0:0:
54,128,123939,1,0,0:0:0:0:
257,80,124111,2,0,P|214:40|163:45,1,90,0|8,0:0|0:0,0:0:0:0:
302,187,124456,2,0,P|345:227|396:222,1,90
409,98,124801,5,0,0:0:0:0:
470,217,124973,1,8,0:0:0:0:
413,340,125146,1,0,0:0:0:0:
390,112,125318,6,0,B|324:116|263:60|263:60|214:100|168:171|46:216|-4:133|-13:4|107:-28|169:-4|196:26|204:107|183:186|192:196,1,675
229,226,126697,2,0,B|293:266|357:230|357:230|374:283|498:341|645:204|467:64|375:124|474:76|393:241|436:323|276:358,1,675
256,192,128077,12,0,130491,0:0:0:0:
128,208,130835,6,0,L|96:96,1,99.0000030212403
226,33,131180,1,8,0:0:0:0:
213,181,131353,2,0,P|201:259|164:288,1,99.0000030212403
45,236,131697,1,0,0:0:0:0:
279,128,131870,1,8,0:0:0:0:
279,128,132042,2,0,B|328:138|328:138|398:122,1,99.0000030212403
494,37,132387,5,0,0:0:0:0:
448,178,132559,2,0,L|401:281,1,99.0000030212403,8|0,0:0|0:0,0:0:0:0:
258,280,132904,1,0,0:0:0:0:
388,352,133077,1,0,0:0:0:0:
315,222,133249,2,0,P|244:202|200:226,1,99.0000030212403,8|0,0:0|0:0,0:0:0:0:
75,233,133594,6,2,P|70:154|119:79,1,148.50000453186
176,99,133939,2,2,B|209:93|250:106|250:106|291:93|341:103,1,148.50000453186,10|2,0:0|0:0,0:0:0:0:
424,238,134284,2,2,P|431:165|398:100,1,148.50000453186
322,100,134628,1,8,0:0:0:0:
341,243,134801,6,0,P|372:304|420:320,1,99.0000030212403
505,343,135146,1,0,0:0:0:0:
286,343,135318,1,8,0:0:0:0:
180,237,135491,2,0,L|204:356,1,99.0000030212403
78,247,135835,1,0,0:0:0:0:
65,219,135922,1,0,0:0:0:0:
59,189,136008,1,8,0:0:0:0:
164,84,136180,1,0,0:0:0:0:
274,184,136353,6,0,P|290:126|346:84,1,99.0000030212403
334,245,136697,2,0,P|277:269|225:253,1,99.0000030212403,8|0,0:0|0:0,0:0:0:0:
360,172,137042,2,0,P|403:210|401:276,1,99.0000030212403
300,350,137387,1,8,0:0:0:0:
360,172,137559,2,0,B|409:150|410:190|499:161,2,99.0000030212403
215,213,138077,5,8,0:0:0:0:
98,122,138249,2,0,B|81:78|81:78|103:1,1,99.0000030212403
221,221,138594,1,0,0:0:0:0:
221,221,138680,1,0,0:0:0:0:
221,221,138766,2,0,L|147:340,1,99.0000030212403,8|0,0:0|0:0,0:0:0:0:
98,122,139111,6,0,B|156:167|156:167|197:126|255:132|299:186,1,198.000006042481,0|8,0:0|0:0,0:0:0:0:
351,282,139628,1,0,0:0:0:0:
270,156,139801,2,0,P|292:103|337:79,1,99.0000030212403
406,207,140146,2,0,P|384:260|339:284,1,99.0000030212403,8|0,0:0|0:0,0:0:0:0:
375,134,140491,2,0,L|457:68,2,99.0000030212403,0|0|8,0:0|0:0|0:0,0:0:0:0:
278,247,141008,1,0,0:0:0:0:
478,285,141180,1,0,0:0:0:0:
215,313,141353,1,0,0:0:0:0:
504,363,141525,1,8,0:0:0:0:
469,366,141611,1,0,0:0:0:0:
436,353,141697,1,0,0:0:0:0:
410,329,141784,1,0,0:0:0:0:
403,295,141870,6,0,P|419:235|472:206,1,99.0000030212403,2|0,0:0|0:0,0:0:0:0:
109,295,142215,2,0,P|93:235|40:206,1,99.0000030212403,10|0,0:0|0:0,0:0:0:0:
143,87,142559,2,0,L|215:207,1,99.0000030212403,2|0,0:0|0:0,0:0:0:0:
369,87,142904,2,0,L|297:207,1,99.0000030212403,10|0,0:0|0:0,0:0:0:0:
259,308,143249,1,0,0:0:0:0:
160,318,143422,6,0,P|150:245|214:158,1,161.999995056153
74,305,143939,2,0,P|79:205|141:111,1,198.000006042481,0|8,0:0|0:0,0:0:0:0:
270,165,144456,1,0,0:0:0:0:
362,281,144628,2,0,L|353:155,1,99.0000030212403
270,165,144973,1,8,0:0:0:0:
457,263,145146,2,0,L|446:155,1,99.0000030212403
270,165,145491,6,0,L|255:295,1,99.0000030212403,0|8,0:0|0:0,0:0:0:0:
188,133,145835,2,0,P|225:89|270:80,2,99.0000030212403
123,268,146353,1,8,0:0:0:0:
185,145,146525,1,0,0:0:0:0:
207,341,146697,2,0,P|273:327|408:349,1,198.000006042481,0|8,0:0|0:0,0:0:0:0:
460,208,147215,1,0,0:0:0:0:
340,120,147387,5,0,0:0:0:0:
312,141,147473,1,0,0:0:0:0:
282,159,147559,1,0,0:0:0:0:
248,169,147646,1,0,0:0:0:0:
213,168,147732,1,8,0:0:0:0:
179,158,147818,1,0,0:0:0:0:
149,139,147904,1,0,0:0:0:0:
124,114,147991,1,0,0:0:0:0:
117,80,148077,5,0,0:0:0:0:
99,110,148163,1,0,0:0:0:0:
80,150,148249,1,0,0:0:0:0:
79,194,148335,1,0,0:0:0:0:
105,230,148422,1,8,0:0:0:0:
138,258,148508,1,0,0:0:0:0:
178,275,148594,1,0,0:0:0:0:
221,282,148680,1,0,0:0:0:0:
265,283,148766,5,0,0:0:0:0:
285,268,148853,1,0,0:0:0:0:
305,254,148939,1,0,0:0:0:0:
325,240,149025,1,0,0:0:0:0:
345,225,149111,1,8,0:0:0:0:
365,210,149197,1,0,0:0:0:0:
385,195,149284,1,0,0:0:0:0:
409,190,149370,1,0,0:0:0:0:
435,202,149456,5,0,0:0:0:0:
458,226,149542,1,0,0:0:0:0:
471,257,149628,1,0,0:0:0:0:
477,291,149715,1,0,0:0:0:0:
467,324,149801,1,8,0:0:0:0:
442,348,149887,2,0,L|359:366,1,49.5000015106202
252,311,150146,5,2,0:0:0:0:
104,328,150318,2,0,P|111:269|156:198,1,99.0000030212403,0|8,0:0|0:0,0:0:0:0:
252,311,150663,1,2,0:0:0:0:
378,234,150835,2,0,P|371:175|326:104,1,99.0000030212403,2|2,0:0|0:0,0:0:0:0:
252,311,151180,1,8,0:0:0:0:
127,233,151353,2,0,P|134:174|179:103,2,99.0000030212403,2|2|2,0:0|0:0|0:0,0:0:0:0:
252,311,151870,1,8,0:0:0:0:
184,73,152042,2,2,P|43:119|214:322,1,495.000015106202,2|4,0:0|0:0,0:0:0:0:
255,192,163422,5,0,0:0:0:0:
341,71,163594,1,0,0:0:0:0:
369,90,163680,1,0,0:0:0:0:
389,117,163766,1,0,0:0:0:0:
404,148,163853,1,0,0:0:0:0:
412,181,163939,6,0,P|400:256|377:293,1,90
274,332,164284,2,0,B|228:326|228:326|172:335,1,90
289,247,164628,1,0,0:0:0:0:
372,347,164801,1,0,0:0:0:0:
241,183,164973,1,0,0:0:0:0:
370,264,165146,1,0,0:0:0:0:
167,162,165318,6,0,P|105:163|52:130,1,90
186,68,165663,2,0,P|248:67|301:100,1,90
406,101,166008,2,0,B|407:219|407:219|367:270,1,180
304,148,166525,1,0,0:0:0:0:
482,183,166697,2,0,L|499:284,1,90
304,148,167042,5,0,0:0:0:0:
241,268,167215,1,0,0:0:0:0:
178,148,167387,1,0,0:0:0:0:
330,330,167559,1,0,0:0:0:0:
161,233,167732,2,0,L|75:263,1,90
304,148,168077,2,0,L|390:118,1,90
307,226,168422,6,0,P|246:201|231:155,1,90
207,50,168766,1,0,0:0:0:0:
161,233,168939,1,0,0:0:0:0:
84,19,169111,5,0,0:0:0:0:
235,184,169284,1,0,0:0:0:0:
255,201,169456,1,0,0:0:0:0:
275,218,169801,1,0,0:0:0:0:
430,70,170146,5,0,0:0:0:0:
449,94,170232,1,0,0:0:0:0:
460,123,170318,1,0,0:0:0:0:
466,153,170404,1,0,0:0:0:0:
460,184,170491,2,0,L|443:259,1,45
281,324,170663,2,0,L|356:322,1,45
275,218,170835,6,0,B|219:229|163:218|163:218|51:250,1,215.999993408203
206,326,171353,1,0,0:0:0:0:
192,129,171525,1,0,0:0:0:0:
61,246,171697,2,0,B|39:295|39:295|37:358,1,107.999996704102
192,129,172042,1,0,0:0:0:0:
339,60,172215,5,0,0:0:0:0:
346,221,172387,1,0,0:0:0:0:
202,215,172559,1,0,0:0:0:0:
414,251,172732,1,0,0:0:0:0:
133,188,172904,1,0,0:0:0:0:
476,206,173077,2,0,P|494:260|448:318,1,107.999996704102
133,188,173422,1,0,0:0:0:0:
263,200,173594,6,0,B|329:203|368:188|368:188|406:202|476:206,1,215.999993408203
338,292,174111,1,0,0:0:0:0:
377,86,174284,2,0,L|472:21,1,107.999996704102
261,202,174628,2,0,L|166:274,1,107.999996704102
254,125,174973,6,0,P|321:149|334:224,1,107.999996704102
185,341,175318,2,0,P|118:317|105:242,1,107.999996704102
95,125,175663,1,0,0:0:0:0:
254,125,175835,1,0,0:0:0:0:
122,28,176008,1,0,0:0:0:0:
122,28,176094,1,0,0:0:0:0:
122,28,176180,1,0,0:0:0:0:
122,28,176266,1,0,0:0:0:0:
122,28,176353,6,0,P|45:44|15:185,1,215.999993408203
154,225,176870,1,0,0:0:0:0:
191,67,177042,2,0,B|243:57|243:57|310:71,1,107.999996704102
318,229,177387,1,0,0:0:0:0:
154,225,177559,5,0,0:0:0:0:
369,306,177732,1,0,0:0:0:0:
216,151,177904,1,0,0:0:0:0:
397,215,178077,1,0,0:0:0:0:
250,326,178249,1,0,0:0:0:0:
330,116,178422,1,0,0:0:0:0:
154,225,178594,1,0,0:0:0:0:
397,215,178766,1,0,0:0:0:0:
250,326,178939,1,0,0:0:0:0:
265,74,179111,6,0,P|341:39|397:151,1,215.999993408203
241,147,179628,1,0,0:0:0:0:
83,107,179801,2,0,L|12:210,1,107.999996704102
161,112,180146,2,0,P|142:49|95:27,1,107.999996704102
120,191,180491,5,0,0:0:0:0:
239,82,180663,1,0,0:0:0:0:
239,243,180835,1,0,0:0:0:0:
46,266,181008,1,0,0:0:0:0:
276,157,181180,1,0,0:0:0:0:
39,149,181353,1,0,0:0:0:0:
239,243,181525,1,0,0:0:0:0:
46,266,181697,1,0,0:0:0:0:
276,157,181870,6,0,P|332:245|250:335,1,215.999993408203
