osu file format v14

[General]
AudioFilename: angel beats - 23 50.mp3
AudioLeadIn: 0
PreviewTime: 99007
Countdown: 0
SampleSet: None
StackLeniency: 0.7
Mode: 0
LetterboxInBreaks: 1
WidescreenStoryboard: 0

[Editor]
DistanceSpacing: 0.6
BeatDivisor: 4
GridSize: 4
TimelineZoom: 1

[Metadata]
Title:23:50
TitleUnicode:23:50
Artist:Girls Dead Monster
ArtistUnicode:Girls Dead Monster
Creator:Tachibana Kanade
Version:Normal
Source:Angel Beats
Tags:lisa iwasawa asami OniJAM
BeatmapID:848679
BeatmapSetID:70222

[Difficulty]
HPDrainRate:6
CircleSize:4
OverallDifficulty:6
ApproachRate:7
SliderMultiplier:1.4
SliderTickRate:1

[Events]
//Background and Video events
0,0,"hhh.jpg",0,0
//Break Periods
2,135667,146531
//Storyboard Layer 0 (Background)
//Storyboard Layer 1 (Fail)
//Storyboard Layer 2 (Pass)
//Storyboard Layer 3 (Foreground)
//Storyboard Sound Samples

[TimingPoints]
1780,379.794910748196,4,2,0,40,1,0
26086,-100,4,2,0,50,0,0
38240,-100,4,2,0,55,0,0
50393,-100,4,2,0,60,0,0
62547,-100,4,2,0,40,0,0
74700,-100,4,2,0,50,0,0
86854,-100,4,2,0,55,0,0
99007,-100,4,2,0,60,0,1
104324,-100,4,2,0,60,0,0
105084,-100,4,2,0,60,0,1
110401,-100,4,2,0,60,0,0
111160,-100,4,2,0,60,0,1
117237,-100,4,2,0,55,0,0
135467,-100,4,2,0,50,0,0
159774,-100,4,2,0,40,0,0
171928,-100,4,2,0,50,0,0
184081,-100,4,2,0,55,0,0
196234,-100,4,2,0,60,0,1
201552,-100,4,2,0,60,0,0
202311,-100,4,2,0,60,0,1
207628,-100,4,2,0,60,0,0
208388,-100,4,2,0,60,0,1
214465,-100,4,2,0,55,0,0
232695,-100,4,2,0,50,0,0
241810,-100,4,2,0,40,0,0
244848,-100,4,2,0,50,0,0

[Colours]
Combo1 : 255,255,255
Combo2 : 130,130,220
Combo3 : 255,0,0
Combo4 : 0,255,0

[HitObjects]
56,48,14313,6,0,L|80:116,1,70,2|0,0:0|0:0,0:0:0:0:
56,152,14693,2,0,L|79:218,1,70
200,148,15262,5,0,0:0:0:0:
140,276,15642,1,0,0:0:0:0:
272,236,16022,1,0,0:0:0:0:
404,280,16402,1,0,0:0:0:0:
368,300,16592,1,2,0:0:0:0:
332,320,16781,6,0,P|296:260|336:212,1,140
372,188,17351,1,0,0:0:0:0:
432,60,17731,2,0,L|356:60,1,70
324,80,18111,2,0,L|248:80,1,70
216,60,18490,5,0,0:0:0:0:
100,140,18870,1,2,0:0:0:0:
100,140,19060,1,0,0:0:0:0:
148,272,19440,1,0,0:0:0:0:
148,272,19630,1,8,0:0:0:0:
288,272,20010,1,0,0:0:0:0:
332,140,20389,5,2,0:0:0:0:
332,140,20579,1,0,0:0:0:0:
332,140,20769,2,0,L|408:140,1,70
508,232,21339,2,0,L|368:232,1,140
228,232,22099,1,0,0:0:0:0:
132,128,22478,1,0,0:0:0:0:
132,128,22668,1,2,0:0:0:0:
228,28,23048,6,0,L|300:28,2,70
92,60,23808,2,0,L|48:116,1,70
40,156,24187,2,0,L|40:236,1,70
40,268,24567,1,0,0:0:0:0:
164,332,24947,5,2,0:0:0:0:
288,268,25327,1,2,0:0:0:0:
164,204,25707,1,0,0:0:0:0:
288,144,26086,1,6,0:0:0:0:
164,80,26466,6,0,P|104:48|48:84,1,140,2|0,0:0|0:0,0:0:0:0:
48,84,27036,1,0,0:0:0:0:
144,184,27416,2,0,P|208:208|276:180,1,140,0|0,0:0|0:0,0:0:0:0:
364,80,28175,2,0,P|300:56|236:80,1,140,0|0,0:0|0:0,0:0:0:0:
204,108,28745,2,0,L|132:108,1,70,2|0,0:0|0:0,0:0:0:0:
112,144,29125,6,0,L|80:208,2,70,0|0|2,0:0|0:0|0:0,0:0:0:0:
24,36,29884,2,0,L|100:36,1,70
112,72,30264,2,0,L|188:72,1,70,2|0,0:0|0:0,0:0:0:0:
200,108,30644,6,0,P|264:136|328:108,1,140,0|2,0:0|0:0,0:0:0:0:
325,110,31214,1,0,0:0:0:0:
444,40,31593,1,0,0:0:0:0:
444,40,31783,2,0,P|380:12|316:40,1,140,2|0,0:0|0:0,0:0:0:0:
332,176,32543,6,0,L|280:128,1,70,2|0,0:0|0:0,0:0:0:0:
248,100,32923,2,0,L|176:100,1,70
52,40,33492,1,0,0:0:0:0:
100,172,33872,1,0,0:0:0:0:
100,172,34062,5,2,0:0:0:0:
100,172,34252,1,0,0:0:0:0:
232,220,34632,2,0,L|224:292,2,70,0|2|0,0:0|0:0|0:0,0:0:0:0:
248,180,35201,2,0,P|308:128|368:140,1,140,0|2,0:0|0:0,0:0:0:0:
452,244,35961,5,0,0:0:0:0:
452,244,36151,1,0,0:0:0:0:
452,244,36341,2,0,L|416:304,1,70,2|0,0:0|0:0,0:0:0:0:
392,336,36721,2,0,B|332:352|332:268|272:284,3,140,0|2|2|2,0:0|0:0|0:0|0:0,0:0:0:0:
272,284,38240,5,12,0:0:0:0:
196,168,38620,1,2,0:0:0:0:
196,168,38810,1,0,0:0:0:0:
76,236,39189,2,0,L|4:236,2,70,0|2|0,0:0|0:0|0:0,0:0:0:0:
16,108,39949,2,0,L|16:36,2,70,0|2|0,0:0|0:0|0:0,0:0:0:0:
136,40,40708,1,0,0:0:0:0:
136,40,40898,1,2,0:0:0:0:
264,100,41278,6,0,P|284:176|332:224,1,140,8|2,0:0|0:0,0:0:0:0:
368,216,41848,2,0,P|432:212|484:272,1,140
480,304,42418,2,0,P|430:355|366:351,1,140,2|0,0:0|0:0,0:0:0:0:
248,280,43177,6,0,L|176:280,1,70,2|0,0:0|0:0,0:0:0:0:
64,200,43747,2,0,L|140:200,1,70,0|2,0:0|0:0,0:0:0:0:
220,88,44317,5,8,0:0:0:0:
332,172,44696,1,2,0:0:0:0:
332,172,44886,1,0,0:0:0:0:
388,44,45266,2,0,L|460:44,2,70,0|2|0,0:0|0:0|0:0,0:0:0:0:
352,20,45836,6,0,P|280:12|224:52,1,140,0|2,0:0|0:0,0:0:0:0:
208,88,46405,2,0,P|232:160|212:240,1,140
196,256,46975,1,2,0:0:0:0:
164,284,47165,6,0,P|120:312|56:248,1,140
36,228,47735,2,0,P|25:166|49:94,1,140,2|0,0:0|0:0,0:0:0:0:
49,94,48304,1,0,0:0:0:0:
49,94,48494,1,2,0:0:0:0:
49,94,48684,1,0,0:0:0:0:
164,172,49064,6,0,L|240:172,1,70,0|2,0:0|0:0,0:0:0:0:
292,44,49634,2,0,L|400:44,2,105,2|2|2,0:0|0:0|0:0,0:0:0:0:
260,72,50393,6,0,P|228:140|264:200,1,140,4|2,0:0|0:0,0:0:0:0:
292,212,50963,2,0,P|328:268|296:336,1,140
264,348,51533,2,0,P|200:368|128:336,1,140,2|0,0:0|0:0,0:0:0:0:
76,216,52292,5,2,0:0:0:0:
76,216,52482,1,0,0:0:0:0:
108,80,52862,1,0,0:0:0:0:
108,80,53052,1,2,0:0:0:0:
220,168,53432,6,0,P|276:224|336:208,1,140,0|2,0:0|0:0,0:0:0:0:
356,180,54001,2,0,P|352:120|392:52,1,140
391,52,54571,1,2,0:0:0:0:
500,140,54951,6,0,P|424:144|360:116,1,140,0|2,0:0|0:0,0:0:0:0:
336,92,55520,2,0,P|272:60|204:68,1,140
168,84,56090,1,2,0:0:0:0:
60,176,56470,6,0,P|128:228|192:216,1,140,4|2,0:0|0:0,0:0:0:0:
268,112,57230,1,0,0:0:0:0:
268,112,57419,1,0,0:0:0:0:
268,112,57609,1,2,0:0:0:0:
268,112,57799,6,0,P|280:204|308:244,1,140
340,268,58369,2,0,P|392:296|476:272,1,140,2|0,0:0|0:0,0:0:0:0:
492,244,58939,2,0,L|512:172,2,70,0|2|0,0:0|0:0|0:0,0:0:0:0:
472,280,59508,6,0,P|400:336|348:324,1,140,0|2,0:0|0:0,0:0:0:0:
272,220,60268,2,0,L|300:156,3,70,0|0|2|0,0:0|0:0|0:0|0:0,0:0:0:0:
328,128,61028,2,0,P|300:64|168:72,2,210,2|2|2,0:0|0:0|0:0,0:0:0:0:
312,268,62547,5,6,0:0:0:0:
184,324,62926,2,0,P|148:328|116:320,1,70,2|0,0:0|0:0,0:0:0:0:
84,292,63306,2,0,P|52:284|16:288,1,70
28,148,63876,6,0,P|96:180|168:168,1,140
272,88,64636,2,0,P|204:56|132:68,1,140
141,63,65205,1,2,0:0:0:0:
68,184,65585,6,0,L|36:120,2,70,0|0|2,0:0|0:0|0:0,0:0:0:0:
32,320,66345,2,0,L|100:288,1,70
136,292,66724,2,0,L|208:284,1,70,2|0,0:0|0:0,0:0:0:0:
244,300,67104,6,0,P|316:332|388:308,1,140,0|2,0:0|0:0,0:0:0:0:
400,288,67674,2,0,P|380:224|392:148,1,140
408,116,68244,2,0,P|336:60|284:68,1,140,2|0,0:0|0:0,0:0:0:0:
240,196,69003,5,2,0:0:0:0:
240,196,69193,1,0,0:0:0:0:
240,196,69383,1,0,0:0:0:0:
240,196,69573,1,0,0:0:0:0:
136,288,69953,2,0,P|88:240|116:156,1,140
152,44,70712,2,0,P|200:92|172:176,1,140
189,158,71282,1,2,0:0:0:0:
136,288,71662,6,0,L|48:308,2,70,0|0|2,0:0|0:0|0:0,0:0:0:0:
224,180,72421,2,0,L|302:165,2,70
184,188,72991,1,0,0:0:0:0:
144,196,73181,1,0,0:0:0:0:
24,120,73561,5,2,0:0:0:0:
40,260,73941,1,2,0:0:0:0:
156,336,74320,1,0,0:0:0:0:
144,196,74700,6,0,P|196:236|272:252,1,140,6|2,0:0|0:0,0:0:0:0:
308,244,75270,1,0,0:0:0:0:
344,220,75460,2,0,P|372:200|372:160,1,70
284,56,76029,2,0,P|228:108|232:172,1,140
248,204,76599,1,2,0:0:0:0:
280,232,76789,2,0,P|344:272|420:248,1,140
440,236,77359,1,2,0:0:0:0:
464,200,77549,1,0,0:0:0:0:
468,160,77738,6,0,L|496:96,2,70,0|0|2,0:0|0:0|0:0,0:0:0:0:
356,76,78498,2,0,L|292:104,1,70
252,92,78878,2,0,L|184:108,1,70,2|0,0:0|0:0,0:0:0:0:
144,96,79258,6,0,P|104:156|140:220,1,140,0|2,0:0|0:0,0:0:0:0:
129,212,79827,1,0,0:0:0:0:
264,168,80207,1,0,0:0:0:0:
264,168,80397,2,0,P|312:160|388:204,1,140,2|0,0:0|0:0,0:0:0:0:
440,336,81157,5,2,0:0:0:0:
464,300,81347,1,0,0:0:0:0:
476,260,81536,1,0,0:0:0:0:
480,220,81726,1,0,0:0:0:0:
444,80,82106,2,0,P|368:36|312:40,1,140
318,38,82676,1,2,0:0:0:0:
224,144,83056,1,0,0:0:0:0:
224,144,83246,1,0,0:0:0:0:
224,144,83435,1,2,0:0:0:0:
116,52,83815,6,0,P|72:32|40:40,2,70,0|0|2,0:0|0:0|0:0,0:0:0:0:
36,168,84575,2,0,P|64:224|128:272,1,140,0|2,0:0|0:0,0:0:0:0:
264,276,85334,5,0,0:0:0:0:
152,192,85714,1,2,0:0:0:0:
192,328,86094,1,2,0:0:0:0:
236,196,86474,1,2,0:0:0:0:
192,64,86854,6,0,P|260:104|328:104,1,140,4|2,0:0|0:0,0:0:0:0:
352,80,87423,2,0,P|424:128|444:184,1,140
436,216,87993,2,0,P|416:268|272:280,1,210,2|0,0:0|0:0,0:0:0:0:
260,248,88753,2,0,P|232:184|148:176,1,140,2|0,0:0|0:0,0:0:0:0:
168,168,89322,1,0,0:0:0:0:
168,168,89512,1,2,0:0:0:0:
104,292,89892,6,0,P|56:228|48:168,1,140,0|2,0:0|0:0,0:0:0:0:
52,128,90462,2,0,P|84:76|156:56,1,140
196,72,91031,2,0,P|288:112|392:80,1,210,2|0,0:0|0:0,0:0:0:0:
424,56,91791,2,0,P|472:136|464:188,1,140,2|0,0:0|0:0,0:0:0:0:
467,179,92361,1,0,0:0:0:0:
467,179,92550,1,2,0:0:0:0:
428,312,92930,6,0,P|368:240|320:244,1,140,0|2,0:0|0:0,0:0:0:0:
296,268,93500,2,0,L|148:268,1,140
120,292,94070,2,0,P|60:232|80:116,1,210,2|0,0:0|0:0,0:0:0:0:
68,76,94829,2,0,P|132:40|204:44,1,140,2|0,0:0|0:0,0:0:0:0:
232,64,95399,2,0,L|308:64,2,70,0|2|0,0:0|0:0|0:0,0:0:0:0:
208,100,95969,6,0,P|192:168|216:244,1,140,0|2,0:0|0:0,0:0:0:0:
324,316,96728,2,0,L|404:320,3,70,0|0|2|0,0:0|0:0|0:0|0:0,0:0:0:0:
432,332,97488,6,0,P|488:260|472:212,1,140,0|2,0:0|0:0,0:0:0:0:
380,120,98247,1,2,0:0:0:0:
336,120,98437,1,0,0:0:0:0:
292,120,98627,1,2,0:0:0:0:
152,116,99007,6,0,P|124:184|152:252,1,140,6|0,0:0|0:0,0:0:0:0:
180,268,99577,1,0,0:0:0:0:
212,244,99767,2,0,P|240:176|212:108,1,140,8|0,0:0|0:0,0:0:0:0:
88,64,100526,1,2,0:0:0:0:
108,100,100716,1,0,0:0:0:0:
148,116,100906,1,0,0:0:0:0:
256,28,101286,6,0,P|212:88|224:156,1,140,8|0,0:0|0:0,0:0:0:0:
244,288,102045,2,0,P|288:228|276:160,1,140,2|0,0:0|0:0,0:0:0:0:
272,124,102615,1,0,0:0:0:0:
248,88,102805,2,0,P|328:108|384:92,1,140,8|0,0:0|0:0,0:0:0:0:
496,12,103565,5,2,0:0:0:0:
496,12,103754,1,0,0:0:0:0:
496,12,103944,1,0,0:0:0:0:
368,72,104324,1,8,0:0:0:0:
284,184,104704,1,8,0:0:0:0:
240,316,105084,6,0,P|176:252|176:192,1,140,2|0,0:0|0:0,0:0:0:0:
232,80,105843,2,0,P|296:144|296:204,1,140,8|0,0:0|0:0,0:0:0:0:
292,232,106413,1,0,0:0:0:0:
272,268,106603,2,0,P|324:316|408:300,1,140,2|0,0:0|0:0,0:0:0:0:
376,172,107362,6,0,P|428:108|492:92,2,140,8|0|2,0:0|0:0|0:0,0:0:0:0:
288,280,108502,1,0,0:0:0:0:
288,280,108882,2,0,P|224:316|20:296,1,280,8|2,0:0|0:0,0:0:0:0:
152,240,110021,5,0,0:0:0:0:
188,104,110401,1,8,0:0:0:0:
148,92,110591,1,0,0:0:0:0:
108,108,110781,1,8,0:0:0:0:
64,180,111160,6,0,P|40:248|68:312,1,140,6|0,0:0|0:0,0:0:0:0:
76,372,111730,1,0,0:0:0:0:
112,348,111920,2,0,P|176:304|244:296,1,140,8|0,0:0|0:0,0:0:0:0:
316,180,112680,2,0,P|252:224|184:232,1,140,2|0,0:0|0:0,0:0:0:0:
80,148,113439,5,8,0:0:0:0:
80,148,113819,1,0,0:0:0:0:
128,280,114199,1,2,0:0:0:0:
128,280,114579,1,0,0:0:0:0:
260,328,114958,1,8,0:0:0:0:
260,328,115338,1,0,0:0:0:0:
392,276,115718,6,0,L|468:276,2,70,2|0|0,0:0|0:0|0:0,0:0:0:0:
280,192,116478,2,0,L|424:192,1,140,8|8,0:0|0:0,0:0:0:0:
480,68,117237,6,0,L|340:68,1,140,2|0,0:0|0:0,0:0:0:0:
224,148,117997,1,0,0:0:0:0:
224,148,118377,1,0,0:0:0:0:
108,72,118756,6,0,P|228:120|384:108,1,280,2|0,0:0|0:0,0:0:0:0:
372,264,119896,1,0,0:0:0:0:
372,264,120276,2,0,P|223:254|103:302,1,280,2|0,0:0|0:0,0:0:0:0:
376,188,121795,6,0,L|96:188,2,280,2|0|2,0:0|0:0|0:0,0:0:0:0:
256,192,123504,12,0,125593,0:0:0:0:
256,192,125972,12,0,128251,0:0:0:0:
208,144,128631,5,2,0:0:0:0:
208,144,128821,1,2,0:0:0:0:
124,256,129201,6,0,P|188:296|256:292,1,140
284,268,129770,2,0,P|364:244|417:256,1,140,2|0,0:0|0:0,0:0:0:0:
417,257,130340,1,0,0:0:0:0:
417,257,130530,1,2,0:0:0:0:
380,124,130910,5,0,0:0:0:0:
380,124,131290,1,2,0:0:0:0:
260,52,131669,2,0,P|216:64|164:48,2,70,0|0|2,0:0|0:0|0:0,0:0:0:0:
284,16,132239,1,0,0:0:0:0:
324,4,132429,6,0,B|488:56|324:172|500:228,3,280,0|0|2|0,0:0|0:0|0:0|0:0,0:0:0:0:
469,216,135088,1,0,0:0:0:0:
469,216,135467,1,6,0:0:0:0:
108,60,147431,6,0,L|144:92,1,35
152,96,147621,2,0,P|172:156|160:232,1,140,4|2,0:0|0:0,0:0:0:0:
132,260,148190,2,0,P|192:308|320:296,1,210,0|2,0:0|0:0,0:0:0:0:
416,196,149140,6,0,P|340:144|284:148,1,140,0|2,0:0|0:0,0:0:0:0:
268,180,149710,2,0,L|128:180,1,140
96,208,150279,2,0,P|28:144|88:60,1,210,2|0,0:0|0:0,0:0:0:0:
124,76,151039,6,0,L|200:76,3,70,2|0|0|0,0:0|0:0|0:0|0:0,0:0:0:0:
228,52,151798,2,0,L|300:52,3,70,2|0|0|0,0:0|0:0|0:0|0:0,0:0:0:0:
328,24,152558,1,2,0:0:0:0:
368,36,152748,1,0,0:0:0:0:
400,60,152938,1,0,0:0:0:0:
424,92,153128,1,0,0:0:0:0:
432,132,153318,1,2,0:0:0:0:
392,268,153697,6,0,P|328:236|300:168,1,140,4|2,0:0|0:0,0:0:0:0:
256,44,154457,1,8,0:0:0:0:
256,44,154837,1,8,0:0:0:0:
211,176,155217,2,0,P|184:236|120:268,1,140,0|2,0:0|0:0,0:0:0:0:
256,304,155976,1,8,0:0:0:0:
256,304,156356,1,8,0:0:0:0:
392,268,156736,6,0,P|400:231|348:151,1,140,4|2,0:0|0:0,0:0:0:0:
312,131,157306,2,0,P|248:119|176:159,1,140
148,175,157875,2,0,P|112:183|64:171,1,70,2|0,0:0|0:0,0:0:0:0:
256,192,158255,12,4,159774,0:0:0:0:
432,68,160154,6,0,L|384:124,1,70,2|0,0:0|0:0,0:0:0:0:
384,164,160534,2,0,L|336:220,1,70
444,308,161103,2,0,P|368:348|320:316,1,140
232,220,161863,2,0,P|191:197|115:237,1,140
115,237,162433,1,2,0:0:0:0:
52,112,162813,6,0,L|24:36,2,70,0|0|2,0:0|0:0|0:0,0:0:0:0:
172,36,163572,2,0,L|244:64,1,70
280,52,163952,2,0,L|360:60,1,70,2|0,0:0|0:0,0:0:0:0:
388,44,164332,6,0,P|452:116|440:168,1,140,0|2,0:0|0:0,0:0:0:0:
424,188,164901,2,0,P|400:240|440:328,1,140
448,352,165471,2,0,P|376:368|304:348,1,140,2|0,0:0|0:0,0:0:0:0:
224,244,166231,5,2,0:0:0:0:
224,244,166421,1,0,0:0:0:0:
224,244,166610,1,0,0:0:0:0:
224,244,166800,1,0,0:0:0:0:
92,288,167180,2,0,P|56:208|76:140,1,140
164,56,167940,2,0,P|244:104|296:88,1,140
324,76,168509,6,0,P|404:88|448:152,1,140,2|0,0:0|0:0,0:0:0:0:
448,172,169079,2,0,L|452:248,1,70,0|2,0:0|0:0,0:0:0:0:
340,328,169649,2,0,L|268:352,3,70,0|0|2|0,0:0|0:0|0:0|0:0,0:0:0:0:
236,336,170408,6,0,P|216:256|168:208,1,140,0|2,0:0|0:0,0:0:0:0:
48,160,171168,2,0,P|68:240|116:288,1,140,2|2,0:0|0:0,0:0:0:0:
236,336,171928,5,4,0:0:0:0:
364,280,172307,2,0,L|380:212,1,70,2|0,0:0|0:0,0:0:0:0:
368,172,172687,2,0,L|392:100,1,70
500,20,173257,6,0,P|452:72|320:64,1,210,0|2,0:0|0:0,0:0:0:0:
288,40,174016,2,0,P|216:32|148:76,1,140
158,63,174586,1,2,0:0:0:0:
88,184,174966,5,0,0:0:0:0:
88,184,175156,1,0,0:0:0:0:
88,184,175346,1,2,0:0:0:0:
160,304,175726,2,0,P|217:335|289:327,1,140,0|2,0:0|0:0,0:0:0:0:
412,264,176485,6,0,P|354:232|282:240,1,140,0|2,0:0|0:0,0:0:0:0:
282,240,177055,1,0,0:0:0:0:
196,128,177435,1,0,0:0:0:0:
196,128,177625,2,0,P|253:159|325:151,1,140,2|0,0:0|0:0,0:0:0:0:
280,20,178384,5,2,0:0:0:0:
280,20,178574,1,0,0:0:0:0:
280,20,178764,1,0,0:0:0:0:
280,20,178954,1,0,0:0:0:0:
408,80,179334,6,0,P|356:124|284:120,1,140
248,104,179903,1,2,0:0:0:0:
208,88,180093,2,0,P|139:85|87:129,1,140,0|0,0:0|0:0,0:0:0:0:
76,168,180663,1,2,0:0:0:0:
88,208,180853,6,0,P|140:252|208:249,1,140,0|0,0:0|0:0,0:0:0:0:
244,224,181422,2,0,P|296:204|376:228,1,140,2|0,0:0|0:0,0:0:0:0:
404,256,181992,2,0,L|408:328,2,70,0|2|0,0:0|0:0|0:0,0:0:0:0:
428,220,182562,5,0,0:0:0:0:
372,92,182942,1,2,0:0:0:0:
472,188,183321,1,2,0:0:0:0:
344,136,183701,1,2,0:0:0:0:
256,244,184081,6,0,P|196:280|124:272,1,140,8|2,0:0|0:0,0:0:0:0:
92,252,184651,2,0,P|44:188|68:120,1,140
80,100,185220,2,0,P|136:56|216:64,1,140,2|0,0:0|0:0,0:0:0:0:
320,136,185980,6,0,L|244:136,1,70,2|0,0:0|0:0,0:0:0:0:
132,216,186550,2,0,L|204:216,1,70,0|2,0:0|0:0,0:0:0:0:
304,308,187119,6,0,P|352:228|344:184,1,140,8|2,0:0|0:0,0:0:0:0:
332,148,187689,2,0,P|296:92|220:72,1,140
188,72,188259,2,0,P|124:84|80:148,1,140,2|0,0:0|0:0,0:0:0:0:
112,280,189018,5,2,0:0:0:0:
112,280,189208,1,0,0:0:0:0:
252,284,189588,1,0,0:0:0:0:
252,284,189778,1,2,0:0:0:0:
368,204,190158,6,0,P|312:232|224:232,1,140,8|2,0:0|0:0,0:0:0:0:
196,220,190727,2,0,P|112:208|52:224,1,140
28,248,191297,2,0,P|0:168|8:100,1,140,2|0,0:0|0:0,0:0:0:0:
120,36,192057,5,2,0:0:0:0:
120,36,192247,1,0,0:0:0:0:
248,96,192626,1,0,0:0:0:0:
248,96,192816,1,2,0:0:0:0:
248,96,193006,6,0,P|300:68|392:76,1,140
379,70,193576,1,2,0:0:0:0:
468,180,193956,2,0,P|464:216|488:248,3,70,0|0|2|0,0:0|0:0|0:0|0:0,0:0:0:0:
500,280,194715,6,0,P|436:320|373:319,1,140,0|2,0:0|0:0,0:0:0:0:
232,320,195475,2,0,P|169:320|105:280,1,140,2|2,0:0|0:0,0:0:0:0:
104,140,196234,6,0,P|168:100|231:100,1,140,2|0,0:0|0:0,0:0:0:0:
272,112,196804,1,0,0:0:0:0:
308,132,196994,2,0,P|371:132|435:92,1,140,8|0,0:0|0:0,0:0:0:0:
460,60,197564,1,0,0:0:0:0:
488,28,197754,2,0,P|512:128|480:308,1,280,2|8,0:0|0:0,0:0:0:0:
348,336,198893,6,0,L|276:296,2,70,0|0|2,0:0|0:0|0:0,0:0:0:0:
388,200,199653,2,0,P|376:120|330:89,1,140,0|8,0:0|0:0,0:0:0:0:
288,96,200222,2,0,P|216:120|152:96,1,140
116,88,200792,2,0,P|56:140|52:196,1,140,2|0,0:0|0:0,0:0:0:0:
148,300,201552,5,8,0:0:0:0:
288,300,201931,1,8,0:0:0:0:
220,180,202311,6,0,P|232:108|288:76,1,140,2|0,0:0|0:0,0:0:0:0:
328,68,202881,1,0,0:0:0:0:
364,92,203071,2,0,P|432:116|496:92,1,140,8|0,0:0|0:0,0:0:0:0:
492,236,203830,6,0,P|430:214|362:238,1,140,2|0,0:0|0:0,0:0:0:0:
332,268,204400,1,0,0:0:0:0:
320,308,204590,2,0,L|180:308,1,140,8|0,0:0|0:0,0:0:0:0:
76,212,205350,6,0,L|216:212,1,140,2|0,0:0|0:0,0:0:0:0:
312,108,206109,2,0,L|168:108,1,140,8|0,0:0|0:0,0:0:0:0:
140,80,206679,1,0,0:0:0:0:
112,48,206869,2,0,P|56:100|72:180,1,140,2|0,0:0|0:0,0:0:0:0:
144,268,207628,5,8,0:0:0:0:
232,160,208008,1,8,0:0:0:0:
188,28,208388,6,0,P|252:60|324:60,1,140,6|0,0:0|0:0,0:0:0:0:
360,48,208958,1,0,0:0:0:0:
396,28,209148,2,0,P|448:104|448:164,1,140,8|0,0:0|0:0,0:0:0:0:
368,260,209907,6,0,P|308:220|236:220,1,140,2|0,0:0|0:0,0:0:0:0:
200,232,210477,1,0,0:0:0:0:
160,216,210667,2,0,P|93:217|33:257,1,140,8|0,0:0|0:0,0:0:0:0:
156,324,211426,6,0,P|96:272|80:212,1,140,2|0,0:0|0:0,0:0:0:0:
220,212,212186,2,0,P|204:155|144:103,1,140,8|0,0:0|0:0,0:0:0:0:
4,104,212945,5,2,0:0:0:0:
116,180,213325,1,0,0:0:0:0:
72,48,213705,1,8,0:0:0:0:
32,180,214085,1,8,0:0:0:0:
68,316,214465,6,0,P|124:280|200:272,1,140,2|0,0:0|0:0,0:0:0:0:
336,292,215224,2,0,P|280:328|204:336,1,140
176,200,215984,2,0,L|148:60,2,140,2|0|0,0:0|0:0|0:0,0:0:0:0:
184,240,216933,1,0,0:0:0:0:
184,240,217123,1,0,0:0:0:0:
312,180,217503,6,0,L|340:320,2,140,2|0|2,0:0|0:0|0:0,0:0:0:0:
304,140,218452,1,0,0:0:0:0:
304,140,218642,1,0,0:0:0:0:
188,64,219022,6,0,P|108:176|184:280,2,280,2|2|2,0:0|0:0|0:0,0:0:0:0:
256,192,220731,12,0,222820,0:0:0:0:
256,192,223200,12,0,225479,0:0:0:0:
320,112,225858,5,8,0:0:0:0:
320,112,226048,1,8,0:0:0:0:
444,176,226428,6,0,P|384:240|336:236,1,140
308,208,226998,2,0,P|232:184|176:201,1,140,2|0,0:0|0:0,0:0:0:0:
176,201,227568,1,0,0:0:0:0:
176,201,227757,1,2,0:0:0:0:
84,304,228137,6,0,P|139:321|215:297,1,140,0|2,0:0|0:0,0:0:0:0:
320,204,228897,2,0,L|344:136,3,70,0|0|2|0,0:0|0:0|0:0|0:0,0:0:0:0:
356,100,229656,6,0,B|264:-4|180:192|92:92,3,280,0|0|2|0,0:0|0:0|0:0|0:0,0:0:0:0:
101,101,232315,1,0,0:0:0:0:
101,101,232695,6,0,P|36:148|24:208,1,140,4|2,0:0|0:0,0:0:0:0:
128,296,233454,2,0,L|108:368,2,70,0|0|2,0:0|0:0|0:0,0:0:0:0:
148,260,234024,6,0,P|232:272|296:248,1,140
312,224,234594,2,0,P|304:144|324:84,1,140,2|0,0:0|0:0,0:0:0:0:
321,88,235163,1,0,0:0:0:0:
321,88,235353,1,2,0:0:0:0:
444,156,235733,6,0,L|300:152,1,140,0|2,0:0|0:0,0:0:0:0:
272,176,236303,2,0,L|124:176,1,140
100,204,236873,2,0,P|36:136|104:68,1,210,2|0,0:0|0:0,0:0:0:0:
144,60,237632,1,2,0:0:0:0:
284,61,238012,5,0,0:0:0:0:
284,61,238202,1,0,0:0:0:0:
284,61,238392,1,2,0:0:0:0:
424,61,238772,6,0,P|464:129|440:189,1,140,0|2,0:0|0:0,0:0:0:0:
316,241,239531,2,0,L|268:185,2,70,0|0|2,0:0|0:0|0:0,0:0:0:0:
324,281,240101,2,0,P|260:341|152:305,1,210,0|2,0:0|0:0,0:0:0:0:
100,177,241050,2,0,L|120:105,3,70,0|0|2|0,0:0|0:0|0:0|0:0,0:0:0:0:
96,76,241810,5,2,0:0:0:0:
192,124,242095,1,2,0:0:0:0:
260,44,242380,1,2,0:0:0:0:
352,96,242664,1,2,0:0:0:0:
428,20,242949,1,2,0:0:0:0:
428,20,243139,1,2,0:0:0:0:
456,52,243329,5,2,0:0:0:0:
472,92,243519,1,2,0:0:0:0:
468,132,243709,1,2,0:0:0:0:
444,164,243899,1,2,0:0:0:0:
404,172,244089,1,2,0:0:0:0:
364,164,244279,1,2,0:0:0:0:
332,136,244468,1,2,0:0:0:0:
320,96,244658,1,2,0:0:0:0:
312,56,244848,6,0,P|244:24|184:44,1,140,6|2,0:0|0:0,0:0:0:0:
148,64,245418,2,0,P|92:108|72:180,1,140
76,212,245988,2,0,P|108:280|244:284,1,210,2|0,0:0|0:0,0:0:0:0:
264,264,246747,2,0,P|324:228|412:232,1,140,2|0,0:0|0:0,0:0:0:0:
392,226,247317,1,0,0:0:0:0:
392,226,247507,1,2,0:0:0:0:
360,88,247887,6,0,P|291:86|231:50,1,140,0|2,0:0|0:0,0:0:0:0:
196,28,248456,2,0,P|108:32|56:72,1,140
48,96,249026,2,0,P|20:184|112:252,1,210,2|0,0:0|0:0,0:0:0:0:
140,236,249786,2,0,L|216:212,1,70,2|0,0:0|0:0,0:0:0:0:
206,214,250165,1,0,0:0:0:0:
206,214,250355,1,0,0:0:0:0:
206,214,250545,1,2,0:0:0:0:
272,92,250925,6,0,L|140:148,1,140,0|2,0:0|0:0,0:0:0:0:
280,184,251685,2,0,L|360:152,2,70,0|0|2,0:0|0:0|0:0,0:0:0:0:
260,220,252254,2,0,P|232:272|152:312,1,140
120,308,252824,2,0,P|51:269|23:217,1,140,2|0,0:0|0:0,0:0:0:0:
24,176,253394,2,0,L|24:104,2,70,0|2|0,0:0|0:0|0:0,0:0:0:0:
23,217,253963,5,0,0:0:0:0:
144,148,254343,1,2,0:0:0:0:
264,220,254723,1,0,0:0:0:0:
264,220,254913,1,0,0:0:0:0:
264,220,255103,1,2,0:0:0:0:
144,288,255483,5,2,0:0:0:0:
144,148,255862,1,2,0:0:0:0:
264,220,256242,1,2,0:0:0:0:
264,220,256432,1,2,0:0:0:0:
264,220,256622,1,2,0:0:0:0:
264,220,256812,1,2,0:0:0:0:
