osu file format v14

[General]
AudioFilename: angel beats - 23 50.mp3
AudioLeadIn: 0
PreviewTime: 99007
Countdown: 0
SampleSet: Soft
StackLeniency: 0.7
Mode: 0
LetterboxInBreaks: 1
WidescreenStoryboard: 0

[Editor]
Bookmarks: 187729,55652,55894,58984,59187,73670,73917,75933,76125,72777,72583,72778,72756,75923,76133,241462,242982,243340,45068,47416,47636,50851,45418,47379,47578,47620,45331,47447,47640,44894,45121,47423,47635
DistanceSpacing: 0.9
BeatDivisor: 4
GridSize: 4
TimelineZoom: 1

[Metadata]
Title:23:50
TitleUnicode:23:50
Artist:Girls Dead Monster
ArtistUnicode:Girls Dead Monster
Creator:Tachibana Kanade
Version:Easy
Source:Angel Beats!
Tags:Lisa Iwasawa Masami Yui Irie Miyuki Sekine Shiori Hisako Blackshane
BeatmapID:215618
BeatmapSetID:70222

[Difficulty]
HPDrainRate:2
CircleSize:3
OverallDifficulty:3
ApproachRate:3
SliderMultiplier:1.2
SliderTickRate:1

[Events]
//Background and Video events
0,0,"hhh.jpg",0,0
//Break Periods
2,135288,158714
//Storyboard Layer 0 (Background)
//Storyboard Layer 1 (Fail)
//Storyboard Layer 2 (Pass)
//Storyboard Layer 3 (Foreground)
//Storyboard Sound Samples

[TimingPoints]
1780.25466530952,379.794910748196,4,2,0,100,1,0
13711,-100,4,2,0,61,0,0
50354,-100,4,2,0,61,0,0
99007,-100,4,2,0,61,0,1
104324,-100,4,2,0,61,0,0
105084,-100,4,2,0,61,0,1
110401,-100,4,2,0,61,0,0
111160,-100,4,2,0,61,0,1
117237,-100,4,2,0,62,0,0
196234,-100,4,2,0,62,0,1
201552,-100,4,2,0,62,0,0
202311,-100,4,2,0,62,0,1
207628,-100,4,2,0,62,0,0
208388,-100,4,2,0,62,0,1
214465,-100,4,2,0,62,0,0

[Colours]
Combo1 : 255,255,255
Combo2 : 130,130,220
Combo3 : 255,0,0
Combo4 : 0,255,0

[HitObjects]
136,120,14313,6,0,L|136:192,3,60
36,200,15262,1,2,0:0:0:0:
72,304,15642,2,0,P|132:336|184:328,1,120
288,324,16402,1,0,0:0:0:0:
396,324,16782,1,0,0:0:0:0:
452,232,17162,6,0,P|492:232|520:216,1,60
448,136,17731,2,0,P|328:84|224:152,1,240
276,244,20390,6,0,L|232:192,3,60
312,128,21339,1,2,0:0:0:0:
420,140,21719,2,0,P|452:196|432:248,1,120
344,304,22479,1,0,0:0:0:0:
240,280,22858,5,0,0:0:0:0:
220,176,23238,2,0,L|144:216,1,60
84,272,23808,2,0,P|0:172|72:132,1,240
80,24,24947,1,0,0:0:0:0:
132,104,25327,2,0,P|188:144|244:140,1,120
312,64,26087,1,2,0:0:0:0:
420,80,26466,5,0,0:0:0:0:
468,172,26846,2,0,L|404:200,1,60
404,304,27416,2,0,P|404:360|344:380,3,120
312,268,28935,5,0,0:0:0:0:
260,364,29315,2,0,L|188:364,1,60
148,268,29885,2,0,P|56:176|96:84,1,240
148,180,32543,5,0,0:0:0:0:
232,112,32923,2,0,L|280:148,1,60
360,224,33493,2,0,P|396:160|368:128,3,120
320,36,35012,5,2,0:0:0:0:
216,52,35392,2,0,L|140:52,1,60
124,144,35961,2,0,P|148:264|252:260,1,240
240,296,38240,6,0,L|356:260,1,120,0|4,0:0|0:0,0:0:0:0:
424,176,39000,2,0,P|456:124|404:80,1,120
324,120,39759,2,0,P|180:8|88:136,1,360
128,216,41278,6,0,P|92:292|116:324,1,120
216,308,42038,2,0,L|336:308,1,120
272,220,42798,1,2,0:0:0:0:
380,232,43178,1,2,0:0:0:0:
404,336,43557,2,0,P|476:336|520:292,1,120
484,204,44317,5,8,0:0:0:0:
392,128,44697,2,0,L|320:108,1,60
268,184,45266,1,2,0:0:0:0:
172,132,45646,1,2,0:0:0:0:
64,128,46026,2,0,P|68:204|108:212,1,120
196,260,46785,6,0,P|296:360|436:308,1,300
364,232,48115,2,0,L|336:180,3,60
76,88,50394,6,0,P|92:172|136:192,1,120,0|4,0:0|0:0,0:0:0:0:
204,252,51153,2,0,L|252:136,1,120
324,220,51913,2,0,P|408:216|428:188,1,120
468,112,52673,2,0,P|484:36|444:-12,1,120
348,4,53432,1,0,0:0:0:0:
232,120,54002,2,0,P|308:212|216:232,1,240
136,200,55141,2,0,P|92:264|48:264,2,120
104,156,56091,1,0,0:0:0:0:
172,76,56470,6,0,P|220:28|272:32,1,120
272,140,57230,2,0,L|304:200,1,60
352,96,57800,2,0,P|408:56|472:72,1,120
416,168,58559,1,0,0:0:0:0:
452,256,58939,2,0,L|524:256,2,60
412,292,59509,5,8,0:0:0:0:
332,364,59889,1,8,0:0:0:0:
300,260,60268,2,0,L|240:204,1,60
152,196,60838,2,0,P|80:160|64:128,2,120
108,168,62927,6,0,L|216:232,1,120
328,120,63876,2,0,P|404:140|424:188,1,120
468,268,64636,2,0,P|440:324|376:336,1,120
288,304,65396,5,2,0:0:0:0:
304,196,65775,2,0,P|264:176|232:184,1,60
216,72,66345,2,0,P|152:188|100:204,1,180
64,184,67105,5,8,0:0:0:0:
180,0,67864,1,0,0:0:0:0:
220,84,68244,2,0,P|252:140|316:144,1,120
372,68,69003,6,0,L|444:44,3,60
504,112,69953,2,0,P|492:176|440:208,1,120
388,280,70713,2,0,P|372:340|312:348,1,120
220,308,71472,5,0,0:0:0:0:
232,200,71852,2,0,L|168:172,1,60
112,88,72422,2,0,L|68:40,3,60
256,192,73182,12,4,74701,0:0:0:0:
192,212,75080,6,0,L|228:268,3,60
292,176,76030,2,0,P|240:120|188:120,1,120
104,68,76790,1,0,0:0:0:0:
96,176,77169,1,0,0:0:0:0:
32,244,77549,6,0,P|64:336|132:324,1,180
236,348,78499,1,0,0:0:0:0:
292,256,78878,2,0,L|360:256,1,60
216,136,81157,6,0,L|160:188,3,60
84,112,82106,2,0,P|64:192|100:216,1,120
136,304,82866,2,0,P|160:372|208:368,1,120
316,328,83626,5,0,0:0:0:0:
284,224,84005,2,0,L|228:160,1,60
324,104,84575,2,0,P|432:180|388:264,2,240
112,64,86854,5,4,0:0:0:0:
220,44,87234,2,0,L|284:44,1,60
316,148,87804,1,2,0:0:0:0:
304,260,88184,2,0,B|252:308|224:284|188:300|212:240|124:280,1,180
52,208,89133,1,0,0:0:0:0:
76,48,89893,5,2,0:0:0:0:
180,44,90272,2,0,L|208:100,1,60
296,40,90842,1,2,0:0:0:0:
356,128,91222,2,0,B|412:188|436:192|480:184|520:212,1,180
436,284,92171,2,0,P|392:360|352:360,1,120
280,268,92931,5,0,0:0:0:0:
224,360,93310,2,0,L|156:360,1,60
72,304,93880,1,2,0:0:0:0:
148,228,94260,1,2,0:0:0:0:
44,196,94640,2,0,P|44:88|116:72,1,180
152,68,95399,2,0,L|232:68,2,60
440,152,96728,6,0,P|484:272|400:312,1,240
332,224,97868,1,0,0:0:0:0:
312,332,98248,2,0,L|260:376,2,60
204,284,99008,6,0,P|152:316|80:312,3,120
64,212,100526,2,0,L|32:96,1,120
140,112,101286,6,0,P|232:160|356:112,1,240
460,112,102426,1,0,0:0:0:0:
404,204,102806,2,0,B|418:225|396:268|350:273,1,120
240,236,103565,2,0,P|168:280|164:332,1,120
264,340,104324,2,0,L|368:272,1,120,4|0,0:0|0:0,0:0:0:0:
416,168,105084,6,0,P|388:96|328:80,1,120
268,136,105844,2,0,L|160:68,1,120
84,124,106604,2,0,P|16:148|0:192,1,120
52,284,107363,1,2,0:0:0:0:
160,284,107743,1,2,0:0:0:0:
216,192,108123,6,0,P|260:232|332:232,1,120
388,320,108882,2,0,P|432:260|432:208,1,120
372,128,109642,2,0,L|424:12,2,120
176,36,111161,6,0,P|116:8|76:36,1,120,0|4,0:0|0:0,0:0:0:0:
64,132,111920,2,0,P|40:192|80:216,1,120
160,284,112680,1,0,0:0:0:0:
276,104,113439,6,0,P|232:180|260:212,1,120
292,296,114199,2,0,L|416:296,1,120
404,188,114959,2,0,L|340:64,1,120
252,132,115718,2,0,L|196:256,2,120
464,172,117237,6,4,P|492:100|472:64,1,120
380,32,117997,2,0,L|308:140,1,120
224,72,118757,2,0,P|116:-12|56:52,1,240
28,144,119897,1,0,0:0:0:0:
40,252,120276,2,0,B|72:324|120:340|188:324|212:288|232:256,1,240
200,156,121416,1,8,0:0:0:0:
296,200,121795,6,0,P|384:292|464:240,2,240
276,92,123694,2,0,P|208:64|176:108,1,120
88,144,124454,2,0,P|52:236|144:332,1,240
240,372,125593,1,2,0:0:0:0:
260,264,125973,6,0,P|376:136|232:68,2,360
176,332,128631,6,4,L|244:348,1,60
340,316,129202,2,0,P|396:372|492:372,1,180
476,264,130151,1,0,0:0:0:0:
412,180,130531,2,0,L|512:104,1,120
412,56,131290,2,0,P|344:56|320:120,1,120
204,176,132240,5,8,0:0:0:0:
204,120,132430,2,2,P|92:120|56:172,1,180
56,224,133189,2,2,P|132:292|208:280,1,180
232,236,133949,2,2,L|304:124,3,120
244,152,160154,6,0,L|312:144,3,60,0|0|0|0,0:0|0:0|0:0|0:0,0:0:0:0:
388,216,161104,2,0,P|372:284|320:312,1,120
228,332,161863,2,0,P|140:328|124:296,1,120
52,236,162624,5,2,0:0:0:0:
80,132,163003,2,0,L|120:76,1,60
224,92,163572,2,0,L|304:92,3,60
296,208,166231,6,0,L|228:164,3,60
200,80,167180,2,0,P|144:128|136:180,1,120
96,272,167940,2,0,P|164:320|200:312,1,120
304,312,168700,1,2,0:0:0:0:
324,208,169079,2,0,L|384:184,1,60
476,140,169650,2,0,P|452:76|392:64,1,120
300,56,170410,2,0,L|180:56,1,120
104,132,171169,2,0,P|88:200|116:236,1,120
232,204,171929,1,8,0:0:0:0:
316,136,172308,6,0,L|252:136,3,60
216,36,173257,2,0,P|168:88|176:144,3,120
184,240,174776,1,0,0:0:0:0:
236,144,175156,2,0,L|296:176,1,60
336,268,175726,2,0,L|400:268,3,60
232,232,178384,6,0,L|192:168,3,60
148,100,179335,2,0,P|72:76|44:116,1,120
52,204,180094,2,0,P|52:268|108:292,1,120
196,336,180854,5,0,0:0:0:0:
256,248,181233,2,0,L|328:232,1,60
376,320,181803,2,0,P|444:372|484:368,1,120
456,264,182563,2,0,P|488:208|428:176,1,120
416,76,183323,1,0,0:0:0:0:
264,104,184082,6,0,L|140:104,3,120
52,160,185600,2,0,P|80:240|132:244,1,120
240,260,187121,5,0,0:0:0:0:
304,168,187500,2,0,L|428:168,1,120
380,68,188260,1,0,0:0:0:0:
424,168,188640,2,0,P|460:224|416:260,1,120
420,364,189398,2,0,P|364:320|320:344,1,120
228,308,190158,6,0,P|80:296|64:144,1,300
96,56,191488,2,0,P|152:16|212:16,1,120
256,224,192627,6,0,L|196:192,2,60
428,24,193956,2,0,P|460:84|424:96,1,120
424,180,195476,6,4,L|344:180,2,60
352,260,196235,6,0,P|280:312|224:308,1,120
168,244,196994,2,0,L|260:152,1,120
216,68,197755,2,0,P|180:16|116:20,1,120
36,72,198514,2,0,P|28:136|76:148,1,120
180,160,199274,2,0,P|232:224|256:256,1,120
360,272,200033,2,0,P|436:248|432:200,1,120
432,112,200792,1,0,0:0:0:0:
220,156,201552,2,0,L|88:116,1,120
188,40,202312,6,0,P|248:12|308:24,1,120
380,92,203072,2,0,P|420:140|420:200,1,120
480,284,203831,2,0,P|424:336|380:340,1,120
276,292,204590,2,0,P|276:212|328:192,1,120
400,172,205351,2,0,P|440:108|412:76,1,120
316,56,206109,2,0,P|252:44|192:60,1,120
152,140,206870,2,0,P|120:216|144:244,1,120
216,312,207630,2,0,P|288:312|348:284,1,120
400,212,208389,5,0,0:0:0:0:
480,284,208769,1,0,0:0:0:0:
488,176,209149,2,0,P|476:112|432:84,1,120
324,92,209908,1,0,0:0:0:0:
260,296,210668,6,0,P|236:356|180:384,1,120
120,300,211428,2,0,P|56:300|12:268,1,120
72,176,212187,1,2,0:0:0:0:
84,68,212567,1,2,0:0:0:0:
188,88,212946,2,0,P|296:144|388:80,1,240
428,116,213895,2,0,L|444:176,1,60
336,180,214465,6,0,L|264:284,1,120
360,332,215226,2,0,P|424:332|444:284,1,120
424,176,215985,1,2,0:0:0:0:
284,12,216745,6,0,P|224:-16|188:20,1,120
104,84,217504,1,2,0:0:0:0:
136,192,218264,6,0,P|104:248|136:292,1,120
232,324,219023,2,0,L|360:324,1,120
400,232,219783,2,0,L|476:116,1,120
256,192,220543,12,2,222821,0:0:0:0:
212,204,223200,6,0,L|280:164,1,60
256,192,223580,12,0,225479,0:0:0:0:
144,100,225860,6,4,L|224:100,1,60
308,124,226430,2,0,P|420:156|420:220,1,180
404,308,227378,2,0,P|320:344|272:324,1,120
180,304,228139,2,0,L|40:304,1,120
124,216,228897,2,2,L|56:192,1,60
56,144,229277,6,0,P|68:76|136:68,1,120
204,116,230036,1,8,0:0:0:0:
268,32,230416,2,0,P|348:28|392:60,1,120
432,140,231176,2,0,P|432:208|388:248,1,120
336,336,231937,1,8,0:0:0:0:
144,236,232696,5,0,0:0:0:0:
72,156,233076,1,0,0:0:0:0:
96,52,233455,2,0,L|156:28,1,60
232,92,234025,2,0,P|228:156|296:172,1,120
340,260,234785,2,0,P|404:260|432:208,1,120
492,152,235733,2,0,L|448:96,1,60
356,64,236304,2,0,P|280:28|224:36,1,120
140,40,237064,1,0,0:0:0:0:
200,128,237444,1,0,0:0:0:0:
92,136,237823,2,0,P|36:208|88:268,1,180
172,328,238773,5,2,0:0:0:0:
280,332,239153,1,2,0:0:0:0:
264,224,239533,2,0,L|324:224,1,60
384,316,240102,2,0,P|440:356|496:356,1,120
500,248,240862,1,2,0:0:0:0:
472,144,241240,6,0,L|528:104,2,60
424,116,241810,2,0,P|408:56|376:48,2,90
356,160,242665,1,0,0:0:0:0:
284,196,242950,2,0,L|284:256,9,60
332,232,244850,5,4,0:0:0:0:
344,72,245418,2,0,P|264:36|224:36,1,120
128,64,246178,2,0,P|100:140|144:176,1,120
72,256,246939,5,2,0:0:0:0:
168,300,247318,1,2,0:0:0:0:
272,280,247697,2,0,L|336:320,2,60
364,224,248457,2,0,L|436:184,2,60
300,136,249216,2,0,P|372:108|388:56,2,120
220,60,250356,2,0,L|144:60,1,60
84,136,250925,6,0,P|44:184|72:228,1,120
88,332,251686,2,0,P|96:376|128:384,1,60
168,292,252254,2,0,L|292:324,2,120
252,224,253394,2,0,L|168:224,2,60
292,184,253964,6,0,P|328:116|300:80,1,120
200,100,254724,2,0,L|200:160,1,60
180,272,255294,1,2,0:0:0:0:
288,272,255674,1,2,0:0:0:0:
368,200,256052,2,0,P|328:72|232:48,1,240
