osu file format v14

[General]
AudioFilename: audio.mp3
AudioLeadIn: 0
PreviewTime: 148463
Countdown: 0
SampleSet: Normal
StackLeniency: 0.7
Mode: 1
LetterboxInBreaks: 0
WidescreenStoryboard: 1

[Editor]
DistanceSpacing: 0.5
BeatDivisor: 12
GridSize: 32
TimelineZoom: 3.599997

[Metadata]
Title:Ring My Bell
TitleUnicode:링마벨
Artist:Girl's Day
ArtistUnicode:걸스데이
Creator:Capu
Version:Sangwonsa
Source:
Tags:ak1o [belajar-osu] raphalge 소진 유라 민아 혜리 SoJin Yura MinAh HyeRi 드림티엔터테인먼트 DREAMT ENTERTAINMENT Love Second Album k-pop kpop KBS Music Bank
BeatmapID:1946191
BeatmapSetID:932109

[Difficulty]
HPDrainRate:5
CircleSize:2
OverallDifficulty:7
ApproachRate:9
SliderMultiplier:1.4
SliderTickRate:1

[Events]
//Background and Video events
0,0,"QkJG1W3.jpg",0,90
//Break Periods
//Storyboard Layer 0 (Background)
//Storyboard Layer 1 (Fail)
//Storyboard Layer 2 (Pass)
//Storyboard Layer 3 (Foreground)
//Storyboard Sound Samples

[TimingPoints]
3085,303.030303030303,4,1,0,60,1,0
3085,-100,4,1,0,60,0,0
12781,-100,4,1,0,90,0,0
51569,-100,4,1,0,100,0,1
68539,-100,4,1,0,90,0,0
109751,-100,4,1,0,100,0,1
126721,-100,4,1,0,90,0,0
129448,-100,4,1,0,65,0,0
138842,-100,4,1,0,75,0,0
143691,-100,4,1,0,80,0,0
146115,-100,4,1,0,90,0,0
149751,-100,4,1,0,100,0,1
166721,-100,4,1,0,90,0,0
167933,-100,4,1,0,100,0,1
184903,-100,4,1,0,90,0,0
187327,-100,4,1,0,90,0,0

[HitObjects]
256,192,3085,5,0,0:0:0:0:
256,192,3388,1,8,0:0:0:0:
256,192,3590,1,8,0:0:0:0:
256,192,3691,1,0,0:0:0:0:
256,192,3994,1,8,0:0:0:0:
256,192,4297,1,0,0:0:0:0:
256,192,4600,1,8,0:0:0:0:
256,192,5509,1,8,0:0:0:0:
256,192,5812,1,8,0:0:0:0:
256,192,6014,1,0,0:0:0:0:
256,192,6115,1,8,0:0:0:0:
256,192,6418,1,8,0:0:0:0:
256,192,6721,1,0,0:0:0:0:
256,192,7024,1,8,0:0:0:0:
256,192,7175,1,0,0:0:0:0:
256,192,7478,1,0,0:0:0:0:
256,192,7781,1,0,0:0:0:0:
256,192,7933,1,8,0:0:0:0:
256,192,8236,1,8,0:0:0:0:
256,192,8539,1,0,0:0:0:0:
256,192,8842,1,0,0:0:0:0:
256,192,9145,1,8,0:0:0:0:
256,192,9448,1,8,0:0:0:0:
256,192,9600,1,0,0:0:0:0:
256,192,9751,1,8,0:0:0:0:
256,192,10054,1,0,0:0:0:0:
256,192,10357,1,8,0:0:0:0:
256,192,10433,1,0,0:0:0:0:
256,192,10509,1,0,0:0:0:0:
256,192,10585,1,0,0:0:0:0:
256,192,10660,1,0,0:0:0:0:
256,192,10963,1,8,0:0:0:0:
256,192,11039,1,0,0:0:0:0:
256,192,11115,1,0,0:0:0:0:
256,192,11191,1,0,0:0:0:0:
256,192,11266,1,8,0:0:0:0:
256,192,11317,1,8,0:0:0:0:
256,192,11367,1,8,0:0:0:0:
256,192,11418,1,0,0:0:0:0:
256,192,11468,1,0,0:0:0:0:
256,192,11519,1,0,0:0:0:0:
256,192,11569,1,8,0:0:0:0:
256,192,11872,1,8,0:0:0:0:
256,192,11948,1,0,0:0:0:0:
256,192,12024,1,0,0:0:0:0:
256,192,12100,1,0,0:0:0:0:
256,192,12175,1,8,0:0:0:0:
256,192,12327,1,0,0:0:0:0:
256,192,12377,1,0,0:0:0:0:
256,192,12428,1,0,0:0:0:0:
256,192,12478,1,8,0:0:0:0:
256,192,12529,1,8,0:0:0:0:
256,192,12579,1,8,0:0:0:0:
256,192,12630,1,0,0:0:0:0:
256,192,12781,1,12,0:0:0:0:
256,192,12933,1,0,0:0:0:0:
256,192,13084,1,8,0:0:0:0:
256,192,13160,1,0,0:0:0:0:
256,192,13236,1,0,0:0:0:0:
256,192,13388,1,8,0:0:0:0:
256,192,13539,1,8,0:0:0:0:
256,192,13615,1,0,0:0:0:0:
256,192,13691,1,0,0:0:0:0:
256,192,13842,1,0,0:0:0:0:
256,192,14297,1,8,0:0:0:0:
256,192,14372,1,0,0:0:0:0:
256,192,14448,1,0,0:0:0:0:
256,192,14524,1,0,0:0:0:0:
256,192,14600,1,8,0:0:0:0:
256,192,14751,1,8,0:0:0:0:
256,192,14827,1,0,0:0:0:0:
256,192,14978,1,0,0:0:0:0:
256,192,15054,1,8,0:0:0:0:
256,192,15206,1,8,0:0:0:0:
256,192,15281,1,0,0:0:0:0:
256,192,15357,1,0,0:0:0:0:
256,192,15509,1,8,0:0:0:0:
256,192,15584,1,0,0:0:0:0:
256,192,15660,1,0,0:0:0:0:
256,192,15812,1,8,0:0:0:0:
256,192,15963,1,0,0:0:0:0:
256,192,16039,1,0,0:0:0:0:
256,192,16115,1,8,0:0:0:0:
256,192,16266,1,0,0:0:0:0:
256,192,16721,1,8,0:0:0:0:
256,192,16797,1,0,0:0:0:0:
256,192,16872,1,0,0:0:0:0:
256,192,17024,1,8,0:0:0:0:
256,192,17175,1,0,0:0:0:0:
256,192,17251,1,8,0:0:0:0:
256,192,17403,1,8,0:0:0:0:
256,192,17478,1,0,0:0:0:0:
256,192,17630,1,8,0:0:0:0:
256,192,17706,1,0,0:0:0:0:
256,192,17781,1,0,0:0:0:0:
256,192,17933,1,8,0:0:0:0:
256,192,18009,1,0,0:0:0:0:
256,192,18085,1,0,0:0:0:0:
256,192,18236,1,8,0:0:0:0:
256,192,18388,1,0,0:0:0:0:
256,192,18463,1,0,0:0:0:0:
256,192,18539,1,8,0:0:0:0:
256,192,18691,1,0,0:0:0:0:
256,192,19145,1,8,0:0:0:0:
256,192,19221,1,0,0:0:0:0:
256,192,19297,1,0,0:0:0:0:
256,192,19448,1,8,0:0:0:0:
256,192,19600,1,8,0:0:0:0:
256,192,19675,1,0,0:0:0:0:
256,192,19751,1,0,0:0:0:0:
256,192,20054,1,8,0:0:0:0:
256,192,20281,1,0,0:0:0:0:
256,192,20357,1,8,0:0:0:0:
256,192,20509,1,0,0:0:0:0:
256,192,20660,1,8,0:0:0:0:
256,192,20812,1,8,0:0:0:0:
256,192,20963,1,0,0:0:0:0:
256,192,21115,1,8,0:0:0:0:
256,192,21191,1,0,0:0:0:0:
256,192,21266,1,8,0:0:0:0:
256,192,21342,1,8,0:0:0:0:
256,192,21418,1,0,0:0:0:0:
256,192,21494,1,0,0:0:0:0:
256,192,21569,1,8,0:0:0:0:
256,192,21645,1,8,0:0:0:0:
256,192,21721,1,0,0:0:0:0:
256,192,21797,1,0,0:0:0:0:
256,192,21872,1,8,0:0:0:0:
256,192,21948,1,0,0:0:0:0:
256,192,22024,1,8,0:0:0:0:
256,192,22100,1,8,0:0:0:0:
256,192,22175,1,0,0:0:0:0:
256,192,22251,1,0,0:0:0:0:
256,192,22327,1,0,0:0:0:0:
256,192,22403,1,0,0:0:0:0:
256,192,22478,1,12,0:0:0:0:
256,192,22781,1,0,0:0:0:0:
256,192,22933,1,0,0:0:0:0:
256,192,23084,1,8,0:0:0:0:
256,192,23236,1,0,0:0:0:0:
256,192,23388,1,8,0:0:0:0:
256,192,23463,1,0,0:0:0:0:
256,192,23539,1,8,0:0:0:0:
256,192,23691,1,0,0:0:0:0:
256,192,23842,1,0,0:0:0:0:
256,192,23994,1,8,0:0:0:0:
256,192,24145,1,8,0:0:0:0:
256,192,24448,1,0,0:0:0:0:
256,192,24600,1,8,0:0:0:0:
256,192,24675,1,8,0:0:0:0:
256,192,24751,1,0,0:0:0:0:
256,192,24827,1,0,0:0:0:0:
256,192,24903,1,8,0:0:0:0:
256,192,25054,1,0,0:0:0:0:
256,192,25206,1,8,0:0:0:0:
256,192,25357,1,8,0:0:0:0:
256,192,25509,1,0,0:0:0:0:
256,192,25660,1,0,0:0:0:0:
256,192,25736,1,0,0:0:0:0:
256,192,25812,1,8,0:0:0:0:
256,192,25963,1,0,0:0:0:0:
256,192,26115,1,8,0:0:0:0:
256,192,26266,1,0,0:0:0:0:
256,192,26418,1,8,0:0:0:0:
256,192,26569,1,8,0:0:0:0:
256,192,26721,1,0,0:0:0:0:
256,192,26872,1,8,0:0:0:0:
256,192,26948,1,0,0:0:0:0:
256,192,27024,1,8,0:0:0:0:
256,192,27100,1,8,0:0:0:0:
256,192,27175,1,0,0:0:0:0:
256,192,27251,1,0,0:0:0:0:
256,192,27327,1,8,0:0:0:0:
256,192,27478,1,0,0:0:0:0:
256,192,27630,1,8,0:0:0:0:
256,192,27781,1,0,0:0:0:0:
256,192,27857,1,0,0:0:0:0:
256,192,27933,1,8,0:0:0:0:
247,193,28084,1,0,0:0:0:0:
256,192,28236,1,0,0:0:0:0:
256,192,28388,1,8,0:0:0:0:
256,192,28539,1,8,0:0:0:0:
256,192,28842,1,0,0:0:0:0:
256,192,28994,1,8,0:0:0:0:
247,193,29145,1,0,0:0:0:0:
256,192,29297,1,8,0:0:0:0:
256,192,29372,1,0,0:0:0:0:
256,192,29448,1,8,0:0:0:0:
256,192,29524,1,8,0:0:0:0:
256,192,29600,1,8,0:0:0:0:
256,192,29675,1,0,0:0:0:0:
256,192,29751,1,8,0:0:0:0:
256,192,29903,1,0,0:0:0:0:
256,192,30054,1,0,0:0:0:0:
256,192,30130,1,0,0:0:0:0:
256,192,30206,1,8,0:0:0:0:
256,192,30357,1,0,0:0:0:0:
256,192,30509,1,0,0:0:0:0:
256,192,30584,1,0,0:0:0:0:
256,192,30660,1,8,0:0:0:0:
256,192,30812,1,0,0:0:0:0:
256,192,30888,1,0,0:0:0:0:
256,192,30963,1,8,0:0:0:0:
256,192,31115,1,8,0:0:0:0:
256,192,31266,1,0,0:0:0:0:
256,192,31317,1,0,0:0:0:0:
256,192,31367,1,0,0:0:0:0:
256,192,31418,1,8,0:0:0:0:
256,192,31468,1,8,0:0:0:0:
256,192,31519,1,8,0:0:0:0:
256,192,31569,1,0,0:0:0:0:
256,192,31721,1,8,0:0:0:0:
256,192,31872,1,8,0:0:0:0:
256,192,31948,1,8,0:0:0:0:
256,192,32024,1,0,0:0:0:0:
256,192,32100,1,0,0:0:0:0:
256,192,32175,1,8,0:0:0:0:
256,192,32327,1,0,0:0:0:0:
256,192,32478,1,8,0:0:0:0:
256,192,32554,1,0,0:0:0:0:
256,192,32630,1,0,0:0:0:0:
256,192,32781,1,8,0:0:0:0:
256,192,32857,1,0,0:0:0:0:
256,192,32933,1,8,0:0:0:0:
256,192,33085,1,8,0:0:0:0:
256,192,33236,1,0,0:0:0:0:
256,192,33312,1,0,0:0:0:0:
256,192,33388,1,8,0:0:0:0:
256,192,33539,1,0,0:0:0:0:
256,192,33691,1,0,0:0:0:0:
256,192,33842,1,8,0:0:0:0:
256,192,34145,1,0,0:0:0:0:
256,192,34297,1,8,0:0:0:0:
256,192,34448,1,0,0:0:0:0:
256,192,34600,1,8,0:0:0:0:
256,192,34675,1,0,0:0:0:0:
256,192,34751,1,0,0:0:0:0:
256,192,34827,1,0,0:0:0:0:
256,192,34903,1,8,0:0:0:0:
256,192,35054,1,0,0:0:0:0:
256,192,35206,1,8,0:0:0:0:
256,192,35357,1,8,0:0:0:0:
256,192,35433,1,0,0:0:0:0:
256,192,35509,1,8,0:0:0:0:
256,192,35660,1,0,0:0:0:0:
256,192,35812,1,8,0:0:0:0:
256,192,35888,1,8,0:0:0:0:
256,192,35963,1,0,0:0:0:0:
256,192,36039,1,0,0:0:0:0:
256,192,36115,1,8,0:0:0:0:
256,192,36266,1,8,0:0:0:0:
256,192,36418,1,0,0:0:0:0:
256,192,36569,1,8,0:0:0:0:
256,192,36645,1,8,0:0:0:0:
256,192,36721,1,0,0:0:0:0:
256,192,36872,1,0,0:0:0:0:
256,192,37024,1,8,0:0:0:0:
256,192,37100,1,0,0:0:0:0:
256,192,37175,1,0,0:0:0:0:
256,192,37251,1,0,0:0:0:0:
256,192,37327,1,8,0:0:0:0:
256,192,37478,1,0,0:0:0:0:
256,192,37630,1,8,0:0:0:0:
256,192,37933,1,0,0:0:0:0:
256,192,38084,1,8,0:0:0:0:
256,192,38160,1,0,0:0:0:0:
256,192,38236,1,8,0:0:0:0:
256,192,38388,1,0,0:0:0:0:
256,192,38539,1,8,0:0:0:0:
256,192,38691,1,8,0:0:0:0:
256,192,38766,1,0,0:0:0:0:
256,192,38842,1,0,0:0:0:0:
256,192,38994,1,8,0:0:0:0:
256,192,39069,1,0,0:0:0:0:
256,192,39145,1,8,0:0:0:0:
256,192,39221,1,8,0:0:0:0:
256,192,39297,1,0,0:0:0:0:
256,192,39372,1,0,0:0:0:0:
256,192,39448,1,8,0:0:0:0:
256,192,39600,1,0,0:0:0:0:
256,192,39751,1,8,0:0:0:0:
256,192,39903,1,0,0:0:0:0:
256,192,39978,1,0,0:0:0:0:
256,192,40054,1,8,0:0:0:0:
256,192,40206,1,0,0:0:0:0:
256,192,40357,1,8,0:0:0:0:
256,192,40433,1,8,0:0:0:0:
256,192,40509,1,0,0:0:0:0:
256,192,40660,1,8,0:0:0:0:
256,192,40711,1,8,0:0:0:0:
256,192,40761,1,8,0:0:0:0:
256,192,40812,1,0,0:0:0:0:
256,192,40963,1,8,0:0:0:0:
256,192,41115,1,8,0:0:0:0:
256,192,41266,1,8,0:0:0:0:
256,192,41418,1,0,0:0:0:0:
256,192,41494,1,0,0:0:0:0:
256,192,41569,1,8,0:0:0:0:
256,192,41721,1,0,0:0:0:0:
256,192,41872,1,12,0:0:0:0:
256,192,42175,1,8,0:0:0:0:
256,192,42403,1,0,0:0:0:0:
256,192,42478,1,8,0:0:0:0:
256,192,42630,1,0,0:0:0:0:
256,192,42781,1,8,0:0:0:0:
256,192,42857,1,0,0:0:0:0:
256,192,42933,1,0,0:0:0:0:
256,192,43084,1,8,0:0:0:0:
256,192,43236,1,0,0:0:0:0:
256,192,43388,1,8,0:0:0:0:
256,192,43463,1,0,0:0:0:0:
256,192,43539,1,8,0:0:0:0:
256,192,43691,1,0,0:0:0:0:
256,192,43842,1,0,0:0:0:0:
256,192,43918,1,0,0:0:0:0:
256,192,43994,1,8,0:0:0:0:
256,192,44069,1,8,0:0:0:0:
256,192,44145,1,0,0:0:0:0:
256,192,44221,1,0,0:0:0:0:
256,192,44297,1,8,0:0:0:0:
256,192,44600,1,8,0:0:0:0:
256,192,44827,1,0,0:0:0:0:
256,192,44903,1,8,0:0:0:0:
256,192,45054,1,0,0:0:0:0:
256,192,45206,1,8,0:0:0:0:
256,192,45357,1,8,0:0:0:0:
256,192,45433,1,0,0:0:0:0:
256,192,45509,1,8,0:0:0:0:
256,192,45584,1,8,0:0:0:0:
256,192,45660,1,0,0:0:0:0:
256,192,45736,1,0,0:0:0:0:
256,192,45812,1,8,0:0:0:0:
256,192,45963,1,8,0:0:0:0:
256,192,46039,1,0,0:0:0:0:
256,192,46115,1,0,0:0:0:0:
256,192,46266,1,8,0:0:0:0:
256,192,46342,1,0,0:0:0:0:
256,192,46418,1,8,0:0:0:0:
256,192,46569,1,0,0:0:0:0:
256,192,46721,1,8,0:0:0:0:
256,192,46948,1,0,0:0:0:0:
256,192,47024,1,8,0:0:0:0:
256,192,47175,1,0,0:0:0:0:
256,192,47327,1,8,0:0:0:0:
256,192,47554,1,0,0:0:0:0:
256,192,47630,1,8,0:0:0:0:
256,192,47781,1,0,0:0:0:0:
256,192,47933,1,0,0:0:0:0:
256,192,48160,1,0,0:0:0:0:
256,192,48236,1,8,0:0:0:0:
256,192,48388,1,0,0:0:0:0:
256,192,48539,1,8,0:0:0:0:
256,192,48766,1,0,0:0:0:0:
256,192,48842,1,8,0:0:0:0:
256,192,48994,1,0,0:0:0:0:
256,192,49145,1,8,0:0:0:0:
256,192,49297,1,8,0:0:0:0:
256,192,49372,1,0,0:0:0:0:
256,192,49448,1,0,0:0:0:0:
256,192,49600,1,8,0:0:0:0:
256,192,49675,1,8,0:0:0:0:
256,192,49751,1,0,0:0:0:0:
256,192,49827,1,0,0:0:0:0:
256,192,49903,1,8,0:0:0:0:
256,192,49978,1,0,0:0:0:0:
256,192,50054,1,8,0:0:0:0:
256,192,50105,1,8,0:0:0:0:
256,192,50155,1,8,0:0:0:0:
256,192,50206,1,0,0:0:0:0:
256,192,50256,1,0,0:0:0:0:
256,192,50307,1,0,0:0:0:0:
256,192,50357,1,8,0:0:0:0:
256,192,50433,1,0,0:0:0:0:
256,192,50509,1,8,0:0:0:0:
256,192,50584,1,0,0:0:0:0:
256,192,50660,1,8,0:0:0:0:
256,192,50736,1,8,0:0:0:0:
256,192,50812,1,8,0:0:0:0:
256,192,50888,1,0,0:0:0:0:
256,192,50963,1,0,0:0:0:0:
256,192,51039,1,0,0:0:0:0:
256,192,51115,1,0,0:0:0:0:
256,192,51191,1,0,0:0:0:0:
256,192,51266,1,8,0:0:0:0:
256,192,51569,1,12,0:0:0:0:
256,192,51721,1,0,0:0:0:0:
256,192,51797,1,0,0:0:0:0:
256,192,51872,1,8,0:0:0:0:
256,192,52024,1,8,0:0:0:0:
256,192,52100,1,0,0:0:0:0:
256,192,52175,1,0,0:0:0:0:
256,192,52251,1,0,0:0:0:0:
256,192,52327,1,8,0:0:0:0:
256,192,52478,1,8,0:0:0:0:
256,192,52554,1,8,0:0:0:0:
256,192,52630,1,0,0:0:0:0:
256,192,52706,1,0,0:0:0:0:
256,192,52781,1,8,0:0:0:0:
256,192,52933,1,0,0:0:0:0:
256,192,53009,1,8,0:0:0:0:
256,192,53084,1,0,0:0:0:0:
256,192,53236,1,8,0:0:0:0:
256,192,53312,1,0,0:0:0:0:
256,192,53388,1,0,0:0:0:0:
256,192,53539,1,8,0:0:0:0:
256,192,53691,1,8,0:0:0:0:
256,192,53842,1,0,0:0:0:0:
256,192,53994,1,8,0:0:0:0:
256,192,54069,1,0,0:0:0:0:
256,192,54145,1,0,0:0:0:0:
256,192,54297,1,8,0:0:0:0:
256,192,54448,1,8,0:0:0:0:
256,192,54524,1,0,0:0:0:0:
256,192,54600,1,0,0:0:0:0:
256,192,54675,1,0,0:0:0:0:
256,192,54751,1,8,0:0:0:0:
256,192,54903,1,8,0:0:0:0:
256,192,54978,1,0,0:0:0:0:
256,192,55054,1,0,0:0:0:0:
256,192,55206,1,8,0:0:0:0:
256,192,55281,1,8,0:0:0:0:
256,192,55357,1,0,0:0:0:0:
256,192,55433,1,0,0:0:0:0:
256,192,55509,1,8,0:0:0:0:
256,192,55660,1,0,0:0:0:0:
256,192,55812,1,8,0:0:0:0:
256,192,55888,1,0,0:0:0:0:
256,192,55963,1,8,0:0:0:0:
256,192,56039,1,0,0:0:0:0:
256,192,56115,1,8,0:0:0:0:
256,192,56266,1,0,0:0:0:0:
256,192,56342,1,0,0:0:0:0:
256,192,56418,1,8,0:0:0:0:
256,192,56569,1,0,0:0:0:0:
256,192,56721,1,8,0:0:0:0:
256,192,56872,1,0,0:0:0:0:
256,192,56948,1,0,0:0:0:0:
256,192,57024,1,8,0:0:0:0:
256,192,57175,1,0,0:0:0:0:
256,192,57327,1,8,0:0:0:0:
256,192,57403,1,8,0:0:0:0:
256,192,57478,1,0,0:0:0:0:
256,192,57554,1,0,0:0:0:0:
256,192,57630,1,8,0:0:0:0:
256,192,57781,1,0,0:0:0:0:
256,192,57857,1,0,0:0:0:0:
256,192,57933,1,8,0:0:0:0:
256,192,58084,1,0,0:0:0:0:
256,192,58236,1,8,0:0:0:0:
256,192,58312,1,0,0:0:0:0:
256,192,58388,1,0,0:0:0:0:
256,192,58539,1,8,0:0:0:0:
256,192,58691,1,0,0:0:0:0:
256,192,58766,1,0,0:0:0:0:
256,192,58842,1,8,0:0:0:0:
256,192,58994,1,0,0:0:0:0:
256,192,59044,1,0,0:0:0:0:
256,192,59095,1,0,0:0:0:0:
256,192,59145,1,8,0:0:0:0:
256,192,59297,1,0,0:0:0:0:
256,192,59372,1,0,0:0:0:0:
256,192,59448,1,8,0:0:0:0:
256,192,59600,1,8,0:0:0:0:
256,192,59650,1,8,0:0:0:0:
256,192,59701,1,8,0:0:0:0:
256,192,59751,1,0,0:0:0:0:
256,192,59903,1,8,0:0:0:0:
256,192,59978,1,8,0:0:0:0:
256,192,60054,1,0,0:0:0:0:
256,192,60130,1,0,0:0:0:0:
256,192,60206,1,8,0:0:0:0:
256,192,60256,1,0,0:0:0:0:
256,192,60307,1,0,0:0:0:0:
256,192,60357,1,8,0:0:0:0:
256,192,60433,1,0,0:0:0:0:
256,192,60509,1,8,0:0:0:0:
256,192,60584,1,8,0:0:0:0:
256,192,60660,1,0,0:0:0:0:
256,192,60812,1,8,0:0:0:0:
256,192,60888,1,0,0:0:0:0:
256,192,60963,1,8,0:0:0:0:
256,192,61115,1,0,0:0:0:0:
256,192,61266,1,12,0:0:0:0:
256,192,61418,1,0,0:0:0:0:
256,192,61494,1,0,0:0:0:0:
256,192,61569,1,8,0:0:0:0:
256,192,61721,1,8,0:0:0:0:
256,192,61797,1,0,0:0:0:0:
256,192,61872,1,0,0:0:0:0:
256,192,61948,1,0,0:0:0:0:
256,192,62024,1,8,0:0:0:0:
256,192,62175,1,8,0:0:0:0:
256,192,62251,1,8,0:0:0:0:
256,192,62327,1,0,0:0:0:0:
256,192,62403,1,0,0:0:0:0:
256,192,62478,1,8,0:0:0:0:
256,192,62630,1,0,0:0:0:0:
256,192,62706,1,8,0:0:0:0:
256,192,62781,1,0,0:0:0:0:
256,192,62933,1,8,0:0:0:0:
256,192,63009,1,0,0:0:0:0:
256,192,63084,1,0,0:0:0:0:
256,192,63160,1,0,0:0:0:0:
256,192,63236,1,8,0:0:0:0:
256,192,63388,1,8,0:0:0:0:
256,192,63539,1,0,0:0:0:0:
256,192,63691,1,8,0:0:0:0:
256,192,63766,1,0,0:0:0:0:
256,192,63842,1,0,0:0:0:0:
256,192,63994,1,0,0:0:0:0:
256,192,64145,1,8,0:0:0:0:
256,192,64221,1,0,0:0:0:0:
256,192,64297,1,0,0:0:0:0:
256,192,64448,1,0,0:0:0:0:
256,192,64600,1,8,0:0:0:0:
256,192,64675,1,0,0:0:0:0:
256,192,64751,1,0,0:0:0:0:
256,192,64903,1,8,0:0:0:0:
256,192,64978,1,8,0:0:0:0:
256,192,65054,1,0,0:0:0:0:
256,192,65130,1,0,0:0:0:0:
256,192,65206,1,8,0:0:0:0:
256,192,65281,1,0,0:0:0:0:
256,192,65357,1,8,0:0:0:0:
256,192,65433,1,8,0:0:0:0:
256,192,65509,1,0,0:0:0:0:
256,192,65660,1,0,0:0:0:0:
256,192,65812,1,8,0:0:0:0:
256,192,65963,1,0,0:0:0:0:
256,192,66039,1,0,0:0:0:0:
256,192,66115,1,8,0:0:0:0:
256,192,66266,1,0,0:0:0:0:
256,192,66418,1,8,0:0:0:0:
256,192,66569,1,8,0:0:0:0:
256,192,66645,1,0,0:0:0:0:
256,192,66721,1,0,0:0:0:0:
256,192,66872,1,0,0:0:0:0:
256,192,67024,1,8,0:0:0:0:
256,192,67100,1,8,0:0:0:0:
256,192,67175,1,0,0:0:0:0:
256,192,67251,1,0,0:0:0:0:
256,192,67327,1,8,0:0:0:0:
256,192,67478,1,0,0:0:0:0:
256,192,67630,1,8,0:0:0:0:
256,192,67706,1,0,0:0:0:0:
256,192,67781,1,8,0:0:0:0:
256,192,67933,1,0,0:0:0:0:
256,192,68085,1,0,0:0:0:0:
256,192,68160,1,0,0:0:0:0:
256,192,68236,1,8,0:0:0:0:
256,192,68388,1,0,0:0:0:0:
256,192,68539,1,12,0:0:0:0:
256,192,68842,1,8,0:0:0:0:
256,192,69145,1,0,0:0:0:0:
256,192,69448,1,8,0:0:0:0:
256,192,70054,1,12,0:0:0:0:
256,192,70357,1,4,0:0:0:0:
256,192,70963,1,12,0:0:0:0:
256,192,71115,1,0,0:0:0:0:
256,192,71266,1,8,0:0:0:0:
256,192,71342,1,0,0:0:0:0:
256,192,71418,1,0,0:0:0:0:
256,192,71569,1,8,0:0:0:0:
256,192,71721,1,8,0:0:0:0:
256,192,71797,1,0,0:0:0:0:
256,192,71872,1,0,0:0:0:0:
256,192,72024,1,0,0:0:0:0:
256,192,72478,1,8,0:0:0:0:
256,192,72554,1,0,0:0:0:0:
256,192,72630,1,0,0:0:0:0:
256,192,72706,1,0,0:0:0:0:
256,192,72781,1,8,0:0:0:0:
256,192,72933,1,8,0:0:0:0:
256,192,73009,1,0,0:0:0:0:
256,192,73160,1,0,0:0:0:0:
256,192,73236,1,8,0:0:0:0:
256,192,73388,1,8,0:0:0:0:
256,192,73463,1,0,0:0:0:0:
256,192,73539,1,0,0:0:0:0:
256,192,73691,1,8,0:0:0:0:
256,192,73766,1,0,0:0:0:0:
256,192,73842,1,0,0:0:0:0:
256,192,73994,1,8,0:0:0:0:
256,192,74145,1,0,0:0:0:0:
256,192,74221,1,0,0:0:0:0:
256,192,74297,1,8,0:0:0:0:
256,192,74448,1,0,0:0:0:0:
256,192,74903,1,8,0:0:0:0:
256,192,74978,1,0,0:0:0:0:
256,192,75054,1,0,0:0:0:0:
256,192,75206,1,8,0:0:0:0:
256,192,75357,1,0,0:0:0:0:
256,192,75433,1,8,0:0:0:0:
256,192,75584,1,8,0:0:0:0:
256,192,75660,1,0,0:0:0:0:
256,192,75812,1,8,0:0:0:0:
256,192,75888,1,0,0:0:0:0:
256,192,75963,1,0,0:0:0:0:
256,192,76115,1,8,0:0:0:0:
256,192,76191,1,0,0:0:0:0:
256,192,76266,1,0,0:0:0:0:
256,192,76418,1,8,0:0:0:0:
256,192,76569,1,0,0:0:0:0:
256,192,76645,1,0,0:0:0:0:
256,192,76721,1,8,0:0:0:0:
256,192,76872,1,0,0:0:0:0:
256,192,77327,1,8,0:0:0:0:
256,192,77403,1,0,0:0:0:0:
256,192,77478,1,0,0:0:0:0:
256,192,77630,1,8,0:0:0:0:
256,192,77781,1,8,0:0:0:0:
256,192,77857,1,0,0:0:0:0:
256,192,77933,1,0,0:0:0:0:
256,192,78236,1,8,0:0:0:0:
256,192,78463,1,0,0:0:0:0:
256,192,78539,1,8,0:0:0:0:
256,192,78691,1,0,0:0:0:0:
256,192,78842,1,8,0:0:0:0:
256,192,78994,1,8,0:0:0:0:
256,192,79145,1,0,0:0:0:0:
256,192,79297,1,8,0:0:0:0:
256,192,79372,1,0,0:0:0:0:
256,192,79448,1,8,0:0:0:0:
256,192,79524,1,8,0:0:0:0:
256,192,79600,1,0,0:0:0:0:
256,192,79675,1,0,0:0:0:0:
256,192,79751,1,8,0:0:0:0:
256,192,79827,1,8,0:0:0:0:
256,192,79903,1,0,0:0:0:0:
256,192,79978,1,0,0:0:0:0:
256,192,80054,1,8,0:0:0:0:
256,192,80130,1,0,0:0:0:0:
256,192,80206,1,8,0:0:0:0:
256,192,80281,1,8,0:0:0:0:
256,192,80357,1,0,0:0:0:0:
256,192,80433,1,0,0:0:0:0:
256,192,80509,1,0,0:0:0:0:
256,192,80584,1,0,0:0:0:0:
256,192,80660,1,12,0:0:0:0:
256,192,80812,1,0,0:0:0:0:
256,192,80963,1,8,0:0:0:0:
256,192,81115,1,0,0:0:0:0:
256,192,81191,1,0,0:0:0:0:
256,192,81266,1,8,0:0:0:0:
256,192,81418,1,8,0:0:0:0:
256,192,81494,1,0,0:0:0:0:
256,192,81569,1,0,0:0:0:0:
256,192,81721,1,0,0:0:0:0:
256,192,81872,1,8,0:0:0:0:
256,192,82175,1,0,0:0:0:0:
256,192,82327,1,8,0:0:0:0:
256,192,82630,1,0,0:0:0:0:
256,192,82781,1,8,0:0:0:0:
256,192,82857,1,0,0:0:0:0:
256,192,82933,1,0,0:0:0:0:
256,192,83009,1,0,0:0:0:0:
256,192,83084,1,8,0:0:0:0:
256,192,83236,1,0,0:0:0:0:
256,192,83388,1,8,0:0:0:0:
256,192,83539,1,8,0:0:0:0:
256,192,83615,1,0,0:0:0:0:
256,192,83691,1,0,0:0:0:0:
256,192,83842,1,0,0:0:0:0:
256,192,83918,1,0,0:0:0:0:
256,192,83994,1,8,0:0:0:0:
256,192,84145,1,8,0:0:0:0:
256,192,84297,1,0,0:0:0:0:
256,192,84600,1,8,0:0:0:0:
256,192,84751,1,8,0:0:0:0:
252,198,84903,1,0,0:0:0:0:
252,197,85054,1,8,0:0:0:0:
252,197,85130,1,0,0:0:0:0:
256,192,85206,1,8,0:0:0:0:
252,198,85281,1,8,0:0:0:0:
252,198,85357,1,0,0:0:0:0:
252,198,85433,1,0,0:0:0:0:
256,192,85509,1,8,0:0:0:0:
256,192,85660,1,0,0:0:0:0:
256,192,85812,1,8,0:0:0:0:
256,192,85963,1,0,0:0:0:0:
256,192,86115,1,8,0:0:0:0:
256,192,86418,1,0,0:0:0:0:
256,192,86569,1,8,0:0:0:0:
256,192,86721,1,8,0:0:0:0:
256,192,86872,1,0,0:0:0:0:
256,192,87024,1,8,0:0:0:0:
256,192,87175,1,8,0:0:0:0:
256,192,87478,1,0,0:0:0:0:
256,192,87630,1,8,0:0:0:0:
256,192,87706,1,8,0:0:0:0:
256,192,87781,1,0,0:0:0:0:
256,192,87857,1,0,0:0:0:0:
256,192,87933,1,8,0:0:0:0:
256,192,88084,1,0,0:0:0:0:
256,192,88236,1,8,0:0:0:0:
256,192,88388,1,8,0:0:0:0:
256,192,88463,1,0,0:0:0:0:
256,192,88539,1,0,0:0:0:0:
256,192,88691,1,0,0:0:0:0:
256,192,88842,1,8,0:0:0:0:
256,192,88918,1,0,0:0:0:0:
256,192,88994,1,0,0:0:0:0:
256,192,89145,1,8,0:0:0:0:
256,192,89221,1,0,0:0:0:0:
256,192,89297,1,8,0:0:0:0:
256,192,89448,1,0,0:0:0:0:
256,192,89499,1,0,0:0:0:0:
256,192,89549,1,0,0:0:0:0:
256,192,89600,1,8,0:0:0:0:
256,192,89650,1,8,0:0:0:0:
256,192,89701,1,8,0:0:0:0:
256,192,89751,1,0,0:0:0:0:
256,192,89903,1,0,0:0:0:0:
256,192,90054,1,8,0:0:0:0:
256,192,90130,1,0,0:0:0:0:
256,192,90206,1,0,0:0:0:0:
256,192,90281,1,0,0:0:0:0:
256,192,90357,1,8,0:0:0:0:
256,192,90509,1,0,0:0:0:0:
256,192,90584,1,0,0:0:0:0:
256,192,90660,1,8,0:0:0:0:
256,192,90812,1,0,0:0:0:0:
256,192,90963,1,8,0:0:0:0:
256,192,91115,1,0,0:0:0:0:
256,192,91191,1,0,0:0:0:0:
256,192,91266,1,8,0:0:0:0:
256,192,91569,1,8,0:0:0:0:
256,192,91721,1,8,0:0:0:0:
256,192,91872,1,0,0:0:0:0:
256,192,92024,1,8,0:0:0:0:
256,192,92327,1,8,0:0:0:0:
256,192,92478,1,0,0:0:0:0:
256,192,92554,1,0,0:0:0:0:
256,192,92630,1,0,0:0:0:0:
256,192,92781,1,8,0:0:0:0:
256,192,93084,1,8,0:0:0:0:
256,192,93236,1,0,0:0:0:0:
256,192,93388,1,8,0:0:0:0:
256,192,93539,1,8,0:0:0:0:
256,192,93691,1,0,0:0:0:0:
256,192,93766,1,0,0:0:0:0:
256,192,93842,1,0,0:0:0:0:
256,192,93994,1,8,0:0:0:0:
256,192,94145,1,0,0:0:0:0:
256,192,94297,1,8,0:0:0:0:
256,192,94448,1,8,0:0:0:0:
256,192,94751,1,8,0:0:0:0:
256,192,94903,1,0,0:0:0:0:
256,192,95054,1,0,0:0:0:0:
256,192,95206,1,8,0:0:0:0:
256,192,95281,1,0,0:0:0:0:
256,192,95357,1,0,0:0:0:0:
256,192,95509,1,8,0:0:0:0:
256,192,95812,1,0,0:0:0:0:
256,192,96115,1,0,0:0:0:0:
256,192,96266,1,0,0:0:0:0:
256,192,96342,1,0,0:0:0:0:
256,192,96418,1,8,0:0:0:0:
256,192,96569,1,0,0:0:0:0:
256,192,96721,1,8,0:0:0:0:
256,192,96872,1,8,0:0:0:0:
256,192,97024,1,0,0:0:0:0:
256,192,97175,1,8,0:0:0:0:
256,192,97251,1,0,0:0:0:0:
256,192,97327,1,8,0:0:0:0:
256,192,97403,1,8,0:0:0:0:
256,192,97478,1,0,0:0:0:0:
256,192,97554,1,0,0:0:0:0:
256,192,97630,1,8,0:0:0:0:
256,192,97781,1,0,0:0:0:0:
256,192,97933,1,8,0:0:0:0:
256,192,98084,1,0,0:0:0:0:
256,192,98236,1,8,0:0:0:0:
256,192,98312,1,0,0:0:0:0:
256,192,98388,1,0,0:0:0:0:
256,192,98539,1,8,0:0:0:0:
256,192,98691,1,0,0:0:0:0:
256,192,98842,1,8,0:0:0:0:
256,192,98893,1,0,0:0:0:0:
256,192,98943,1,0,0:0:0:0:
256,192,98994,1,0,0:0:0:0:
256,192,99145,1,8,0:0:0:0:
256,192,99297,1,0,0:0:0:0:
256,192,99448,1,0,0:0:0:0:
256,192,99751,1,8,0:0:0:0:
256,192,100054,1,4,0:0:0:0:
256,192,100357,1,8,0:0:0:0:
256,192,100660,1,8,0:0:0:0:
256,192,100812,1,0,0:0:0:0:
256,192,100963,1,8,0:0:0:0:
256,192,101115,1,0,0:0:0:0:
256,192,101266,1,8,0:0:0:0:
256,192,101342,1,0,0:0:0:0:
256,192,101418,1,0,0:0:0:0:
256,192,101569,1,0,0:0:0:0:
256,192,101721,1,8,0:0:0:0:
256,192,101872,1,0,0:0:0:0:
256,192,102024,1,8,0:0:0:0:
256,192,102175,1,8,0:0:0:0:
256,192,102251,1,0,0:0:0:0:
256,192,102327,1,0,0:0:0:0:
256,192,102403,1,0,0:0:0:0:
256,192,102478,1,8,0:0:0:0:
256,192,102781,1,0,0:0:0:0:
256,192,103084,1,8,0:0:0:0:
256,192,103236,1,0,0:0:0:0:
256,192,103388,1,8,0:0:0:0:
256,192,103539,1,0,0:0:0:0:
256,192,103615,1,0,0:0:0:0:
256,192,103691,1,8,0:0:0:0:
256,192,103842,1,8,0:0:0:0:
256,192,103994,1,0,0:0:0:0:
256,192,104145,1,8,0:0:0:0:
256,192,104221,1,0,0:0:0:0:
256,192,104297,1,0,0:0:0:0:
256,192,104448,1,0,0:0:0:0:
256,192,104600,1,8,0:0:0:0:
256,192,104903,1,0,0:0:0:0:
256,192,105130,1,0,0:0:0:0:
256,192,105206,1,8,0:0:0:0:
256,192,105357,1,0,0:0:0:0:
256,192,105433,1,0,0:0:0:0:
256,192,105509,1,8,0:0:0:0:
256,192,105660,1,0,0:0:0:0:
256,192,105812,1,8,0:0:0:0:
256,192,106039,1,0,0:0:0:0:
256,192,106115,1,8,0:0:0:0:
256,192,106266,1,0,0:0:0:0:
256,192,106418,1,8,0:0:0:0:
256,192,106569,1,0,0:0:0:0:
256,192,106645,1,0,0:0:0:0:
256,192,106721,1,8,0:0:0:0:
256,192,106872,1,0,0:0:0:0:
256,192,107024,1,8,0:0:0:0:
256,192,107327,1,12,0:0:0:0:
256,192,107478,1,8,0:0:0:0:
256,192,107554,1,0,0:0:0:0:
256,192,107630,1,0,0:0:0:0:
256,192,107781,1,8,0:0:0:0:
256,192,107857,1,0,0:0:0:0:
256,192,107933,1,0,0:0:0:0:
256,192,108084,1,8,0:0:0:0:
256,192,108160,1,8,0:0:0:0:
256,192,108236,1,0,0:0:0:0:
256,192,108287,1,0,0:0:0:0:
256,192,108337,1,0,0:0:0:0:
256,192,108388,1,8,0:0:0:0:
256,192,108438,1,8,0:0:0:0:
256,192,108489,1,8,0:0:0:0:
256,192,108539,1,0,0:0:0:0:
256,192,108615,1,0,0:0:0:0:
256,192,108691,1,8,0:0:0:0:
256,192,108766,1,0,0:0:0:0:
256,192,108842,1,8,0:0:0:0:
256,192,108918,1,8,0:0:0:0:
256,192,108994,1,8,0:0:0:0:
256,192,109069,1,0,0:0:0:0:
256,192,109145,1,0,0:0:0:0:
256,192,109221,1,0,0:0:0:0:
256,192,109297,1,0,0:0:0:0:
256,192,109372,1,0,0:0:0:0:
256,192,109448,1,8,0:0:0:0:
256,192,109751,1,12,0:0:0:0:
256,192,109903,1,0,0:0:0:0:
256,192,109978,1,0,0:0:0:0:
256,192,110054,1,8,0:0:0:0:
256,192,110206,1,8,0:0:0:0:
256,192,110281,1,0,0:0:0:0:
256,192,110357,1,0,0:0:0:0:
256,192,110433,1,0,0:0:0:0:
256,192,110509,1,8,0:0:0:0:
256,192,110660,1,8,0:0:0:0:
256,192,110736,1,8,0:0:0:0:
256,192,110812,1,0,0:0:0:0:
256,192,110888,1,0,0:0:0:0:
256,192,110963,1,8,0:0:0:0:
256,192,111115,1,0,0:0:0:0:
256,192,111191,1,8,0:0:0:0:
256,192,111266,1,0,0:0:0:0:
256,192,111418,1,8,0:0:0:0:
256,192,111569,1,0,0:0:0:0:
256,192,111645,1,0,0:0:0:0:
256,192,111721,1,8,0:0:0:0:
256,192,111872,1,8,0:0:0:0:
256,192,112024,1,0,0:0:0:0:
256,192,112175,1,8,0:0:0:0:
256,192,112251,1,0,0:0:0:0:
256,192,112327,1,0,0:0:0:0:
256,192,112478,1,8,0:0:0:0:
256,192,112630,1,8,0:0:0:0:
256,192,112706,1,0,0:0:0:0:
256,192,112781,1,0,0:0:0:0:
256,192,112857,1,0,0:0:0:0:
256,192,112933,1,8,0:0:0:0:
256,192,113084,1,8,0:0:0:0:
256,192,113160,1,0,0:0:0:0:
256,192,113236,1,0,0:0:0:0:
256,192,113388,1,8,0:0:0:0:
256,192,113463,1,8,0:0:0:0:
256,192,113539,1,0,0:0:0:0:
256,192,113615,1,0,0:0:0:0:
256,192,113691,1,8,0:0:0:0:
256,192,113842,1,8,0:0:0:0:
256,192,113994,1,0,0:0:0:0:
256,192,114145,1,0,0:0:0:0:
256,192,114297,1,8,0:0:0:0:
256,192,114448,1,0,0:0:0:0:
256,192,114600,1,8,0:0:0:0:
256,192,114675,1,8,0:0:0:0:
256,192,114751,1,0,0:0:0:0:
256,192,114827,1,0,0:0:0:0:
256,192,114903,1,8,0:0:0:0:
256,192,115054,1,8,0:0:0:0:
256,192,115130,1,0,0:0:0:0:
256,192,115206,1,0,0:0:0:0:
256,192,115357,1,0,0:0:0:0:
256,192,115509,1,8,0:0:0:0:
256,192,115584,1,0,0:0:0:0:
256,192,115660,1,8,0:0:0:0:
256,192,115812,1,8,0:0:0:0:
256,192,115888,1,0,0:0:0:0:
256,192,115963,1,0,0:0:0:0:
256,192,116039,1,0,0:0:0:0:
256,192,116115,1,8,0:0:0:0:
256,192,116266,1,8,0:0:0:0:
256,192,116342,1,0,0:0:0:0:
256,192,116418,1,0,0:0:0:0:
256,192,116569,1,0,0:0:0:0:
256,192,116721,1,8,0:0:0:0:
256,192,116797,1,0,0:0:0:0:
256,192,116872,1,8,0:0:0:0:
256,192,116948,1,0,0:0:0:0:
256,192,117024,1,8,0:0:0:0:
256,192,117175,1,0,0:0:0:0:
256,192,117226,1,0,0:0:0:0:
256,192,117276,1,0,0:0:0:0:
256,192,117327,1,8,0:0:0:0:
256,192,117478,1,8,0:0:0:0:
256,192,117554,1,0,0:0:0:0:
256,192,117630,1,0,0:0:0:0:
256,192,117781,1,8,0:0:0:0:
256,192,117832,1,0,0:0:0:0:
256,192,117882,1,0,0:0:0:0:
256,192,117933,1,8,0:0:0:0:
256,192,118084,1,0,0:0:0:0:
256,192,118160,1,8,0:0:0:0:
256,192,118236,1,8,0:0:0:0:
256,192,118312,1,0,0:0:0:0:
256,192,118388,1,8,0:0:0:0:
256,192,118438,1,8,0:0:0:0:
256,192,118489,1,0,0:0:0:0:
256,192,118539,1,8,0:0:0:0:
256,192,118615,1,0,0:0:0:0:
256,192,118691,1,8,0:0:0:0:
256,192,118766,1,8,0:0:0:0:
256,192,118842,1,0,0:0:0:0:
256,192,118994,1,8,0:0:0:0:
256,192,119145,1,8,0:0:0:0:
256,192,119297,1,0,0:0:0:0:
256,192,119448,1,12,0:0:0:0:
256,192,119600,1,0,0:0:0:0:
256,192,119675,1,0,0:0:0:0:
256,192,119751,1,8,0:0:0:0:
256,192,119903,1,8,0:0:0:0:
256,192,119978,1,0,0:0:0:0:
256,192,120054,1,0,0:0:0:0:
256,192,120130,1,0,0:0:0:0:
256,192,120206,1,8,0:0:0:0:
256,192,120357,1,8,0:0:0:0:
256,192,120433,1,8,0:0:0:0:
256,192,120509,1,0,0:0:0:0:
256,192,120584,1,0,0:0:0:0:
256,192,120660,1,8,0:0:0:0:
256,192,120812,1,0,0:0:0:0:
256,192,120888,1,8,0:0:0:0:
256,192,120963,1,0,0:0:0:0:
256,192,121115,1,8,0:0:0:0:
256,192,121266,1,0,0:0:0:0:
256,192,121342,1,0,0:0:0:0:
256,192,121418,1,8,0:0:0:0:
256,192,121569,1,8,0:0:0:0:
256,192,121721,1,0,0:0:0:0:
256,192,121872,1,8,0:0:0:0:
256,192,121948,1,0,0:0:0:0:
256,192,122024,1,0,0:0:0:0:
256,192,122175,1,0,0:0:0:0:
256,192,122327,1,8,0:0:0:0:
256,192,122403,1,0,0:0:0:0:
256,192,122478,1,0,0:0:0:0:
256,192,122630,1,0,0:0:0:0:
256,192,122781,1,8,0:0:0:0:
256,192,122857,1,0,0:0:0:0:
256,192,122933,1,0,0:0:0:0:
256,192,123084,1,8,0:0:0:0:
256,192,123160,1,8,0:0:0:0:
256,192,123236,1,0,0:0:0:0:
256,192,123312,1,0,0:0:0:0:
256,192,123388,1,8,0:0:0:0:
256,192,123539,1,8,0:0:0:0:
256,192,123691,1,0,0:0:0:0:
256,192,123766,1,0,0:0:0:0:
256,192,123842,1,8,0:0:0:0:
256,192,123994,1,8,0:0:0:0:
256,192,124069,1,0,0:0:0:0:
256,192,124145,1,0,0:0:0:0:
256,192,124221,1,0,0:0:0:0:
256,192,124297,1,8,0:0:0:0:
256,192,124448,1,0,0:0:0:0:
256,192,124600,1,8,0:0:0:0:
256,192,124751,1,0,0:0:0:0:
256,192,124827,1,0,0:0:0:0:
256,192,124903,1,8,0:0:0:0:
256,192,125054,1,0,0:0:0:0:
256,192,125206,1,8,0:0:0:0:
256,192,125281,1,8,0:0:0:0:
256,192,125357,1,0,0:0:0:0:
256,192,125433,1,0,0:0:0:0:
256,192,125509,1,8,0:0:0:0:
256,192,125660,1,0,0:0:0:0:
256,192,125812,1,8,0:0:0:0:
256,192,125963,1,0,0:0:0:0:
256,192,126039,1,0,0:0:0:0:
256,192,126115,1,8,0:0:0:0:
256,192,126191,1,0,0:0:0:0:
256,192,126266,1,8,0:0:0:0:
256,192,126418,1,8,0:0:0:0:
256,192,126569,1,0,0:0:0:0:
256,192,126721,1,12,0:0:0:0:
256,192,127024,1,8,0:0:0:0:
256,192,127327,1,0,0:0:0:0:
256,192,127630,1,8,0:0:0:0:
256,192,128236,1,12,0:0:0:0:
256,192,128539,1,4,0:0:0:0:
256,192,129145,1,0,0:0:0:0:
256,192,129448,1,8,0:0:0:0:
256,192,129751,1,8,0:0:0:0:
256,192,129903,1,8,0:0:0:0:
256,192,130054,1,0,0:0:0:0:
256,192,130206,1,8,0:0:0:0:
256,192,130357,1,0,0:0:0:0:
256,192,130660,1,8,0:0:0:0:
256,192,130812,1,0,0:0:0:0:
256,192,130963,1,8,0:0:0:0:
256,192,131115,1,8,0:0:0:0:
256,192,131266,1,0,0:0:0:0:
256,192,131418,1,8,0:0:0:0:
256,192,131569,1,0,0:0:0:0:
256,192,131872,1,8,0:0:0:0:
256,192,132024,1,0,0:0:0:0:
256,192,132175,1,8,0:0:0:0:
256,192,132327,1,8,0:0:0:0:
256,192,132478,1,0,0:0:0:0:
256,192,132630,1,0,0:0:0:0:
256,192,132781,1,8,0:0:0:0:
256,192,133085,1,8,0:0:0:0:
256,192,133388,1,0,0:0:0:0:
256,192,133539,1,0,0:0:0:0:
256,192,133691,1,8,0:0:0:0:
256,192,133842,1,0,0:0:0:0:
256,192,133994,1,8,0:0:0:0:
256,192,134145,1,0,0:0:0:0:
256,192,134297,1,8,0:0:0:0:
256,192,134448,1,8,0:0:0:0:
256,192,134600,1,0,0:0:0:0:
256,192,134751,1,8,0:0:0:0:
256,192,134903,1,0,0:0:0:0:
256,192,135054,1,0,0:0:0:0:
256,192,135206,1,8,0:0:0:0:
256,192,135509,1,8,0:0:0:0:
256,192,135660,1,8,0:0:0:0:
256,192,135812,1,0,0:0:0:0:
256,192,135963,1,0,0:0:0:0:
256,192,136115,1,8,0:0:0:0:
256,192,136266,1,0,0:0:0:0:
256,192,136418,1,8,0:0:0:0:
256,192,136721,1,8,0:0:0:0:
256,192,136872,1,0,0:0:0:0:
256,192,137024,1,8,0:0:0:0:
256,192,137175,1,8,0:0:0:0:
256,192,137327,1,8,0:0:0:0:
256,192,137478,1,0,0:0:0:0:
256,192,137630,1,8,0:0:0:0:
256,192,137781,1,0,0:0:0:0:
256,192,137933,1,0,0:0:0:0:
256,192,138084,1,0,0:0:0:0:
256,192,138236,1,8,0:0:0:0:
256,192,138388,1,0,0:0:0:0:
256,192,138539,1,8,0:0:0:0:
256,192,138842,5,0,0:0:0:0:
256,192,138994,1,8,0:0:0:0:
256,192,139145,1,0,0:0:0:0:
256,192,139297,1,8,0:0:0:0:
256,192,139448,1,8,0:0:0:0:
256,192,139600,1,0,0:0:0:0:
256,192,139751,1,8,0:0:0:0:
256,192,139903,1,8,0:0:0:0:
256,192,140054,1,0,0:0:0:0:
256,192,140206,1,0,0:0:0:0:
256,192,140357,1,8,0:0:0:0:
256,192,140509,1,0,0:0:0:0:
256,192,140660,1,8,0:0:0:0:
256,192,140812,1,0,0:0:0:0:
256,192,140963,1,8,0:0:0:0:
256,192,141266,1,0,0:0:0:0:
256,192,141569,1,8,0:0:0:0:
256,192,141872,1,8,0:0:0:0:
256,192,142024,1,0,0:0:0:0:
256,192,142175,1,8,0:0:0:0:
256,192,142327,1,0,0:0:0:0:
256,192,142478,1,8,0:0:0:0:
256,192,142781,1,8,0:0:0:0:
256,192,143084,1,8,0:0:0:0:
256,192,143236,1,0,0:0:0:0:
256,192,143691,1,0,0:0:0:0:
256,192,143994,1,12,0:0:0:0:
256,192,144297,1,0,0:0:0:0:
256,192,144448,1,8,0:0:0:0:
256,192,144600,1,4,0:0:0:0:
256,192,144751,1,8,0:0:0:0:
256,192,145054,1,8,0:0:0:0:
256,192,145206,1,4,0:0:0:0:
256,192,145357,1,8,0:0:0:0:
256,192,145509,1,0,0:0:0:0:
256,192,145660,1,0,0:0:0:0:
256,192,145812,1,8,0:0:0:0:
256,192,145963,1,0,0:0:0:0:
256,192,146115,1,12,0:0:0:0:
256,192,146418,1,12,0:0:0:0:
256,192,146721,1,0,0:0:0:0:
256,192,146872,1,0,0:0:0:0:
256,192,147024,1,12,0:0:0:0:
256,192,147175,1,8,0:0:0:0:
256,192,147327,1,0,0:0:0:0:
256,192,147478,1,0,0:0:0:0:
256,192,147630,1,8,0:0:0:0:
256,192,147680,1,8,0:0:0:0:
256,192,147731,1,0,0:0:0:0:
256,192,147781,1,0,0:0:0:0:
256,192,147933,1,8,0:0:0:0:
256,192,147983,1,8,0:0:0:0:
256,192,148034,1,8,0:0:0:0:
256,192,148084,1,0,0:0:0:0:
256,192,148135,1,0,0:0:0:0:
256,192,148186,1,0,0:0:0:0:
256,192,148236,1,0,0:0:0:0:
256,192,148539,1,8,0:0:0:0:
256,192,148994,1,8,0:0:0:0:
256,192,149448,1,8,0:0:0:0:
256,192,149751,1,12,0:0:0:0:
256,192,149903,1,0,0:0:0:0:
256,192,149978,1,0,0:0:0:0:
256,192,150054,1,8,0:0:0:0:
256,192,150206,1,8,0:0:0:0:
256,192,150281,1,8,0:0:0:0:
256,192,150357,1,0,0:0:0:0:
256,192,150433,1,0,0:0:0:0:
256,192,150509,1,8,0:0:0:0:
256,192,150584,1,0,0:0:0:0:
256,192,150660,1,8,0:0:0:0:
256,192,150812,1,0,0:0:0:0:
256,192,150963,1,8,0:0:0:0:
256,192,151039,1,0,0:0:0:0:
256,192,151115,1,0,0:0:0:0:
256,192,151266,1,0,0:0:0:0:
256,192,151418,1,8,0:0:0:0:
256,192,151494,1,0,0:0:0:0:
256,192,151569,1,0,0:0:0:0:
256,192,151721,1,0,0:0:0:0:
256,192,151872,1,8,0:0:0:0:
244,188,151948,1,8,0:0:0:0:
264,190,152024,1,0,0:0:0:0:
264,190,152100,1,0,0:0:0:0:
263,189,152175,1,8,0:0:0:0:
256,192,152251,1,8,0:0:0:0:
256,192,152327,1,0,0:0:0:0:
256,192,152403,1,0,0:0:0:0:
256,192,152478,1,8,0:0:0:0:
256,192,152630,1,8,0:0:0:0:
256,192,152706,1,0,0:0:0:0:
256,192,152781,1,0,0:0:0:0:
256,192,152933,1,0,0:0:0:0:
256,192,153084,1,8,0:0:0:0:
256,192,153236,1,0,0:0:0:0:
256,192,153312,1,0,0:0:0:0:
256,192,153388,1,8,0:0:0:0:
256,192,153539,1,8,0:0:0:0:
256,192,153615,1,0,0:0:0:0:
256,192,153691,1,8,0:0:0:0:
256,192,153842,1,8,0:0:0:0:
256,192,153994,1,0,0:0:0:0:
256,192,154145,1,0,0:0:0:0:
256,192,154221,1,0,0:0:0:0:
256,192,154297,1,8,0:0:0:0:
256,192,154448,1,0,0:0:0:0:
256,192,154600,1,8,0:0:0:0:
256,192,154675,1,0,0:0:0:0:
256,192,154751,1,0,0:0:0:0:
256,192,154903,1,8,0:0:0:0:
256,192,155054,1,8,0:0:0:0:
256,192,155130,1,0,0:0:0:0:
256,192,155206,1,0,0:0:0:0:
256,192,155357,1,8,0:0:0:0:
256,192,155433,1,0,0:0:0:0:
256,192,155509,1,8,0:0:0:0:
256,192,155584,1,8,0:0:0:0:
256,192,155660,1,0,0:0:0:0:
256,192,155736,1,0,0:0:0:0:
256,192,155812,1,8,0:0:0:0:
256,192,155963,1,0,0:0:0:0:
256,192,156014,1,0,0:0:0:0:
256,192,156064,1,0,0:0:0:0:
256,192,156115,1,8,0:0:0:0:
256,192,156266,1,0,0:0:0:0:
256,192,156342,1,0,0:0:0:0:
256,192,156418,1,8,0:0:0:0:
256,192,156569,1,8,0:0:0:0:
256,192,156620,1,8,0:0:0:0:
256,192,156670,1,8,0:0:0:0:
256,192,156721,1,0,0:0:0:0:
256,192,156872,1,8,0:0:0:0:
256,192,156948,1,0,0:0:0:0:
256,192,157024,1,8,0:0:0:0:
256,192,157100,1,8,0:0:0:0:
256,192,157175,1,0,0:0:0:0:
256,192,157226,1,8,0:0:0:0:
256,192,157276,1,8,0:0:0:0:
256,192,157327,1,0,0:0:0:0:
256,192,157403,1,0,0:0:0:0:
256,192,157478,1,8,0:0:0:0:
256,192,157554,1,8,0:0:0:0:
256,192,157630,1,0,0:0:0:0:
256,192,157706,1,0,0:0:0:0:
256,192,157781,1,8,0:0:0:0:
256,192,157857,1,0,0:0:0:0:
256,192,157933,1,8,0:0:0:0:
256,192,158084,1,0,0:0:0:0:
256,192,158236,1,12,0:0:0:0:
256,192,158388,1,0,0:0:0:0:
256,192,158463,1,0,0:0:0:0:
256,192,158539,1,8,0:0:0:0:
256,192,158691,1,8,0:0:0:0:
256,192,158766,1,0,0:0:0:0:
256,192,158842,1,0,0:0:0:0:
256,192,158918,1,0,0:0:0:0:
256,192,158994,1,8,0:0:0:0:
256,192,159145,1,8,0:0:0:0:
256,192,159221,1,8,0:0:0:0:
256,192,159297,1,0,0:0:0:0:
256,192,159372,1,0,0:0:0:0:
256,192,159448,1,8,0:0:0:0:
256,192,159524,1,8,0:0:0:0:
256,192,159600,1,0,0:0:0:0:
256,192,159751,1,8,0:0:0:0:
256,192,159827,1,0,0:0:0:0:
256,192,159903,1,8,0:0:0:0:
256,192,159978,1,8,0:0:0:0:
256,192,160054,1,0,0:0:0:0:
256,192,160206,1,8,0:0:0:0:
256,192,160281,1,0,0:0:0:0:
256,192,160357,1,8,0:0:0:0:
256,192,160509,1,0,0:0:0:0:
256,192,160660,1,8,0:0:0:0:
256,192,160736,1,0,0:0:0:0:
256,192,160812,1,0,0:0:0:0:
256,192,160963,1,0,0:0:0:0:
256,192,161115,1,8,0:0:0:0:
256,192,161191,1,0,0:0:0:0:
256,192,161266,1,0,0:0:0:0:
256,192,161418,1,0,0:0:0:0:
256,192,161569,1,8,0:0:0:0:
256,192,161645,1,8,0:0:0:0:
256,192,161721,1,0,0:0:0:0:
256,192,161797,1,0,0:0:0:0:
256,192,161872,1,8,0:0:0:0:
256,192,162024,1,0,0:0:0:0:
256,192,162175,1,8,0:0:0:0:
256,192,162327,1,8,0:0:0:0:
256,192,162403,1,0,0:0:0:0:
256,192,162478,1,8,0:0:0:0:
256,192,162554,1,8,0:0:0:0:
256,192,162630,1,0,0:0:0:0:
256,192,162706,1,0,0:0:0:0:
256,192,162781,1,8,0:0:0:0:
256,192,162857,1,0,0:0:0:0:
256,192,162933,1,0,0:0:0:0:
256,192,163009,1,0,0:0:0:0:
256,192,163084,1,8,0:0:0:0:
256,192,163236,1,0,0:0:0:0:
256,192,163312,1,0,0:0:0:0:
256,192,163388,1,8,0:0:0:0:
256,192,163539,1,8,0:0:0:0:
256,192,163691,1,0,0:0:0:0:
256,192,163842,1,8,0:0:0:0:
256,192,163918,1,0,0:0:0:0:
256,192,163994,1,8,0:0:0:0:
256,192,164145,1,0,0:0:0:0:
256,192,164297,1,8,0:0:0:0:
256,192,164372,1,0,0:0:0:0:
256,192,164448,1,0,0:0:0:0:
256,192,164524,1,0,0:0:0:0:
256,192,164600,1,8,0:0:0:0:
256,192,164751,1,8,0:0:0:0:
256,192,164903,1,0,0:0:0:0:
256,192,165054,1,8,0:0:0:0:
256,192,165130,1,0,0:0:0:0:
256,192,165206,1,8,0:0:0:0:
256,192,165357,1,0,0:0:0:0:
256,192,165509,1,8,0:0:0:0:
256,192,165660,1,0,0:0:0:0:
256,192,165736,1,0,0:0:0:0:
256,192,165812,1,8,0:0:0:0:
256,192,165963,1,0,0:0:0:0:
256,192,166115,1,0,0:0:0:0:
256,192,166266,1,8,0:0:0:0:
256,192,166342,1,0,0:0:0:0:
256,192,166418,1,8,0:0:0:0:
256,192,166569,1,0,0:0:0:0:
256,192,166645,1,0,0:0:0:0:
256,192,166721,1,8,0:0:0:0:
256,192,166872,1,8,0:0:0:0:
256,192,167024,1,0,0:0:0:0:
256,192,167175,1,0,0:0:0:0:
256,192,167327,1,8,0:0:0:0:
256,192,167478,1,0,0:0:0:0:
256,192,167630,1,8,0:0:0:0:
256,192,167933,1,12,0:0:0:0:
256,192,168084,1,0,0:0:0:0:
256,192,168160,1,0,0:0:0:0:
256,192,168236,1,8,0:0:0:0:
256,192,168388,1,8,0:0:0:0:
256,192,168463,1,0,0:0:0:0:
256,192,168539,1,0,0:0:0:0:
256,192,168615,1,0,0:0:0:0:
256,192,168691,1,8,0:0:0:0:
256,192,168842,1,8,0:0:0:0:
256,192,168918,1,8,0:0:0:0:
256,192,168994,1,0,0:0:0:0:
256,192,169069,1,0,0:0:0:0:
256,192,169145,1,8,0:0:0:0:
256,192,169221,1,8,0:0:0:0:
256,192,169297,1,0,0:0:0:0:
256,192,169372,1,0,0:0:0:0:
256,192,169448,1,8,0:0:0:0:
256,192,169524,1,0,0:0:0:0:
256,192,169600,1,8,0:0:0:0:
256,192,169751,1,0,0:0:0:0:
256,192,169903,1,8,0:0:0:0:
256,192,169978,1,0,0:0:0:0:
256,192,170054,1,8,0:0:0:0:
256,192,170206,1,0,0:0:0:0:
256,192,170357,1,8,0:0:0:0:
256,192,170433,1,0,0:0:0:0:
256,192,170509,1,0,0:0:0:0:
256,192,170660,1,0,0:0:0:0:
256,192,170812,1,8,0:0:0:0:
256,192,170888,1,0,0:0:0:0:
256,192,170963,1,0,0:0:0:0:
256,192,171115,1,0,0:0:0:0:
256,192,171266,1,8,0:0:0:0:
256,192,171342,1,0,0:0:0:0:
256,192,171418,1,0,0:0:0:0:
256,192,171569,1,8,0:0:0:0:
256,192,171645,1,8,0:0:0:0:
256,192,171721,1,0,0:0:0:0:
256,192,171797,1,0,0:0:0:0:
256,192,171872,1,8,0:0:0:0:
256,192,171948,1,0,0:0:0:0:
256,192,172024,1,8,0:0:0:0:
256,192,172100,1,8,0:0:0:0:
256,192,172175,1,0,0:0:0:0:
256,192,172327,1,0,0:0:0:0:
256,192,172403,1,0,0:0:0:0:
256,192,172478,1,8,0:0:0:0:
256,192,172630,1,0,0:0:0:0:
256,192,172781,1,8,0:0:0:0:
256,192,172857,1,8,0:0:0:0:
256,192,172933,1,0,0:0:0:0:
256,192,173009,1,0,0:0:0:0:
256,192,173084,1,8,0:0:0:0:
256,192,173160,1,0,0:0:0:0:
256,192,173236,1,8,0:0:0:0:
256,192,173312,1,8,0:0:0:0:
256,192,173388,1,0,0:0:0:0:
256,192,173539,1,0,0:0:0:0:
256,192,173691,1,8,0:0:0:0:
256,192,173842,1,8,0:0:0:0:
256,192,173918,1,0,0:0:0:0:
256,192,173994,1,8,0:0:0:0:
256,192,174069,1,8,0:0:0:0:
256,192,174145,1,0,0:0:0:0:
256,192,174221,1,0,0:0:0:0:
256,192,174297,1,8,0:0:0:0:
256,192,174372,1,0,0:0:0:0:
256,192,174448,1,8,0:0:0:0:
256,192,174600,1,0,0:0:0:0:
256,192,174751,1,0,0:0:0:0:
256,192,174903,1,8,0:0:0:0:
256,192,174978,1,0,0:0:0:0:
256,192,175054,1,8,0:0:0:0:
256,192,175130,1,0,0:0:0:0:
256,192,175206,1,8,0:0:0:0:
256,192,175357,1,0,0:0:0:0:
256,192,175408,1,0,0:0:0:0:
256,192,175458,1,0,0:0:0:0:
256,192,175509,1,8,0:0:0:0:
256,192,175660,1,8,0:0:0:0:
256,192,175812,1,0,0:0:0:0:
256,192,175963,1,8,0:0:0:0:
256,192,176014,1,8,0:0:0:0:
256,192,176064,1,8,0:0:0:0:
256,192,176115,1,0,0:0:0:0:
256,192,176266,1,8,0:0:0:0:
256,192,176342,1,0,0:0:0:0:
256,192,176418,1,8,0:0:0:0:
256,192,176494,1,8,0:0:0:0:
256,192,176569,1,0,0:0:0:0:
256,192,176620,1,0,0:0:0:0:
256,192,176670,1,0,0:0:0:0:
256,192,176721,1,8,0:0:0:0:
256,192,176797,1,0,0:0:0:0:
256,192,176872,1,8,0:0:0:0:
256,192,176948,1,8,0:0:0:0:
256,192,177024,1,0,0:0:0:0:
256,192,177175,1,0,0:0:0:0:
256,192,177327,1,8,0:0:0:0:
256,192,177403,1,0,0:0:0:0:
256,192,177478,1,0,0:0:0:0:
256,192,177630,1,12,0:0:0:0:
256,192,177781,1,0,0:0:0:0:
256,192,177857,1,0,0:0:0:0:
256,192,177933,1,8,0:0:0:0:
256,192,178084,1,8,0:0:0:0:
256,192,178160,1,0,0:0:0:0:
256,192,178236,1,0,0:0:0:0:
256,192,178312,1,0,0:0:0:0:
256,192,178388,1,8,0:0:0:0:
256,192,178463,1,0,0:0:0:0:
256,192,178539,1,8,0:0:0:0:
256,192,178691,1,0,0:0:0:0:
256,192,178842,1,8,0:0:0:0:
256,192,178918,1,8,0:0:0:0:
256,192,178994,1,0,0:0:0:0:
256,192,179069,1,0,0:0:0:0:
256,192,179145,1,8,0:0:0:0:
256,192,179221,1,0,0:0:0:0:
256,192,179297,1,8,0:0:0:0:
256,192,179448,1,0,0:0:0:0:
256,192,179600,1,8,0:0:0:0:
256,192,179675,1,0,0:0:0:0:
256,192,179751,1,8,0:0:0:0:
256,192,179903,1,0,0:0:0:0:
256,192,180054,1,8,0:0:0:0:
256,192,180130,1,0,0:0:0:0:
256,192,180206,1,0,0:0:0:0:
256,192,180357,1,0,0:0:0:0:
256,192,180509,1,8,0:0:0:0:
256,192,180584,1,0,0:0:0:0:
256,192,180660,1,0,0:0:0:0:
256,192,180812,1,0,0:0:0:0:
256,192,180963,1,8,0:0:0:0:
256,192,181039,1,0,0:0:0:0:
256,192,181115,1,0,0:0:0:0:
256,192,181266,1,8,0:0:0:0:
256,192,181342,1,8,0:0:0:0:
256,192,181418,1,0,0:0:0:0:
256,192,181494,1,0,0:0:0:0:
256,192,181569,1,8,0:0:0:0:
256,192,181645,1,0,0:0:0:0:
256,192,181721,1,8,0:0:0:0:
256,192,181797,1,8,0:0:0:0:
256,192,181872,1,0,0:0:0:0:
256,192,181948,1,0,0:0:0:0:
256,192,182024,1,8,0:0:0:0:
256,192,182100,1,0,0:0:0:0:
256,192,182175,1,8,0:0:0:0:
256,192,182327,1,0,0:0:0:0:
256,192,182478,1,8,0:0:0:0:
256,192,182630,1,0,0:0:0:0:
256,192,182706,1,0,0:0:0:0:
256,192,182781,1,8,0:0:0:0:
256,192,182933,1,8,0:0:0:0:
256,192,183084,1,0,0:0:0:0:
256,192,183236,1,8,0:0:0:0:
256,192,183312,1,0,0:0:0:0:
256,192,183388,1,8,0:0:0:0:
256,192,183539,1,0,0:0:0:0:
256,192,183615,1,0,0:0:0:0:
256,192,183691,1,8,0:0:0:0:
256,192,183842,1,0,0:0:0:0:
256,192,183994,1,8,0:0:0:0:
256,192,184145,1,0,0:0:0:0:
256,192,184221,1,0,0:0:0:0:
256,192,184297,1,8,0:0:0:0:
256,192,184372,1,0,0:0:0:0:
256,192,184448,1,8,0:0:0:0:
256,192,184600,1,8,0:0:0:0:
256,192,184675,1,0,0:0:0:0:
256,192,184751,1,0,0:0:0:0:
256,192,184903,1,12,0:0:0:0:
256,192,185206,1,8,0:0:0:0:
256,192,185509,1,0,0:0:0:0:
256,192,185812,1,8,0:0:0:0:
256,192,186418,1,12,0:0:0:0:
256,192,186721,1,4,0:0:0:0:
256,192,187327,1,12,0:0:0:0:
256,192,187478,1,0,0:0:0:0:
256,192,187630,1,8,0:0:0:0:
256,192,187706,1,0,0:0:0:0:
256,192,187781,1,0,0:0:0:0:
256,192,187933,1,8,0:0:0:0:
256,192,188084,1,8,0:0:0:0:
256,192,188160,1,0,0:0:0:0:
256,192,188236,1,0,0:0:0:0:
256,192,188388,1,0,0:0:0:0:
256,192,188842,1,8,0:0:0:0:
256,192,188918,1,0,0:0:0:0:
256,192,188994,1,0,0:0:0:0:
256,192,189069,1,0,0:0:0:0:
256,192,189145,1,8,0:0:0:0:
256,192,189297,1,8,0:0:0:0:
256,192,189372,1,0,0:0:0:0:
256,192,189524,1,0,0:0:0:0:
256,192,189600,1,8,0:0:0:0:
256,192,189751,1,8,0:0:0:0:
256,192,189827,1,0,0:0:0:0:
256,192,189903,1,0,0:0:0:0:
256,192,190054,1,8,0:0:0:0:
256,192,190130,1,0,0:0:0:0:
256,192,190206,1,0,0:0:0:0:
256,192,190357,1,8,0:0:0:0:
256,192,190509,1,0,0:0:0:0:
256,192,190584,1,0,0:0:0:0:
256,192,190660,1,8,0:0:0:0:
256,192,190812,1,0,0:0:0:0:
256,192,191266,1,8,0:0:0:0:
256,192,191342,1,0,0:0:0:0:
256,192,191418,1,0,0:0:0:0:
256,192,191569,1,8,0:0:0:0:
256,192,191721,1,0,0:0:0:0:
256,192,191797,1,8,0:0:0:0:
256,192,191948,1,8,0:0:0:0:
256,192,192024,1,0,0:0:0:0:
256,192,192175,1,8,0:0:0:0:
256,192,192251,1,0,0:0:0:0:
256,192,192327,1,0,0:0:0:0:
256,192,192478,1,8,0:0:0:0:
256,192,192554,1,0,0:0:0:0:
256,192,192630,1,0,0:0:0:0:
256,192,192781,1,8,0:0:0:0:
256,192,192933,1,0,0:0:0:0:
256,192,193009,1,0,0:0:0:0:
256,192,193084,1,8,0:0:0:0:
256,192,193691,1,8,0:0:0:0:
256,192,193766,1,0,0:0:0:0:
256,192,193842,1,0,0:0:0:0:
256,192,193994,1,8,0:0:0:0:
256,192,194145,1,8,0:0:0:0:
256,192,194221,1,0,0:0:0:0:
256,192,194297,1,0,0:0:0:0:
256,192,194600,1,8,0:0:0:0:
256,192,194827,1,0,0:0:0:0:
256,192,194903,1,8,0:0:0:0:
256,192,195054,1,0,0:0:0:0:
256,192,195206,1,8,0:0:0:0:
256,192,195357,1,8,0:0:0:0:
256,192,195509,1,0,0:0:0:0:
256,192,195660,1,8,0:0:0:0:
256,192,195736,1,0,0:0:0:0:
256,192,195812,1,8,0:0:0:0:
256,192,196039,1,0,0:0:0:0:
256,192,196115,1,8,0:0:0:0:
256,192,196266,1,0,0:0:0:0:
256,192,196418,1,8,0:0:0:0:
256,192,196569,1,8,0:0:0:0:
