osu file format v14

[General]
AudioFilename: audio.mp3
AudioLeadIn: 0
PreviewTime: 148463
Countdown: 0
SampleSet: Normal
StackLeniency: 0.7
Mode: 1
LetterboxInBreaks: 0
WidescreenStoryboard: 1

[Editor]
DistanceSpacing: 0.5
BeatDivisor: 12
GridSize: 32
TimelineZoom: 3.099998

[Metadata]
Title:Ring My Bell
TitleUnicode:링마벨
Artist:Girl's Day
ArtistUnicode:걸스데이
Creator:Capu
Version:Raph's Inner Oni
Source:
Tags:ak1o [belajar-osu] raphalge 소진 유라 민아 혜리 SoJin Yura MinAh HyeRi 드림티엔터테인먼트 DREAMT ENTERTAINMENT Love Second Album k-pop kpop KBS Music Bank
BeatmapID:1946245
BeatmapSetID:932109

[Difficulty]
HPDrainRate:6
CircleSize:2
OverallDifficulty:6.5
ApproachRate:9
SliderMultiplier:1.4
SliderTickRate:1

[Events]
//Background and Video events
0,0,"QkJG1W3.jpg",0,90
//Break Periods
//Storyboard Layer 0 (Background)
//Storyboard Layer 1 (Fail)
//Storyboard Layer 2 (Pass)
//Storyboard Layer 3 (Foreground)
//Storyboard Sound Samples

[TimingPoints]
3085,303.030303030303,4,1,0,60,1,0
3085,-100,4,1,0,60,0,0
12781,-100,4,1,0,90,0,0
51569,-100,4,1,0,100,0,1
68539,-100,4,1,0,90,0,0
109751,-100,4,1,0,100,0,1
126721,-100,4,1,0,90,0,0
129448,-100,4,1,0,65,0,0
138842,-100,4,1,0,75,0,0
143691,-100,4,1,0,80,0,0
146115,-100,4,1,0,90,0,0
149751,-100,4,1,0,100,0,1
166721,-100,4,1,0,90,0,0
167933,-100,4,1,0,100,0,1
184903,-100,4,1,0,90,0,0
187327,-100,4,1,0,90,0,0

[HitObjects]
241,217,3085,5,8,0:0:0:0:
255,250,3388,1,0,0:0:0:0:
329,278,3590,1,8,0:0:0:0:
329,278,3691,1,0,0:0:0:0:
277,283,3994,1,8,0:0:0:0:
263,242,4297,1,0,0:0:0:0:
263,242,4499,1,8,0:0:0:0:
263,242,4600,1,8,0:0:0:0:
332,282,5509,1,8,0:0:0:0:
332,282,5812,1,0,0:0:0:0:
386,176,6014,1,8,0:0:0:0:
391,188,6115,1,0,0:0:0:0:
390,185,6418,1,8,0:0:0:0:
281,258,6721,1,0,0:0:0:0:
288,262,6923,1,8,0:0:0:0:
293,265,7024,1,8,0:0:0:0:
310,281,7478,1,0,0:0:0:0:
299,272,7832,1,8,0:0:0:0:
299,272,7933,1,8,0:0:0:0:
317,289,8236,1,0,0:0:0:0:
316,288,8438,1,8,0:0:0:0:
299,272,8539,1,0,0:0:0:0:
268,284,8842,1,8,0:0:0:0:
317,289,9145,1,0,0:0:0:0:
313,293,9448,1,8,0:0:0:0:
321,295,9751,1,8,0:0:0:0:
317,289,10054,1,0,0:0:0:0:
278,244,10357,1,8,0:0:0:0:
278,244,10433,1,8,0:0:0:0:
278,244,10509,1,8,0:0:0:0:
278,253,10585,1,8,0:0:0:0:
278,253,10660,1,8,0:0:0:0:
278,244,10963,1,0,0:0:0:0:
333,262,11039,1,8,0:0:0:0:
334,271,11115,1,8,0:0:0:0:
336,270,11191,1,8,0:0:0:0:
434,225,11266,1,0,0:0:0:0:
366,258,11418,1,8,0:0:0:0:
366,258,11468,1,8,0:0:0:0:
366,258,11519,1,8,0:0:0:0:
366,260,11569,1,8,0:0:0:0:
261,231,11872,1,0,0:0:0:0:
256,219,11948,1,8,0:0:0:0:
256,219,12024,1,8,0:0:0:0:
256,219,12100,1,8,0:0:0:0:
257,220,12175,1,0,0:0:0:0:
235,222,12327,1,8,0:0:0:0:
349,259,12478,1,0,0:0:0:0:
352,192,12529,1,8,0:0:0:0:
320,224,12579,1,8,0:0:0:0:
350,200,12630,1,8,0:0:0:0:
353,214,12680,1,8,0:0:0:0:
353,214,12731,1,8,0:0:0:0:
353,216,12781,1,4,0:0:0:0:
313,219,13085,1,8,0:0:0:0:
324,322,13236,1,0,0:0:0:0:
341,301,13388,1,8,0:0:0:0:
341,301,13539,1,8,0:0:0:0:
289,311,13691,1,0,0:0:0:0:
294,292,14297,1,4,0:0:0:0:
326,280,14448,1,8,0:0:0:0:
296,293,14600,1,8,0:0:0:0:
315,300,14751,1,4,0:0:0:0:
315,298,15054,1,8,0:0:0:0:
315,298,15206,1,4,0:0:0:0:
315,295,15509,1,8,0:0:0:0:
315,300,15660,1,0,0:0:0:0:
315,298,15812,1,8,0:0:0:0:
313,304,15963,1,8,0:0:0:0:
311,307,16115,1,0,0:0:0:0:
302,303,16721,1,4,0:0:0:0:
313,304,16872,1,8,0:0:0:0:
311,307,17024,1,8,0:0:0:0:
322,280,17175,1,4,0:0:0:0:
316,272,17478,1,8,0:0:0:0:
316,272,17630,1,4,0:0:0:0:
339,274,17933,1,8,0:0:0:0:
343,281,18085,1,0,0:0:0:0:
343,286,18236,1,8,0:0:0:0:
342,289,18388,1,8,0:0:0:0:
340,298,18539,1,0,0:0:0:0:
361,286,19145,1,4,0:0:0:0:
371,298,19297,1,8,0:0:0:0:
371,296,19448,1,8,0:0:0:0:
371,298,19600,1,4,0:0:0:0:
361,286,19903,1,8,0:0:0:0:
327,247,20054,1,0,0:0:0:0:
327,247,20357,1,8,0:0:0:0:
263,242,20660,1,0,0:0:0:0:
271,252,20812,1,8,0:0:0:0:
266,219,21115,1,8,0:0:0:0:
296,233,21266,1,0,0:0:0:0:
296,233,21342,1,0,0:0:0:0:
296,233,21418,1,8,0:0:0:0:
296,233,21494,1,8,0:0:0:0:
296,233,21569,1,0,0:0:0:0:
296,233,21721,1,8,0:0:0:0:
296,233,21797,1,0,0:0:0:0:
296,233,21872,1,8,0:0:0:0:
296,233,21948,1,8,0:0:0:0:
296,233,22024,1,0,0:0:0:0:
306,237,22100,1,0,0:0:0:0:
312,237,22175,1,8,0:0:0:0:
293,265,22327,1,0,0:0:0:0:
293,265,22403,1,0,0:0:0:0:
293,264,22478,1,12,0:0:0:0:
286,273,22781,1,8,0:0:0:0:
286,273,22933,1,0,0:0:0:0:
296,281,23085,1,8,0:0:0:0:
317,293,23160,1,8,0:0:0:0:
313,257,23236,1,8,0:0:0:0:
313,257,23312,1,8,0:0:0:0:
297,281,23388,1,0,0:0:0:0:
297,281,23539,1,0,0:0:0:0:
286,273,23691,1,8,0:0:0:0:
259,299,23994,1,0,0:0:0:0:
266,293,24145,1,8,0:0:0:0:
296,309,24448,1,8,0:0:0:0:
271,301,24600,1,0,0:0:0:0:
284,291,24903,1,12,0:0:0:0:
297,299,25206,1,8,0:0:0:0:
288,298,25357,1,0,0:0:0:0:
288,299,25509,1,8,0:0:0:0:
326,314,25585,1,8,0:0:0:0:
288,299,25660,1,0,0:0:0:0:
306,293,25736,1,0,0:0:0:0:
284,291,25812,1,8,0:0:0:0:
286,292,25963,1,0,0:0:0:0:
287,293,26115,1,8,0:0:0:0:
331,290,26418,1,8,0:0:0:0:
344,303,26569,1,0,0:0:0:0:
341,306,26872,1,0,0:0:0:0:
276,208,27024,1,8,0:0:0:0:
309,246,27327,1,4,0:0:0:0:
313,331,27630,1,8,0:0:0:0:
310,298,27781,1,0,0:0:0:0:
319,310,27933,1,8,0:0:0:0:
316,313,28236,1,8,0:0:0:0:
316,317,28388,1,0,0:0:0:0:
316,311,28539,1,8,0:0:0:0:
303,317,28615,1,8,0:0:0:0:
319,310,28691,1,0,0:0:0:0:
289,299,28766,1,0,0:0:0:0:
323,303,28842,1,8,0:0:0:0:
372,307,28994,1,8,0:0:0:0:
296,298,29069,1,8,0:0:0:0:
333,288,29145,1,0,0:0:0:0:
317,323,29297,1,0,0:0:0:0:
316,320,29448,1,8,0:0:0:0:
358,315,29751,1,0,0:0:0:0:
336,296,29903,1,8,0:0:0:0:
349,327,29978,1,8,0:0:0:0:
349,308,30054,1,0,0:0:0:0:
332,283,30206,1,8,0:0:0:0:
339,291,30357,1,0,0:0:0:0:
286,276,30433,1,0,0:0:0:0:
342,311,30509,1,8,0:0:0:0:
343,313,30660,1,0,0:0:0:0:
311,299,30963,1,8,0:0:0:0:
311,299,31115,1,0,0:0:0:0:
311,299,31266,1,8,0:0:0:0:
311,299,31317,1,8,0:0:0:0:
298,289,31367,1,8,0:0:0:0:
295,289,31418,1,8,0:0:0:0:
298,289,31569,1,8,0:0:0:0:
320,312,31721,1,0,0:0:0:0:
321,312,31872,1,8,0:0:0:0:
339,323,32175,1,8,0:0:0:0:
340,324,32327,1,0,0:0:0:0:
314,305,32403,1,8,0:0:0:0:
344,314,32478,1,0,0:0:0:0:
334,303,32630,1,0,0:0:0:0:
349,303,32781,1,8,0:0:0:0:
351,306,32933,1,0,0:0:0:0:
322,290,33009,1,0,0:0:0:0:
352,306,33084,1,8,0:0:0:0:
407,307,33388,1,8,0:0:0:0:
395,318,33539,1,0,0:0:0:0:
406,318,33691,1,0,0:0:0:0:
409,318,33842,1,8,0:0:0:0:
405,329,34145,1,8,0:0:0:0:
401,333,34297,1,0,0:0:0:0:
401,307,34600,1,12,0:0:0:0:
356,273,34903,1,8,0:0:0:0:
361,282,35054,1,0,0:0:0:0:
362,288,35130,1,8,0:0:0:0:
347,287,35206,1,0,0:0:0:0:
347,286,35357,1,0,0:0:0:0:
386,268,35509,1,8,0:0:0:0:
407,271,35660,1,0,0:0:0:0:
318,263,35736,1,8,0:0:0:0:
406,284,35812,1,0,0:0:0:0:
373,249,35888,1,0,0:0:0:0:
406,285,35963,1,8,0:0:0:0:
405,283,36115,1,0,0:0:0:0:
406,288,36266,1,8,0:0:0:0:
390,253,36569,1,0,0:0:0:0:
389,249,36721,1,8,0:0:0:0:
408,252,37024,1,4,0:0:0:0:
372,247,37327,1,8,0:0:0:0:
301,247,37478,1,8,0:0:0:0:
301,247,37630,1,0,0:0:0:0:
358,244,37933,1,8,0:0:0:0:
361,264,38084,1,0,0:0:0:0:
269,258,38236,1,8,0:0:0:0:
269,252,38312,1,0,0:0:0:0:
269,252,38388,1,8,0:0:0:0:
266,252,38463,1,8,0:0:0:0:
266,252,38539,1,0,0:0:0:0:
358,266,38691,1,8,0:0:0:0:
267,247,38766,1,8,0:0:0:0:
267,247,38842,1,8,0:0:0:0:
267,247,38918,1,8,0:0:0:0:
333,245,38994,1,0,0:0:0:0:
206,282,39145,5,8,0:0:0:0:
352,233,39297,1,0,0:0:0:0:
297,279,39448,5,8,0:0:0:0:
297,279,39600,1,0,0:0:0:0:
295,242,39675,1,8,0:0:0:0:
297,279,39751,1,0,0:0:0:0:
306,291,39903,1,0,0:0:0:0:
308,296,40054,1,8,0:0:0:0:
309,290,40206,1,0,0:0:0:0:
292,265,40281,1,0,0:0:0:0:
310,298,40357,1,8,0:0:0:0:
293,266,40509,1,0,0:0:0:0:
299,266,40660,5,8,0:0:0:0:
299,266,40711,1,8,0:0:0:0:
299,266,40761,1,8,0:0:0:0:
318,268,40812,1,0,0:0:0:0:
313,284,40963,1,8,0:0:0:0:
316,287,41115,1,8,0:0:0:0:
316,287,41266,1,0,0:0:0:0:
320,322,41418,1,0,0:0:0:0:
290,293,41569,1,8,0:0:0:0:
291,289,41872,1,14,0:0:0:0:
268,304,42175,1,4,0:0:0:0:
271,303,42478,1,14,0:0:0:0:
261,337,42781,1,0,0:0:0:0:
261,337,42933,1,8,0:0:0:0:
305,268,43009,1,0,0:0:0:0:
305,268,43084,1,8,0:0:0:0:
305,268,43160,1,8,0:0:0:0:
166,7,43236,1,0,0:0:0:0:
305,316,43388,1,0,0:0:0:0:
319,339,43539,1,8,0:0:0:0:
277,293,43615,1,8,0:0:0:0:
291,295,43691,1,0,0:0:0:0:
338,276,43842,1,8,0:0:0:0:
338,276,43994,1,0,0:0:0:0:
292,355,44297,1,14,0:0:0:0:
268,312,44600,1,4,0:0:0:0:
285,326,44903,1,14,0:0:0:0:
350,318,45206,1,0,0:0:0:0:
350,318,45357,1,8,0:0:0:0:
306,298,45433,1,8,0:0:0:0:
351,327,45509,1,0,0:0:0:0:
357,355,45660,1,8,0:0:0:0:
351,333,45812,1,0,0:0:0:0:
326,294,45963,1,8,0:0:0:0:
325,294,46039,1,8,0:0:0:0:
328,291,46115,1,0,0:0:0:0:
328,291,46191,1,0,0:0:0:0:
328,291,46266,1,8,0:0:0:0:
328,286,46418,1,0,0:0:0:0:
318,298,46721,1,12,0:0:0:0:
331,301,47024,1,0,0:0:0:0:
334,306,47175,1,8,0:0:0:0:
334,309,47327,1,0,0:0:0:0:
331,323,47630,1,8,0:0:0:0:
331,308,47781,1,8,0:0:0:0:
353,337,47933,1,0,0:0:0:0:
353,337,48084,1,0,0:0:0:0:
353,337,48236,1,8,0:0:0:0:
353,337,48388,1,0,0:0:0:0:
333,273,48539,1,8,0:0:0:0:
286,313,48842,1,8,0:0:0:0:
287,336,49145,1,0,0:0:0:0:
287,336,49297,1,8,0:0:0:0:
353,337,49372,1,8,0:0:0:0:
353,337,49448,1,8,0:0:0:0:
333,323,49600,1,0,0:0:0:0:
333,322,49675,1,8,0:0:0:0:
333,322,49751,1,0,0:0:0:0:
269,288,49903,1,8,0:0:0:0:
269,288,49978,1,0,0:0:0:0:
269,288,50054,1,8,0:0:0:0:
376,263,50105,1,8,0:0:0:0:
376,263,50155,1,8,0:0:0:0:
376,263,50206,1,8,0:0:0:0:
296,233,50357,1,0,0:0:0:0:
296,233,50433,1,8,0:0:0:0:
296,233,50509,1,8,0:0:0:0:
296,233,50585,1,0,0:0:0:0:
296,233,50660,1,8,0:0:0:0:
296,233,50736,1,0,0:0:0:0:
296,233,50812,1,8,0:0:0:0:
296,233,50888,1,8,0:0:0:0:
296,233,50963,1,0,0:0:0:0:
296,233,51039,1,0,0:0:0:0:
296,233,51115,1,8,0:0:0:0:
306,237,51191,1,8,0:0:0:0:
312,237,51266,1,0,0:0:0:0:
303,257,51569,1,14,0:0:0:0:
293,250,51721,1,8,0:0:0:0:
278,247,51797,1,8,0:0:0:0:
278,247,51872,1,0,0:0:0:0:
291,248,52024,1,14,0:0:0:0:
292,247,52175,1,0,0:0:0:0:
292,247,52251,1,8,0:0:0:0:
292,247,52327,1,8,0:0:0:0:
292,247,52478,1,14,0:0:0:0:
308,252,52630,1,0,0:0:0:0:
308,252,52781,1,14,0:0:0:0:
309,247,52933,1,0,0:0:0:0:
309,247,53009,1,8,0:0:0:0:
285,247,53084,1,0,0:0:0:0:
300,275,53236,1,14,0:0:0:0:
299,269,53388,1,0,0:0:0:0:
299,269,53539,1,8,0:0:0:0:
301,269,53615,1,8,0:0:0:0:
301,269,53691,1,0,0:0:0:0:
308,270,53766,1,0,0:0:0:0:
305,276,53842,1,8,0:0:0:0:
303,287,53994,1,4,0:0:0:0:
294,301,54145,1,8,0:0:0:0:
294,301,54221,1,8,0:0:0:0:
294,301,54297,1,0,0:0:0:0:
283,294,54448,1,12,0:0:0:0:
286,293,54600,1,0,0:0:0:0:
266,282,54675,1,8,0:0:0:0:
266,282,54751,1,8,0:0:0:0:
266,283,54903,1,4,0:0:0:0:
252,274,55054,1,8,0:0:0:0:
252,274,55206,1,4,0:0:0:0:
276,247,55357,1,8,0:0:0:0:
283,254,55509,1,8,0:0:0:0:
282,256,55660,1,4,0:0:0:0:
343,223,55963,1,0,0:0:0:0:
343,223,56115,1,12,0:0:0:0:
228,301,56266,1,8,0:0:0:0:
233,273,56418,1,4,0:0:0:0:
346,267,56569,1,8,0:0:0:0:
346,267,56645,1,8,0:0:0:0:
346,267,56721,1,0,0:0:0:0:
346,267,56872,1,8,0:0:0:0:
346,267,56948,1,0,0:0:0:0:
346,267,57024,1,8,0:0:0:0:
346,267,57100,1,8,0:0:0:0:
346,276,57175,1,0,0:0:0:0:
346,279,57251,1,0,0:0:0:0:
346,280,57327,1,8,0:0:0:0:
355,264,57478,1,0,0:0:0:0:
355,264,57630,1,14,0:0:0:0:
356,263,57781,1,8,0:0:0:0:
356,263,57857,1,8,0:0:0:0:
355,266,57933,1,0,0:0:0:0:
355,268,58084,1,8,0:0:0:0:
351,263,58160,1,0,0:0:0:0:
351,263,58236,1,8,0:0:0:0:
421,314,58312,1,8,0:0:0:0:
328,257,58388,1,0,0:0:0:0:
331,256,58539,1,14,0:0:0:0:
307,297,58691,1,8,0:0:0:0:
307,297,58842,1,4,0:0:0:0:
378,278,58994,1,8,0:0:0:0:
377,273,59069,1,8,0:0:0:0:
377,273,59145,1,0,0:0:0:0:
356,231,59297,1,8,0:0:0:0:
356,231,59372,1,0,0:0:0:0:
356,231,59448,1,8,0:0:0:0:
334,222,59600,1,0,0:0:0:0:
333,220,59675,1,8,0:0:0:0:
336,222,59751,1,0,0:0:0:0:
350,216,59903,1,8,0:0:0:0:
350,216,59978,1,0,0:0:0:0:
350,216,60054,1,8,0:0:0:0:
350,216,60130,1,8,0:0:0:0:
350,216,60206,1,0,0:0:0:0:
282,270,60281,1,0,0:0:0:0:
346,217,60357,1,8,0:0:0:0:
282,270,60509,1,14,0:0:0:0:
282,270,60660,1,4,0:0:0:0:
282,270,60812,1,14,0:0:0:0:
337,259,60963,1,8,0:0:0:0:
337,259,61115,1,0,0:0:0:0:
359,233,61266,1,14,0:0:0:0:
352,226,61418,1,8,0:0:0:0:
352,226,61494,1,8,0:0:0:0:
352,226,61569,1,0,0:0:0:0:
352,227,61721,1,14,0:0:0:0:
312,252,61872,1,0,0:0:0:0:
312,252,61948,1,8,0:0:0:0:
312,252,62024,1,8,0:0:0:0:
314,260,62175,1,14,0:0:0:0:
301,241,62327,1,0,0:0:0:0:
306,240,62478,1,14,0:0:0:0:
336,257,62630,1,0,0:0:0:0:
336,257,62706,1,8,0:0:0:0:
336,257,62781,1,0,0:0:0:0:
334,248,62933,1,14,0:0:0:0:
360,232,63084,1,0,0:0:0:0:
361,232,63236,1,8,0:0:0:0:
355,222,63312,1,8,0:0:0:0:
355,222,63388,1,0,0:0:0:0:
246,235,63463,1,8,0:0:0:0:
361,215,63539,1,8,0:0:0:0:
355,223,63691,1,4,0:0:0:0:
351,278,63842,1,8,0:0:0:0:
341,276,63918,1,8,0:0:0:0:
318,245,63994,1,0,0:0:0:0:
334,224,64145,1,12,0:0:0:0:
340,223,64297,1,0,0:0:0:0:
340,224,64372,1,0,0:0:0:0:
340,224,64448,1,8,0:0:0:0:
271,268,64600,1,4,0:0:0:0:
252,274,64751,1,8,0:0:0:0:
316,270,64903,1,4,0:0:0:0:
252,274,65054,1,8,0:0:0:0:
292,226,65206,1,8,0:0:0:0:
258,286,65357,1,4,0:0:0:0:
254,250,65660,1,0,0:0:0:0:
246,237,65812,1,12,0:0:0:0:
228,301,65963,1,8,0:0:0:0:
233,273,66115,1,4,0:0:0:0:
346,267,66266,1,8,0:0:0:0:
346,267,66342,1,8,0:0:0:0:
346,267,66418,1,0,0:0:0:0:
346,267,66569,1,8,0:0:0:0:
346,267,66645,1,0,0:0:0:0:
346,267,66721,1,8,0:0:0:0:
346,267,66797,1,8,0:0:0:0:
346,276,66872,1,0,0:0:0:0:
346,279,66948,1,0,0:0:0:0:
346,280,67024,1,8,0:0:0:0:
355,264,67175,1,0,0:0:0:0:
355,264,67327,1,14,0:0:0:0:
356,263,67478,1,8,0:0:0:0:
356,263,67554,1,8,0:0:0:0:
355,266,67630,1,0,0:0:0:0:
355,268,67781,1,8,0:0:0:0:
351,263,67857,1,0,0:0:0:0:
351,263,67933,1,8,0:0:0:0:
421,314,68009,5,8,0:0:0:0:
328,257,68085,1,0,0:0:0:0:
331,256,68236,1,14,0:0:0:0:
337,247,68388,1,0,0:0:0:0:
250,188,68539,5,4,0:0:0:0:
260,212,68842,1,8,0:0:0:0:
264,213,69145,1,4,0:0:0:0:
260,207,69448,1,4,0:0:0:0:
260,212,69751,1,8,0:0:0:0:
265,223,70054,1,4,0:0:0:0:
265,224,70357,1,4,0:0:0:0:
270,246,70660,1,8,0:0:0:0:
272,246,70963,1,4,0:0:0:0:
312,296,71266,1,8,0:0:0:0:
312,296,71418,1,0,0:0:0:0:
320,290,71569,1,8,0:0:0:0:
320,292,71721,1,8,0:0:0:0:
320,292,71872,1,0,0:0:0:0:
350,310,72478,1,4,0:0:0:0:
350,307,72630,1,8,0:0:0:0:
354,302,72781,1,8,0:0:0:0:
356,302,72933,1,4,0:0:0:0:
356,296,73236,1,8,0:0:0:0:
398,338,73388,1,4,0:0:0:0:
355,312,73691,1,8,0:0:0:0:
366,322,73842,1,0,0:0:0:0:
366,328,73994,1,8,0:0:0:0:
366,328,74145,1,8,0:0:0:0:
366,332,74297,1,0,0:0:0:0:
316,310,74903,1,4,0:0:0:0:
316,310,75054,1,8,0:0:0:0:
316,310,75206,1,8,0:0:0:0:
314,308,75357,1,4,0:0:0:0:
316,310,75660,1,8,0:0:0:0:
316,310,75812,1,4,0:0:0:0:
326,306,76115,1,8,0:0:0:0:
314,308,76266,1,0,0:0:0:0:
316,310,76418,1,8,0:0:0:0:
316,310,76569,1,8,0:0:0:0:
316,328,76721,1,0,0:0:0:0:
318,324,77327,1,4,0:0:0:0:
318,325,77478,1,8,0:0:0:0:
316,328,77630,1,8,0:0:0:0:
317,325,77781,1,4,0:0:0:0:
361,286,78085,1,8,0:0:0:0:
327,247,78236,1,0,0:0:0:0:
327,247,78539,1,8,0:0:0:0:
263,242,78842,1,0,0:0:0:0:
271,252,78994,1,8,0:0:0:0:
266,219,79297,1,8,0:0:0:0:
296,233,79448,1,0,0:0:0:0:
296,233,79524,1,0,0:0:0:0:
296,233,79600,1,8,0:0:0:0:
296,233,79676,1,8,0:0:0:0:
296,233,79751,1,0,0:0:0:0:
296,233,79903,1,8,0:0:0:0:
296,233,79979,1,0,0:0:0:0:
296,233,80054,1,8,0:0:0:0:
296,233,80130,1,8,0:0:0:0:
296,233,80206,1,0,0:0:0:0:
306,237,80282,1,0,0:0:0:0:
312,237,80357,1,8,0:0:0:0:
293,265,80509,1,0,0:0:0:0:
293,265,80585,1,0,0:0:0:0:
293,264,80660,1,12,0:0:0:0:
259,262,80812,1,0,0:0:0:0:
286,273,80963,1,8,0:0:0:0:
286,273,81115,1,8,0:0:0:0:
296,281,81267,1,0,0:0:0:0:
285,260,81342,1,8,0:0:0:0:
277,232,81418,1,8,0:0:0:0:
277,232,81494,1,8,0:0:0:0:
277,232,81569,1,0,0:0:0:0:
277,238,81721,1,0,0:0:0:0:
320,256,81872,1,8,0:0:0:0:
320,255,82175,1,0,0:0:0:0:
266,293,82327,1,8,0:0:0:0:
296,309,82630,1,8,0:0:0:0:
271,301,82782,1,0,0:0:0:0:
284,291,83085,1,12,0:0:0:0:
328,264,83236,1,0,0:0:0:0:
297,299,83388,1,8,0:0:0:0:
296,278,83539,1,8,0:0:0:0:
326,314,83691,1,0,0:0:0:0:
236,187,83766,1,0,0:0:0:0:
244,242,83842,1,8,0:0:0:0:
306,293,83918,1,8,0:0:0:0:
284,291,83994,1,0,0:0:0:0:
286,292,84145,1,8,0:0:0:0:
287,293,84297,1,0,0:0:0:0:
273,289,84448,1,8,0:0:0:0:
266,253,84524,1,8,0:0:0:0:
266,253,84600,1,0,0:0:0:0:
266,253,84751,1,8,0:0:0:0:
341,306,85054,1,0,0:0:0:0:
276,208,85206,1,8,0:0:0:0:
309,246,85509,1,4,0:0:0:0:
313,331,85812,1,8,0:0:0:0:
310,298,85963,1,0,0:0:0:0:
319,310,86115,1,8,0:0:0:0:
316,313,86418,1,8,0:0:0:0:
316,317,86570,1,0,0:0:0:0:
316,311,86721,1,8,0:0:0:0:
303,317,86797,1,8,0:0:0:0:
289,299,86872,1,0,0:0:0:0:
323,303,87024,1,0,0:0:0:0:
305,247,87100,1,0,0:0:0:0:
372,307,87176,1,8,0:0:0:0:
296,298,87251,1,8,0:0:0:0:
333,288,87327,1,0,0:0:0:0:
317,323,87479,1,0,0:0:0:0:
316,320,87630,1,8,0:0:0:0:
358,315,87933,1,0,0:0:0:0:
336,296,88085,1,8,0:0:0:0:
349,327,88160,1,8,0:0:0:0:
349,308,88236,1,0,0:0:0:0:
332,283,88388,1,8,0:0:0:0:
339,291,88539,1,0,0:0:0:0:
286,276,88615,1,0,0:0:0:0:
342,311,88691,1,8,0:0:0:0:
343,313,88842,1,0,0:0:0:0:
311,299,89145,1,8,0:0:0:0:
311,299,89297,1,0,0:0:0:0:
311,299,89448,1,8,0:0:0:0:
311,299,89499,1,8,0:0:0:0:
298,289,89549,1,8,0:0:0:0:
295,289,89600,1,8,0:0:0:0:
298,289,89751,1,8,0:0:0:0:
320,312,89903,1,0,0:0:0:0:
321,312,90054,1,8,0:0:0:0:
339,323,90357,1,8,0:0:0:0:
340,324,90509,1,0,0:0:0:0:
314,305,90585,1,0,0:0:0:0:
344,314,90660,1,8,0:0:0:0:
334,303,90812,1,8,0:0:0:0:
349,303,90963,1,0,0:0:0:0:
351,306,91115,1,8,0:0:0:0:
322,290,91191,1,0,0:0:0:0:
352,306,91266,1,8,0:0:0:0:
407,307,91570,1,8,0:0:0:0:
395,318,91721,1,0,0:0:0:0:
406,318,91873,1,0,0:0:0:0:
409,318,92024,1,8,0:0:0:0:
405,329,92327,1,8,0:0:0:0:
401,333,92479,1,0,0:0:0:0:
401,307,92782,1,12,0:0:0:0:
356,273,93085,1,8,0:0:0:0:
361,282,93236,1,0,0:0:0:0:
362,288,93312,1,0,0:0:0:0:
347,287,93388,1,8,0:0:0:0:
347,286,93539,1,8,0:0:0:0:
386,268,93691,1,0,0:0:0:0:
407,271,93842,1,8,0:0:0:0:
318,263,93918,1,0,0:0:0:0:
406,284,93994,1,8,0:0:0:0:
373,249,94069,1,8,0:0:0:0:
406,285,94145,1,0,0:0:0:0:
405,283,94297,1,0,0:0:0:0:
406,288,94448,1,8,0:0:0:0:
390,253,94751,1,0,0:0:0:0:
389,249,94903,1,8,0:0:0:0:
408,252,95206,1,4,0:0:0:0:
372,247,95509,1,8,0:0:0:0:
301,247,95660,1,8,0:0:0:0:
301,247,95812,1,0,0:0:0:0:
358,244,96115,1,8,0:0:0:0:
361,264,96266,1,0,0:0:0:0:
269,258,96418,1,8,0:0:0:0:
269,252,96494,1,8,0:0:0:0:
269,252,96570,1,0,0:0:0:0:
266,252,96645,1,0,0:0:0:0:
266,252,96721,1,8,0:0:0:0:
358,266,96873,1,0,0:0:0:0:
267,247,96948,1,8,0:0:0:0:
267,247,97024,1,8,0:0:0:0:
267,247,97100,1,8,0:0:0:0:
333,245,97176,1,0,0:0:0:0:
206,282,97327,5,8,0:0:0:0:
352,233,97479,1,0,0:0:0:0:
297,279,97630,5,8,0:0:0:0:
297,279,97782,1,0,0:0:0:0:
295,242,97857,1,0,0:0:0:0:
297,279,97933,1,8,0:0:0:0:
306,291,98085,1,8,0:0:0:0:
308,296,98236,1,0,0:0:0:0:
309,290,98388,1,8,0:0:0:0:
292,265,98463,1,0,0:0:0:0:
310,298,98539,1,8,0:0:0:0:
293,266,98691,1,0,0:0:0:0:
299,266,98842,5,8,0:0:0:0:
299,266,98893,1,8,0:0:0:0:
299,266,98943,1,8,0:0:0:0:
318,268,98994,1,0,0:0:0:0:
313,284,99145,1,8,0:0:0:0:
316,287,99297,1,8,0:0:0:0:
316,287,99448,1,0,0:0:0:0:
320,322,99600,1,0,0:0:0:0:
290,293,99751,1,8,0:0:0:0:
291,289,100054,1,14,0:0:0:0:
268,304,100357,1,4,0:0:0:0:
271,303,100660,1,14,0:0:0:0:
261,337,100963,1,0,0:0:0:0:
261,337,101115,1,8,0:0:0:0:
305,268,101191,1,8,0:0:0:0:
305,268,101266,1,0,0:0:0:0:
305,268,101342,1,0,0:0:0:0:
166,7,101418,1,8,0:0:0:0:
305,316,101570,1,0,0:0:0:0:
319,339,101721,1,8,0:0:0:0:
277,293,101797,1,8,0:0:0:0:
291,295,101873,1,0,0:0:0:0:
338,276,102024,1,8,0:0:0:0:
338,276,102176,1,0,0:0:0:0:
292,355,102479,1,14,0:0:0:0:
268,312,102782,1,4,0:0:0:0:
285,326,103085,1,14,0:0:0:0:
350,318,103388,1,0,0:0:0:0:
350,318,103539,1,8,0:0:0:0:
306,298,103615,1,0,0:0:0:0:
351,327,103691,1,8,0:0:0:0:
297,205,103766,1,8,0:0:0:0:
292,195,103842,1,0,0:0:0:0:
281,169,103994,1,0,0:0:0:0:
326,294,104145,1,8,0:0:0:0:
325,294,104221,1,8,0:0:0:0:
328,291,104297,1,0,0:0:0:0:
328,291,104373,1,0,0:0:0:0:
328,291,104448,1,8,0:0:0:0:
328,286,104600,1,0,0:0:0:0:
318,298,104903,1,12,0:0:0:0:
331,301,105206,1,0,0:0:0:0:
334,306,105357,1,8,0:0:0:0:
334,309,105509,1,0,0:0:0:0:
331,323,105812,1,8,0:0:0:0:
331,308,105963,1,8,0:0:0:0:
353,337,106115,1,0,0:0:0:0:
353,337,106266,1,0,0:0:0:0:
353,337,106418,1,8,0:0:0:0:
353,337,106570,1,0,0:0:0:0:
333,273,106721,1,8,0:0:0:0:
286,313,107024,1,8,0:0:0:0:
287,336,107327,1,0,0:0:0:0:
287,336,107479,1,8,0:0:0:0:
353,337,107554,1,8,0:0:0:0:
353,337,107630,1,8,0:0:0:0:
333,323,107782,1,0,0:0:0:0:
333,322,107857,1,8,0:0:0:0:
333,322,107933,1,0,0:0:0:0:
269,288,108085,1,8,0:0:0:0:
269,288,108160,1,0,0:0:0:0:
269,288,108236,1,8,0:0:0:0:
376,263,108287,1,8,0:0:0:0:
376,263,108337,1,8,0:0:0:0:
376,263,108388,1,8,0:0:0:0:
296,233,108539,1,0,0:0:0:0:
296,233,108615,1,8,0:0:0:0:
296,233,108691,1,8,0:0:0:0:
296,233,108767,1,0,0:0:0:0:
296,233,108842,1,8,0:0:0:0:
296,233,108918,1,0,0:0:0:0:
296,233,108994,1,8,0:0:0:0:
296,233,109070,1,8,0:0:0:0:
296,233,109145,1,0,0:0:0:0:
296,233,109221,5,0,0:0:0:0:
296,233,109297,1,8,0:0:0:0:
306,237,109373,1,8,0:0:0:0:
312,237,109448,1,0,0:0:0:0:
303,257,109751,5,14,0:0:0:0:
293,250,109903,1,8,0:0:0:0:
278,247,109979,1,8,0:0:0:0:
278,247,110054,1,0,0:0:0:0:
291,248,110206,1,14,0:0:0:0:
292,247,110357,1,8,0:0:0:0:
292,247,110433,1,8,0:0:0:0:
292,247,110509,1,0,0:0:0:0:
292,247,110660,1,14,0:0:0:0:
308,252,110812,1,0,0:0:0:0:
308,252,110963,1,14,0:0:0:0:
309,247,111115,1,0,0:0:0:0:
309,247,111191,1,8,0:0:0:0:
285,247,111266,1,0,0:0:0:0:
300,275,111418,1,14,0:0:0:0:
299,269,111570,1,0,0:0:0:0:
299,269,111721,1,8,0:0:0:0:
308,252,111797,1,8,0:0:0:0:
308,252,111872,1,0,0:0:0:0:
309,247,111948,1,0,0:0:0:0:
305,276,112024,1,8,0:0:0:0:
303,287,112176,1,4,0:0:0:0:
294,301,112327,1,8,0:0:0:0:
294,301,112403,1,8,0:0:0:0:
294,301,112479,1,0,0:0:0:0:
283,294,112630,1,14,0:0:0:0:
286,293,112782,1,0,0:0:0:0:
266,282,112857,1,0,0:0:0:0:
266,282,112933,1,8,0:0:0:0:
266,283,113085,1,4,0:0:0:0:
252,274,113236,1,8,0:0:0:0:
252,274,113388,1,4,0:0:0:0:
241,229,113539,1,8,0:0:0:0:
241,229,113691,1,8,0:0:0:0:
251,236,113842,1,4,0:0:0:0:
286,231,114145,1,0,0:0:0:0:
286,231,114297,1,12,0:0:0:0:
228,301,114448,1,8,0:0:0:0:
233,273,114600,1,4,0:0:0:0:
346,267,114751,1,8,0:0:0:0:
346,267,114827,1,8,0:0:0:0:
346,267,114903,1,0,0:0:0:0:
346,267,115054,1,8,0:0:0:0:
346,267,115130,1,0,0:0:0:0:
346,267,115206,1,8,0:0:0:0:
346,267,115281,1,8,0:0:0:0:
346,276,115357,1,0,0:0:0:0:
346,279,115433,1,0,0:0:0:0:
346,280,115509,1,8,0:0:0:0:
355,264,115660,1,8,0:0:0:0:
355,264,115812,1,4,0:0:0:0:
356,263,115963,1,8,0:0:0:0:
356,263,116039,1,0,0:0:0:0:
355,266,116115,1,8,0:0:0:0:
355,268,116266,1,0,0:0:0:0:
351,263,116342,1,8,0:0:0:0:
351,263,116418,1,8,0:0:0:0:
421,314,116494,1,0,0:0:0:0:
328,257,116570,1,8,0:0:0:0:
331,256,116721,1,12,0:0:0:0:
307,297,116872,1,8,0:0:0:0:
307,297,117024,1,4,0:0:0:0:
378,278,117175,1,8,0:0:0:0:
377,273,117251,1,8,0:0:0:0:
377,273,117327,1,0,0:0:0:0:
356,231,117479,1,8,0:0:0:0:
356,231,117554,1,0,0:0:0:0:
356,231,117630,1,8,0:0:0:0:
334,222,117782,1,0,0:0:0:0:
333,220,117857,1,8,0:0:0:0:
336,222,117933,1,0,0:0:0:0:
350,216,118085,1,8,0:0:0:0:
350,216,118160,1,0,0:0:0:0:
350,216,118236,1,8,0:0:0:0:
350,216,118312,1,8,0:0:0:0:
350,216,118388,1,0,0:0:0:0:
282,270,118463,1,0,0:0:0:0:
346,217,118539,1,8,0:0:0:0:
282,270,118691,1,14,0:0:0:0:
282,270,118842,1,4,0:0:0:0:
282,270,118994,1,14,0:0:0:0:
337,259,119145,1,8,0:0:0:0:
337,259,119297,1,0,0:0:0:0:
303,257,119448,1,14,0:0:0:0:
293,250,119600,1,8,0:0:0:0:
278,247,119676,1,8,0:0:0:0:
278,247,119751,1,0,0:0:0:0:
291,248,119903,1,14,0:0:0:0:
292,247,120054,1,0,0:0:0:0:
292,247,120130,1,8,0:0:0:0:
292,247,120206,1,8,0:0:0:0:
292,247,120357,1,14,0:0:0:0:
308,252,120509,1,0,0:0:0:0:
308,252,120660,1,14,0:0:0:0:
309,247,120812,1,0,0:0:0:0:
309,247,120888,1,8,0:0:0:0:
285,247,120963,1,0,0:0:0:0:
300,275,121115,1,14,0:0:0:0:
299,269,121267,1,0,0:0:0:0:
299,269,121418,1,8,0:0:0:0:
301,269,121494,1,8,0:0:0:0:
301,269,121570,1,0,0:0:0:0:
339,242,121645,1,8,0:0:0:0:
305,276,121721,1,8,0:0:0:0:
303,287,121873,1,4,0:0:0:0:
294,301,122024,1,8,0:0:0:0:
294,301,122100,1,8,0:0:0:0:
294,301,122176,1,0,0:0:0:0:
283,294,122327,1,14,0:0:0:0:
286,293,122479,1,0,0:0:0:0:
266,282,122554,1,8,0:0:0:0:
266,282,122630,1,8,0:0:0:0:
266,283,122782,1,4,0:0:0:0:
252,274,122933,1,8,0:0:0:0:
252,274,123085,1,4,0:0:0:0:
308,293,123236,1,8,0:0:0:0:
306,293,123388,1,8,0:0:0:0:
308,293,123539,1,4,0:0:0:0:
366,255,123842,1,0,0:0:0:0:
366,263,123994,1,12,0:0:0:0:
228,301,124145,1,8,0:0:0:0:
233,273,124297,1,4,0:0:0:0:
346,267,124448,1,8,0:0:0:0:
346,267,124524,1,8,0:0:0:0:
346,267,124600,1,0,0:0:0:0:
346,267,124751,1,8,0:0:0:0:
346,267,124827,1,0,0:0:0:0:
346,267,124903,1,8,0:0:0:0:
346,267,124979,1,8,0:0:0:0:
346,276,125054,1,0,0:0:0:0:
346,279,125130,1,0,0:0:0:0:
346,280,125206,1,8,0:0:0:0:
355,264,125357,1,0,0:0:0:0:
355,264,125509,1,14,0:0:0:0:
356,263,125660,1,8,0:0:0:0:
356,263,125736,1,8,0:0:0:0:
355,266,125812,1,0,0:0:0:0:
355,268,125963,1,8,0:0:0:0:
351,263,126039,1,0,0:0:0:0:
351,263,126115,1,8,0:0:0:0:
421,314,126191,1,8,0:0:0:0:
328,257,126267,1,0,0:0:0:0:
351,306,126418,1,12,0:0:0:0:
351,304,126569,1,0,0:0:0:0:
351,304,126721,1,4,0:0:0:0:
335,284,127024,5,8,0:0:0:0:
336,287,127327,1,4,0:0:0:0:
341,287,127630,1,4,0:0:0:0:
281,282,127933,1,8,0:0:0:0:
306,299,128236,1,4,0:0:0:0:
309,299,128539,1,4,0:0:0:0:
322,273,128842,1,8,0:0:0:0:
272,292,129145,1,4,0:0:0:0:
298,251,129448,1,8,0:0:0:0:
299,268,129600,1,0,0:0:0:0:
298,251,129751,1,8,0:0:0:0:
304,288,129903,1,8,0:0:0:0:
295,237,130054,1,0,0:0:0:0:
354,311,130206,1,0,0:0:0:0:
305,244,130660,1,8,0:0:0:0:
280,237,130812,1,0,0:0:0:0:
355,300,130963,1,8,0:0:0:0:
331,282,131266,1,0,0:0:0:0:
341,286,131418,1,8,0:0:0:0:
291,297,131569,1,0,0:0:0:0:
347,296,131872,1,0,0:0:0:0:
331,282,132024,1,8,0:0:0:0:
350,299,132175,1,8,0:0:0:0:
291,297,132327,1,0,0:0:0:0:
341,280,132478,1,0,0:0:0:0:
344,278,132630,1,8,0:0:0:0:
341,251,133084,1,0,0:0:0:0:
338,245,133236,1,8,0:0:0:0:
338,245,133388,1,0,0:0:0:0:
353,273,133691,1,8,0:0:0:0:
353,278,133842,1,8,0:0:0:0:
355,273,133994,1,0,0:0:0:0:
345,244,134297,1,8,0:0:0:0:
347,252,134448,1,0,0:0:0:0:
338,245,134600,1,8,0:0:0:0:
342,245,134751,1,8,0:0:0:0:
342,245,134903,1,0,0:0:0:0:
345,244,135054,1,0,0:0:0:0:
320,236,135509,1,8,0:0:0:0:
332,235,135660,1,0,0:0:0:0:
338,253,135812,1,8,0:0:0:0:
342,256,136115,1,0,0:0:0:0:
323,208,136266,1,8,0:0:0:0:
330,218,136418,1,0,0:0:0:0:
338,253,136721,1,0,0:0:0:0:
338,246,136872,1,8,0:0:0:0:
308,263,137024,1,8,0:0:0:0:
308,267,137175,1,0,0:0:0:0:
313,273,137478,1,8,0:0:0:0:
304,241,137630,1,0,0:0:0:0:
345,259,137781,1,8,0:0:0:0:
345,259,137933,1,8,0:0:0:0:
344,258,138084,1,0,0:0:0:0:
344,262,138236,1,8,0:0:0:0:
365,271,138539,1,0,0:0:0:0:
360,257,138691,1,8,0:0:0:0:
261,246,138842,5,8,0:0:0:0:
261,246,138994,1,0,0:0:0:0:
261,246,139145,1,8,0:0:0:0:
261,246,139297,1,0,0:0:0:0:
275,294,139448,1,8,0:0:0:0:
275,294,139600,1,8,0:0:0:0:
311,308,139751,1,0,0:0:0:0:
317,313,139903,1,8,0:0:0:0:
310,298,140054,1,0,0:0:0:0:
308,301,140206,1,0,0:0:0:0:
308,302,140357,1,8,0:0:0:0:
306,293,140509,1,0,0:0:0:0:
307,296,140660,1,8,0:0:0:0:
259,268,140812,1,8,0:0:0:0:
259,268,140963,1,0,0:0:0:0:
334,268,141266,1,8,0:0:0:0:
276,273,141569,1,8,0:0:0:0:
273,262,141721,1,0,0:0:0:0:
273,262,141872,1,8,0:0:0:0:
278,262,142024,1,8,0:0:0:0:
279,264,142175,1,0,0:0:0:0:
279,264,142327,1,8,0:0:0:0:
286,260,142478,1,0,0:0:0:0:
278,239,142630,1,8,0:0:0:0:
231,271,142781,1,8,0:0:0:0:
279,242,142933,1,0,0:0:0:0:
280,242,143084,1,0,0:0:0:0:
231,263,143236,1,8,0:0:0:0:
267,277,143539,1,8,0:0:0:0:
267,277,143691,1,0,0:0:0:0:
230,229,143994,1,12,0:0:0:0:
230,239,144297,1,0,0:0:0:0:
236,266,144448,1,8,0:0:0:0:
237,268,144600,1,12,0:0:0:0:
306,260,144751,1,0,0:0:0:0:
293,264,144903,1,8,0:0:0:0:
294,263,145054,1,0,0:0:0:0:
294,263,145206,1,12,0:0:0:0:
295,263,145357,1,8,0:0:0:0:
295,261,145509,1,0,0:0:0:0:
302,273,145660,1,0,0:0:0:0:
284,228,145812,1,12,0:0:0:0:
307,280,145963,1,8,0:0:0:0:
284,228,146115,1,4,0:0:0:0:
284,228,146418,1,12,0:0:0:0:
284,228,146721,1,12,0:0:0:0:
267,247,146872,1,0,0:0:0:0:
270,249,147024,1,12,0:0:0:0:
278,250,147175,1,8,0:0:0:0:
289,254,147327,1,0,0:0:0:0:
266,224,147478,1,8,0:0:0:0:
278,249,147630,1,0,0:0:0:0:
290,240,147680,1,0,0:0:0:0:
291,240,147731,1,0,0:0:0:0:
292,242,147781,1,0,0:0:0:0:
346,243,147933,1,8,0:0:0:0:
346,243,147983,1,8,0:0:0:0:
346,243,148034,1,8,0:0:0:0:
346,243,148084,1,8,0:0:0:0:
346,243,148135,1,8,0:0:0:0:
346,243,148186,1,8,0:0:0:0:
346,243,148236,1,0,0:0:0:0:
364,277,148539,1,8,0:0:0:0:
320,273,148994,1,8,0:0:0:0:
256,198,149448,1,8,0:0:0:0:
308,252,149751,1,14,0:0:0:0:
309,247,149903,1,8,0:0:0:0:
309,247,149979,1,8,0:0:0:0:
285,247,150054,1,0,0:0:0:0:
300,275,150206,1,14,0:0:0:0:
299,269,150358,1,0,0:0:0:0:
299,269,150433,1,8,0:0:0:0:
299,269,150509,1,8,0:0:0:0:
301,269,150585,1,0,0:0:0:0:
301,269,150661,1,8,0:0:0:0:
305,276,150812,1,8,0:0:0:0:
303,287,150964,1,4,0:0:0:0:
294,301,151115,1,8,0:0:0:0:
294,301,151191,1,8,0:0:0:0:
294,301,151267,1,0,0:0:0:0:
283,294,151418,1,14,0:0:0:0:
286,293,151570,1,0,0:0:0:0:
266,282,151645,1,8,0:0:0:0:
266,282,151721,1,8,0:0:0:0:
266,283,151873,1,4,0:0:0:0:
252,274,152024,1,8,0:0:0:0:
252,274,152175,1,4,0:0:0:0:
252,274,152327,1,8,0:0:0:0:
355,288,152478,1,8,0:0:0:0:
340,231,152630,1,4,0:0:0:0:
321,238,152933,1,0,0:0:0:0:
321,238,153084,1,12,0:0:0:0:
228,301,153236,1,8,0:0:0:0:
233,273,153388,1,4,0:0:0:0:
346,267,153539,1,8,0:0:0:0:
346,267,153615,1,8,0:0:0:0:
346,267,153691,1,0,0:0:0:0:
346,267,153842,1,8,0:0:0:0:
346,267,153918,1,0,0:0:0:0:
346,267,153994,1,8,0:0:0:0:
346,267,154070,1,8,0:0:0:0:
346,276,154145,1,0,0:0:0:0:
346,279,154221,1,0,0:0:0:0:
346,280,154297,1,8,0:0:0:0:
355,264,154448,1,0,0:0:0:0:
355,264,154600,1,14,0:0:0:0:
356,263,154751,1,8,0:0:0:0:
356,263,154827,1,8,0:0:0:0:
355,266,154903,1,0,0:0:0:0:
355,268,155054,1,8,0:0:0:0:
351,263,155130,1,0,0:0:0:0:
351,263,155206,1,8,0:0:0:0:
421,314,155282,1,8,0:0:0:0:
328,257,155358,1,0,0:0:0:0:
331,256,155509,1,14,0:0:0:0:
307,297,155661,1,8,0:0:0:0:
307,297,155812,1,4,0:0:0:0:
378,278,155964,1,8,0:0:0:0:
377,273,156039,1,8,0:0:0:0:
377,273,156115,1,0,0:0:0:0:
356,231,156267,1,8,0:0:0:0:
356,231,156342,1,0,0:0:0:0:
356,231,156418,1,8,0:0:0:0:
334,222,156570,1,0,0:0:0:0:
333,220,156645,1,8,0:0:0:0:
336,222,156721,1,0,0:0:0:0:
350,216,156872,1,8,0:0:0:0:
350,216,156947,1,0,0:0:0:0:
350,216,157023,1,8,0:0:0:0:
350,216,157099,1,8,0:0:0:0:
350,216,157175,1,0,0:0:0:0:
282,270,157250,1,0,0:0:0:0:
346,217,157326,1,8,0:0:0:0:
282,270,157478,1,14,0:0:0:0:
282,270,157629,1,4,0:0:0:0:
282,270,157781,1,14,0:0:0:0:
337,259,157932,1,8,0:0:0:0:
337,259,158084,1,0,0:0:0:0:
359,233,158236,1,14,0:0:0:0:
352,226,158387,1,8,0:0:0:0:
352,226,158463,1,8,0:0:0:0:
352,226,158538,1,0,0:0:0:0:
352,227,158690,1,14,0:0:0:0:
312,252,158841,1,0,0:0:0:0:
312,252,158917,1,8,0:0:0:0:
312,252,158993,1,8,0:0:0:0:
314,260,159144,1,14,0:0:0:0:
301,241,159296,1,0,0:0:0:0:
306,240,159447,1,14,0:0:0:0:
336,257,159599,1,0,0:0:0:0:
336,257,159675,1,8,0:0:0:0:
336,257,159750,1,0,0:0:0:0:
334,248,159902,1,14,0:0:0:0:
360,232,160053,1,0,0:0:0:0:
361,232,160205,1,8,0:0:0:0:
355,222,160281,1,8,0:0:0:0:
355,222,160357,1,0,0:0:0:0:
246,235,160432,1,8,0:0:0:0:
361,215,160508,1,8,0:0:0:0:
355,223,160660,1,4,0:0:0:0:
351,278,160811,1,8,0:0:0:0:
341,276,160887,1,8,0:0:0:0:
318,245,160963,1,0,0:0:0:0:
334,224,161114,1,14,0:0:0:0:
340,223,161266,1,0,0:0:0:0:
340,224,161341,1,0,0:0:0:0:
340,224,161417,1,8,0:0:0:0:
271,268,161569,1,4,0:0:0:0:
252,274,161721,1,8,0:0:0:0:
252,274,161872,1,4,0:0:0:0:
305,287,162024,1,8,0:0:0:0:
303,283,162175,1,8,0:0:0:0:
305,287,162327,1,4,0:0:0:0:
304,270,162630,1,0,0:0:0:0:
305,272,162781,1,12,0:0:0:0:
228,301,162932,1,8,0:0:0:0:
233,273,163084,1,4,0:0:0:0:
346,267,163235,1,8,0:0:0:0:
346,267,163311,1,8,0:0:0:0:
346,267,163387,1,0,0:0:0:0:
346,267,163538,1,8,0:0:0:0:
346,267,163614,1,0,0:0:0:0:
346,267,163690,1,8,0:0:0:0:
346,267,163766,1,8,0:0:0:0:
346,276,163841,1,0,0:0:0:0:
346,279,163917,1,0,0:0:0:0:
346,280,163993,1,8,0:0:0:0:
355,264,164144,1,0,0:0:0:0:
355,264,164297,1,14,0:0:0:0:
356,263,164447,1,8,0:0:0:0:
356,263,164523,1,8,0:0:0:0:
355,266,164599,1,0,0:0:0:0:
355,268,164750,1,8,0:0:0:0:
351,263,164826,1,0,0:0:0:0:
351,263,164902,1,8,0:0:0:0:
421,314,164978,5,8,0:0:0:0:
328,257,165054,1,0,0:0:0:0:
331,256,165206,1,14,0:0:0:0:
337,247,165357,1,8,0:0:0:0:
250,188,165508,5,4,0:0:0:0:
313,280,165660,1,8,0:0:0:0:
313,280,165736,1,8,0:0:0:0:
313,280,165812,1,0,0:0:0:0:
314,273,165963,1,8,0:0:0:0:
289,269,166039,1,0,0:0:0:0:
289,262,166115,1,8,0:0:0:0:
319,251,166191,1,8,0:0:0:0:
314,252,166266,1,0,0:0:0:0:
264,245,166342,1,0,0:0:0:0:
264,245,166418,1,8,0:0:0:0:
311,249,166569,1,0,0:0:0:0:
287,255,166645,1,8,0:0:0:0:
312,252,166721,1,8,0:0:0:0:
326,278,166797,1,0,0:0:0:0:
323,277,166872,1,8,0:0:0:0:
321,277,166948,1,8,0:0:0:0:
317,283,167024,1,0,0:0:0:0:
287,268,167175,1,8,0:0:0:0:
268,250,167327,1,4,0:0:0:0:
270,254,167478,1,0,0:0:0:0:
270,254,167630,1,14,0:0:0:0:
296,239,167781,1,8,0:0:0:0:
303,257,167933,5,4,0:0:0:0:
293,250,168084,1,8,0:0:0:0:
278,247,168160,1,8,0:0:0:0:
278,247,168236,1,0,0:0:0:0:
291,248,168388,1,14,0:0:0:0:
292,247,168539,1,0,0:0:0:0:
292,247,168615,1,0,0:0:0:0:
292,247,168691,1,8,0:0:0:0:
292,247,168842,1,4,0:0:0:0:
308,252,168994,1,8,0:0:0:0:
308,252,169145,1,4,0:0:0:0:
309,247,169297,1,8,0:0:0:0:
309,247,169373,1,8,0:0:0:0:
285,247,169448,1,0,0:0:0:0:
300,275,169600,1,14,0:0:0:0:
299,269,169752,1,0,0:0:0:0:
299,269,169903,1,8,0:0:0:0:
301,269,169978,1,8,0:0:0:0:
301,269,170055,1,0,0:0:0:0:
311,273,170130,1,0,0:0:0:0:
305,276,170206,1,8,0:0:0:0:
303,287,170357,1,4,0:0:0:0:
294,301,170509,1,8,0:0:0:0:
294,301,170585,1,8,0:0:0:0:
294,301,170661,1,0,0:0:0:0:
283,294,170812,1,14,0:0:0:0:
286,293,170964,1,0,0:0:0:0:
266,282,171039,1,0,0:0:0:0:
266,282,171115,1,8,0:0:0:0:
266,283,171267,1,4,0:0:0:0:
252,274,171418,1,8,0:0:0:0:
299,258,171569,1,4,0:0:0:0:
293,250,171721,1,8,0:0:0:0:
293,250,171797,1,8,0:0:0:0:
292,250,171872,1,8,0:0:0:0:
292,252,172024,1,4,0:0:0:0:
300,238,172327,1,0,0:0:0:0:
210,227,172478,1,12,0:0:0:0:
228,301,172630,1,8,0:0:0:0:
233,273,172781,1,4,0:0:0:0:
346,267,172933,1,8,0:0:0:0:
346,267,173009,1,8,0:0:0:0:
346,267,173084,1,0,0:0:0:0:
346,267,173236,1,8,0:0:0:0:
346,267,173312,1,8,0:0:0:0:
346,267,173388,1,0,0:0:0:0:
346,267,173464,1,8,0:0:0:0:
346,276,173539,1,0,0:0:0:0:
346,279,173615,1,0,0:0:0:0:
346,280,173691,1,8,0:0:0:0:
355,264,173842,1,8,0:0:0:0:
355,264,173994,1,4,0:0:0:0:
356,263,174145,1,8,0:0:0:0:
356,263,174221,1,8,0:0:0:0:
355,266,174297,1,0,0:0:0:0:
355,268,174448,1,0,0:0:0:0:
351,263,174524,1,8,0:0:0:0:
351,263,174600,1,8,0:0:0:0:
421,314,174676,1,8,0:0:0:0:
328,257,174752,1,0,0:0:0:0:
331,256,174903,1,6,0:0:0:0:
307,297,175055,1,8,0:0:0:0:
307,297,175206,1,4,0:0:0:0:
378,278,175358,1,8,0:0:0:0:
377,273,175433,1,8,0:0:0:0:
377,273,175509,1,0,0:0:0:0:
356,231,175661,1,8,0:0:0:0:
356,231,175736,1,0,0:0:0:0:
356,231,175812,1,8,0:0:0:0:
334,222,175963,1,0,0:0:0:0:
333,220,176039,1,8,0:0:0:0:
336,222,176115,1,0,0:0:0:0:
350,216,176267,1,8,0:0:0:0:
350,216,176342,1,0,0:0:0:0:
350,216,176418,1,8,0:0:0:0:
350,216,176494,1,8,0:0:0:0:
350,216,176570,1,0,0:0:0:0:
282,270,176645,1,0,0:0:0:0:
346,217,176721,1,8,0:0:0:0:
282,270,176873,1,6,0:0:0:0:
282,270,177024,1,4,0:0:0:0:
282,270,177176,1,6,0:0:0:0:
337,259,177327,1,8,0:0:0:0:
337,259,177479,1,0,0:0:0:0:
303,257,177630,1,14,0:0:0:0:
293,250,177782,1,8,0:0:0:0:
278,247,177858,1,8,0:0:0:0:
278,247,177933,1,0,0:0:0:0:
291,248,178085,1,14,0:0:0:0:
292,247,178236,1,8,0:0:0:0:
292,247,178312,1,8,0:0:0:0:
292,247,178388,1,0,0:0:0:0:
292,247,178539,1,14,0:0:0:0:
308,252,178691,1,0,0:0:0:0:
308,252,178842,1,14,0:0:0:0:
309,247,178994,1,0,0:0:0:0:
309,247,179070,1,8,0:0:0:0:
285,247,179145,1,0,0:0:0:0:
300,275,179297,1,14,0:0:0:0:
299,269,179449,1,0,0:0:0:0:
299,269,179524,1,8,0:0:0:0:
299,269,179600,1,8,0:0:0:0:
301,269,179676,1,0,0:0:0:0:
301,269,179752,1,8,0:0:0:0:
305,276,179903,1,8,0:0:0:0:
303,287,180055,1,4,0:0:0:0:
294,301,180206,1,8,0:0:0:0:
294,301,180282,1,8,0:0:0:0:
294,301,180358,1,0,0:0:0:0:
283,294,180509,1,12,0:0:0:0:
286,293,180661,1,0,0:0:0:0:
266,282,180736,1,8,0:0:0:0:
266,282,180812,1,8,0:0:0:0:
266,283,180964,1,4,0:0:0:0:
252,274,181115,1,8,0:0:0:0:
252,274,181266,1,4,0:0:0:0:
268,286,181418,1,8,0:0:0:0:
268,286,181494,1,0,0:0:0:0:
268,286,181569,1,8,0:0:0:0:
262,284,181645,1,8,0:0:0:0:
258,286,181721,1,0,0:0:0:0:
260,301,181797,1,8,0:0:0:0:
260,301,181873,1,0,0:0:0:0:
258,301,181949,1,0,0:0:0:0:
241,292,182024,1,8,0:0:0:0:
251,298,182100,1,0,0:0:0:0:
241,292,182175,1,8,0:0:0:0:
228,301,182327,1,8,0:0:0:0:
233,273,182479,1,4,0:0:0:0:
346,267,182630,1,8,0:0:0:0:
346,267,182706,1,8,0:0:0:0:
346,267,182782,1,0,0:0:0:0:
346,267,182933,1,8,0:0:0:0:
346,267,183009,1,0,0:0:0:0:
346,267,183085,1,8,0:0:0:0:
346,267,183160,1,8,0:0:0:0:
346,276,183236,1,0,0:0:0:0:
346,279,183312,1,0,0:0:0:0:
346,280,183388,1,8,0:0:0:0:
355,264,183539,1,8,0:0:0:0:
355,264,183691,1,4,0:0:0:0:
356,263,183842,1,8,0:0:0:0:
356,263,183918,1,0,0:0:0:0:
355,266,183994,1,8,0:0:0:0:
355,268,184145,1,0,0:0:0:0:
351,263,184221,1,8,0:0:0:0:
351,263,184297,1,8,0:0:0:0:
421,314,184373,1,0,0:0:0:0:
328,257,184449,1,8,0:0:0:0:
331,256,184600,1,12,0:0:0:0:
307,297,184751,1,0,0:0:0:0:
307,297,184903,1,4,0:0:0:0:
306,303,185206,1,8,0:0:0:0:
296,289,185509,1,4,0:0:0:0:
307,297,185812,1,4,0:0:0:0:
303,278,186115,1,8,0:0:0:0:
303,278,186418,1,4,0:0:0:0:
316,274,186721,1,4,0:0:0:0:
243,264,187024,1,8,0:0:0:0:
234,265,187327,1,4,0:0:0:0:
238,273,187630,1,8,0:0:0:0:
237,274,187781,1,0,0:0:0:0:
236,274,187933,1,8,0:0:0:0:
239,278,188084,1,8,0:0:0:0:
236,280,188236,1,0,0:0:0:0:
289,287,188842,1,4,0:0:0:0:
304,284,188994,1,8,0:0:0:0:
309,285,189145,1,8,0:0:0:0:
306,284,189297,1,4,0:0:0:0:
309,277,189600,1,8,0:0:0:0:
311,275,189751,1,4,0:0:0:0:
339,280,190054,1,8,0:0:0:0:
341,280,190206,1,0,0:0:0:0:
341,281,190357,1,8,0:0:0:0:
341,283,190509,1,8,0:0:0:0:
341,283,190660,1,0,0:0:0:0:
337,265,191266,1,4,0:0:0:0:
337,266,191418,1,8,0:0:0:0:
337,266,191569,1,8,0:0:0:0:
340,269,191721,1,4,0:0:0:0:
337,265,192024,1,8,0:0:0:0:
337,265,192175,1,4,0:0:0:0:
339,258,192478,1,8,0:0:0:0:
340,269,192630,1,0,0:0:0:0:
338,274,192781,1,8,0:0:0:0:
333,280,192933,1,8,0:0:0:0:
332,281,193084,1,0,0:0:0:0:
316,254,193691,1,4,0:0:0:0:
316,254,193842,1,8,0:0:0:0:
316,255,193994,1,8,0:0:0:0:
316,256,194145,1,4,0:0:0:0:
336,259,194448,1,8,0:0:0:0:
336,260,194600,1,4,0:0:0:0:
335,257,194903,1,12,0:0:0:0:
336,259,195206,1,12,0:0:0:0:
346,254,195357,1,4,0:0:0:0:
345,252,195660,1,4,0:0:0:0:
346,257,195812,1,12,0:0:0:0:
353,290,196115,1,12,0:0:0:0:
353,290,196418,1,12,0:0:0:0:
356,291,196569,1,4,0:0:0:0:
