osu file format v14

[General]
AudioFilename: audio.mp3
AudioLeadIn: 0
PreviewTime: 148463
Countdown: 0
SampleSet: Normal
StackLeniency: 0.7
Mode: 1
LetterboxInBreaks: 0
WidescreenStoryboard: 1

[Editor]
Bookmarks: 22463,32160
DistanceSpacing: 0.5
BeatDivisor: 4
GridSize: 32
TimelineZoom: 1.399999

[Metadata]
Title:Ring My Bell
TitleUnicode:링마벨
Artist:Girl's Day
ArtistUnicode:걸스데이
Creator:Capu
Version:Belajar's Oni
Source:
Tags:ak1o [belajar-osu] raphalge 소진 유라 민아 혜리 SoJin Yura MinAh HyeRi 드림티엔터테인먼트 DREAMT ENTERTAINMENT Love Second Album k-pop kpop KBS Music Bank
BeatmapID:1949171
BeatmapSetID:932109

[Difficulty]
HPDrainRate:5
CircleSize:2
OverallDifficulty:6
ApproachRate:9
SliderMultiplier:1.4
SliderTickRate:1

[Events]
//Background and Video events
0,0,"QkJG1W3.jpg",0,90
//Break Periods
//Storyboard Layer 0 (Background)
//Storyboard Layer 1 (Fail)
//Storyboard Layer 2 (Pass)
//Storyboard Layer 3 (Foreground)
//Storyboard Sound Samples

[TimingPoints]
3085,303.030303030303,4,1,0,60,1,0
3085,-100,4,1,0,60,0,0
12781,-100,4,1,0,90,0,0
51569,-100,4,1,0,100,0,1
68539,-100,4,1,0,90,0,0
109751,-100,4,1,0,100,0,1
126721,-100,4,1,0,90,0,0
129448,-100,4,1,0,65,0,0
138842,-100,4,1,0,75,0,0
143691,-100,4,1,0,80,0,0
146115,-100,4,1,0,90,0,0
149751,-100,4,1,0,100,0,1
166721,-100,4,1,0,90,0,0
167933,-100,4,1,0,100,0,1
184903,-100,4,1,0,90,0,0
187327,-100,4,1,0,90,0,0

[HitObjects]
241,217,3085,5,8,0:0:0:0:
255,250,3388,1,0,0:0:0:0:
329,278,3691,1,0,0:0:0:0:
277,283,3994,1,8,0:0:0:0:
263,242,4600,1,8,0:0:0:0:
332,282,5509,1,8,0:0:0:0:
332,282,5812,1,0,0:0:0:0:
391,188,6115,1,0,0:0:0:0:
390,185,6418,1,8,0:0:0:0:
293,265,7024,1,0,0:0:0:0:
299,272,7933,1,8,0:0:0:0:
317,289,8236,1,8,0:0:0:0:
299,272,8539,1,0,0:0:0:0:
268,284,8842,1,8,0:0:0:0:
317,289,9145,1,0,0:0:0:0:
313,293,9448,1,8,0:0:0:0:
321,295,9751,1,0,0:0:0:0:
278,244,10357,1,8,0:0:0:0:
278,244,10433,1,8,0:0:0:0:
278,244,10509,1,0,0:0:0:0:
278,253,10660,1,8,0:0:0:0:
278,244,10963,1,8,0:0:0:0:
333,262,11039,1,8,0:0:0:0:
334,271,11115,1,0,0:0:0:0:
434,225,11266,1,8,0:0:0:0:
278,244,11342,1,8,0:0:0:0:
334,271,11418,1,0,0:0:0:0:
334,271,11569,1,8,0:0:0:0:
334,271,11721,1,0,0:0:0:0:
261,231,11872,1,8,0:0:0:0:
256,219,11948,1,8,0:0:0:0:
256,219,12024,1,0,0:0:0:0:
235,222,12175,1,8,0:0:0:0:
320,224,12478,1,8,0:0:0:0:
350,200,12554,1,8,0:0:0:0:
353,214,12630,1,8,0:0:0:0:
353,216,12781,1,4,0:0:0:0:
313,219,13085,1,0,0:0:0:0:
341,301,13388,1,8,0:0:0:0:
341,301,13539,1,8,0:0:0:0:
289,311,13691,1,0,0:0:0:0:
294,292,14297,1,4,0:0:0:0:
296,293,14600,1,8,0:0:0:0:
315,300,14751,1,0,0:0:0:0:
315,298,15206,1,4,0:0:0:0:
315,295,15509,1,0,0:0:0:0:
315,298,15812,1,8,0:0:0:0:
313,304,15963,1,8,0:0:0:0:
311,307,16115,1,0,0:0:0:0:
302,303,16721,1,4,0:0:0:0:
311,307,17024,1,8,0:0:0:0:
322,280,17175,1,0,0:0:0:0:
316,272,17327,1,8,0:0:0:0:
316,272,17630,1,4,0:0:0:0:
339,274,17933,1,0,0:0:0:0:
343,286,18236,1,8,0:0:0:0:
342,289,18388,1,8,0:0:0:0:
340,298,18539,1,0,0:0:0:0:
361,286,19145,1,4,0:0:0:0:
371,296,19448,1,8,0:0:0:0:
371,298,19600,1,0,0:0:0:0:
327,247,20054,1,0,0:0:0:0:
327,247,20357,1,0,0:0:0:0:
263,242,20660,1,0,0:0:0:0:
271,252,20812,1,8,0:0:0:0:
266,219,21115,1,0,0:0:0:0:
340,298,21266,1,8,0:0:0:0:
340,298,21569,1,8,0:0:0:0:
340,298,21872,1,0,0:0:0:0:
340,298,22024,1,8,0:0:0:0:
340,298,22175,1,0,0:0:0:0:
340,298,22251,1,0,0:0:0:0:
340,298,22327,1,0,0:0:0:0:
293,264,22478,1,12,0:0:0:0:
286,273,22781,1,8,0:0:0:0:
296,281,23085,1,0,0:0:0:0:
297,282,23236,1,8,0:0:0:0:
297,281,23388,1,0,0:0:0:0:
297,281,23539,1,8,0:0:0:0:
286,273,23691,1,8,0:0:0:0:
259,299,23994,1,0,0:0:0:0:
266,293,24145,1,8,0:0:0:0:
271,301,24600,1,8,0:0:0:0:
284,291,24903,1,4,0:0:0:0:
297,299,25206,1,0,0:0:0:0:
288,298,25357,1,8,0:0:0:0:
288,299,25509,1,0,0:0:0:0:
288,298,25660,1,8,0:0:0:0:
284,291,25812,1,8,0:0:0:0:
286,292,25963,1,8,0:0:0:0:
287,293,26115,1,0,0:0:0:0:
331,290,26418,1,0,0:0:0:0:
344,303,26569,1,8,0:0:0:0:
276,208,27024,1,8,0:0:0:0:
309,246,27327,1,4,0:0:0:0:
313,331,27630,1,0,0:0:0:0:
319,310,27933,1,8,0:0:0:0:
316,313,28236,1,0,0:0:0:0:
316,311,28539,1,8,0:0:0:0:
319,310,28842,1,0,0:0:0:0:
316,313,28994,1,8,0:0:0:0:
317,323,29297,1,0,0:0:0:0:
316,320,29448,1,8,0:0:0:0:
358,315,29751,1,8,0:0:0:0:
349,308,30054,1,0,0:0:0:0:
350,309,30206,1,8,0:0:0:0:
311,299,30509,1,8,0:0:0:0:
331,314,30660,1,0,0:0:0:0:
311,299,30963,1,0,0:0:0:0:
311,299,31115,1,8,0:0:0:0:
311,299,31266,1,8,0:0:0:0:
311,299,31342,1,0,0:0:0:0:
295,289,31418,1,8,0:0:0:0:
298,289,31569,1,8,0:0:0:0:
320,312,31721,1,0,0:0:0:0:
321,312,31872,1,8,0:0:0:0:
339,323,32175,1,12,0:0:0:0:
344,314,32478,1,0,0:0:0:0:
349,303,32781,1,8,0:0:0:0:
351,306,32933,1,8,0:0:0:0:
352,306,33085,1,0,0:0:0:0:
407,307,33388,1,0,0:0:0:0:
406,318,33691,1,8,0:0:0:0:
409,318,33842,1,0,0:0:0:0:
401,333,34145,1,0,0:0:0:0:
405,329,34297,1,8,0:0:0:0:
401,307,34600,1,4,0:0:0:0:
356,273,34903,1,8,0:0:0:0:
361,282,35054,1,0,0:0:0:0:
362,288,35206,1,8,0:0:0:0:
362,288,35357,1,8,0:0:0:0:
386,268,35509,1,0,0:0:0:0:
406,284,35812,1,0,0:0:0:0:
406,285,35963,1,8,0:0:0:0:
406,288,36266,1,8,0:0:0:0:
389,249,36418,1,0,0:0:0:0:
389,249,36569,1,0,0:0:0:0:
389,249,36645,1,0,0:0:0:0:
389,249,36721,1,8,0:0:0:0:
408,252,37024,1,12,0:0:0:0:
372,247,37327,1,8,0:0:0:0:
364,242,37630,1,0,0:0:0:0:
361,271,37933,1,8,0:0:0:0:
361,264,38085,1,0,0:0:0:0:
361,271,38236,1,8,0:0:0:0:
357,265,38539,1,0,0:0:0:0:
358,266,38691,1,8,0:0:0:0:
333,245,38994,1,0,0:0:0:0:
206,282,39145,1,8,0:0:0:0:
352,233,39221,1,8,0:0:0:0:
352,233,39297,1,0,0:0:0:0:
297,279,39448,5,4,0:0:0:0:
297,279,39751,1,8,0:0:0:0:
306,291,39903,1,0,0:0:0:0:
308,296,40054,1,0,0:0:0:0:
309,290,40206,1,8,0:0:0:0:
310,298,40357,1,0,0:0:0:0:
299,266,40660,5,8,0:0:0:0:
299,266,40736,1,8,0:0:0:0:
318,268,40812,1,0,0:0:0:0:
313,284,40963,1,8,0:0:0:0:
316,287,41115,1,8,0:0:0:0:
316,287,41191,1,0,0:0:0:0:
316,287,41266,1,8,0:0:0:0:
290,293,41418,1,0,0:0:0:0:
320,322,41569,1,8,0:0:0:0:
291,289,41872,1,12,0:0:0:0:
268,304,42175,1,0,0:0:0:0:
271,303,42478,1,10,0:0:0:0:
261,337,42781,1,0,0:0:0:0:
261,337,43085,1,8,0:0:0:0:
312,325,43236,1,0,0:0:0:0:
305,316,43388,1,0,0:0:0:0:
319,339,43539,1,8,0:0:0:0:
338,276,43842,1,0,0:0:0:0:
338,276,43994,1,8,0:0:0:0:
292,355,44297,1,10,0:0:0:0:
268,312,44600,1,0,0:0:0:0:
285,326,44903,1,10,0:0:0:0:
350,318,45206,1,0,0:0:0:0:
351,327,45509,1,8,0:0:0:0:
351,328,45660,1,0,0:0:0:0:
351,334,45812,1,0,0:0:0:0:
351,333,45963,1,8,0:0:0:0:
339,328,46266,1,0,0:0:0:0:
339,328,46418,1,8,0:0:0:0:
318,298,46721,1,0,0:0:0:0:
331,301,47024,1,0,0:0:0:0:
334,309,47327,1,8,0:0:0:0:
331,323,47630,1,0,0:0:0:0:
353,337,47933,1,8,0:0:0:0:
353,337,48236,1,8,0:0:0:0:
353,337,48388,1,8,0:0:0:0:
333,273,48539,1,0,0:0:0:0:
286,313,48842,1,8,0:0:0:0:
287,336,49145,1,0,0:0:0:0:
287,336,49297,1,8,0:0:0:0:
353,337,49372,1,8,0:0:0:0:
353,337,49448,1,8,0:0:0:0:
333,323,49600,1,0,0:0:0:0:
333,322,49751,1,8,0:0:0:0:
269,288,49827,1,8,0:0:0:0:
269,288,49903,1,8,0:0:0:0:
269,288,49978,1,8,0:0:0:0:
376,263,50054,1,0,0:0:0:0:
269,288,50206,1,8,0:0:0:0:
256,192,50357,12,0,51266,0:0:0:0:
333,322,51569,5,12,0:0:0:0:
333,322,51721,1,0,0:0:0:0:
333,322,51872,1,0,0:0:0:0:
333,322,52024,1,8,0:0:0:0:
333,322,52175,1,0,0:0:0:0:
333,322,52327,1,0,0:0:0:0:
333,322,52478,1,8,0:0:0:0:
333,322,52630,1,0,0:0:0:0:
333,322,52781,1,8,0:0:0:0:
333,322,52857,1,8,0:0:0:0:
333,322,52933,1,0,0:0:0:0:
333,322,53084,1,0,0:0:0:0:
333,322,53236,1,8,0:0:0:0:
333,322,53539,1,0,0:0:0:0:
333,322,53691,1,12,0:0:0:0:
333,322,53994,1,8,0:0:0:0:
333,322,54145,1,0,0:0:0:0:
333,322,54297,1,0,0:0:0:0:
333,322,54448,1,8,0:0:0:0:
333,322,54600,1,0,0:0:0:0:
333,322,54751,1,0,0:0:0:0:
333,322,54903,1,8,0:0:0:0:
333,322,55054,1,0,0:0:0:0:
333,322,55206,1,8,0:0:0:0:
333,322,55281,1,8,0:0:0:0:
333,322,55357,1,0,0:0:0:0:
333,322,55509,1,8,0:0:0:0:
333,322,55660,1,0,0:0:0:0:
333,322,55963,1,0,0:0:0:0:
333,322,56115,1,12,0:0:0:0:
333,322,56418,1,8,0:0:0:0:
333,322,56569,1,0,0:0:0:0:
333,322,56721,1,0,0:0:0:0:
333,322,56872,1,8,0:0:0:0:
333,322,57024,1,8,0:0:0:0:
333,322,57175,1,0,0:0:0:0:
333,322,57327,1,8,0:0:0:0:
333,322,57478,1,8,0:0:0:0:
333,322,57630,1,8,0:0:0:0:
333,322,57706,1,8,0:0:0:0:
333,322,57781,1,0,0:0:0:0:
333,322,57933,1,0,0:0:0:0:
333,322,58084,1,8,0:0:0:0:
333,322,58388,1,0,0:0:0:0:
333,322,58539,1,12,0:0:0:0:
333,322,58842,1,8,0:0:0:0:
333,322,58994,1,0,0:0:0:0:
333,322,59145,1,8,0:0:0:0:
333,322,59297,1,0,0:0:0:0:
333,322,59448,1,8,0:0:0:0:
333,322,59600,1,8,0:0:0:0:
333,322,59675,1,8,0:0:0:0:
333,322,59751,1,0,0:0:0:0:
333,322,59903,1,8,0:0:0:0:
333,322,59978,1,8,0:0:0:0:
333,322,60054,1,0,0:0:0:0:
333,322,60130,1,0,0:0:0:0:
333,322,60206,1,8,0:0:0:0:
333,322,60357,1,0,0:0:0:0:
333,322,60509,1,8,0:0:0:0:
333,322,60660,1,8,0:0:0:0:
333,322,60812,1,0,0:0:0:0:
333,322,60963,1,12,0:0:0:0:
333,322,61266,1,12,0:0:0:0:
333,322,61418,1,0,0:0:0:0:
333,322,61569,1,0,0:0:0:0:
333,322,61721,1,8,0:0:0:0:
333,322,61872,1,0,0:0:0:0:
333,322,62024,1,0,0:0:0:0:
333,322,62175,1,8,0:0:0:0:
333,322,62327,1,0,0:0:0:0:
333,322,62478,1,8,0:0:0:0:
333,322,62554,1,8,0:0:0:0:
333,322,62630,1,0,0:0:0:0:
333,322,62781,1,0,0:0:0:0:
333,322,62933,1,8,0:0:0:0:
333,322,63236,1,0,0:0:0:0:
333,322,63388,1,12,0:0:0:0:
333,322,63691,1,8,0:0:0:0:
333,322,63842,1,0,0:0:0:0:
333,322,63994,1,8,0:0:0:0:
333,322,64145,1,8,0:0:0:0:
333,322,64297,1,0,0:0:0:0:
333,322,64448,1,8,0:0:0:0:
333,322,64600,1,8,0:0:0:0:
333,322,64751,1,0,0:0:0:0:
333,322,64903,1,8,0:0:0:0:
333,322,64978,1,8,0:0:0:0:
333,322,65054,1,0,0:0:0:0:
333,322,65206,1,8,0:0:0:0:
333,322,65357,1,0,0:0:0:0:
333,322,65660,1,0,0:0:0:0:
333,322,65812,1,12,0:0:0:0:
333,322,66115,1,8,0:0:0:0:
333,322,66266,1,0,0:0:0:0:
333,322,66418,1,0,0:0:0:0:
333,322,66569,1,8,0:0:0:0:
333,322,66721,1,8,0:0:0:0:
333,322,66872,1,0,0:0:0:0:
333,322,67024,1,8,0:0:0:0:
333,322,67175,1,0,0:0:0:0:
333,322,67327,1,0,0:0:0:0:
333,322,67403,1,0,0:0:0:0:
333,322,67478,1,0,0:0:0:0:
333,322,67630,1,8,0:0:0:0:
333,322,67781,1,0,0:0:0:0:
333,322,68085,1,0,0:0:0:0:
333,322,68236,1,12,0:0:0:0:
333,322,68539,1,4,0:0:0:0:
333,322,68842,1,8,0:0:0:0:
333,322,69145,1,4,0:0:0:0:
333,322,69448,1,4,0:0:0:0:
333,322,69751,1,0,0:0:0:0:
333,322,70054,1,4,0:0:0:0:
333,322,70357,1,12,0:0:0:0:
353,216,70963,1,4,0:0:0:0:
313,219,71266,1,0,0:0:0:0:
341,301,71569,1,8,0:0:0:0:
341,301,71721,1,8,0:0:0:0:
289,311,71872,1,0,0:0:0:0:
294,292,72478,1,4,0:0:0:0:
296,293,72781,1,8,0:0:0:0:
315,300,72933,1,0,0:0:0:0:
315,298,73388,1,4,0:0:0:0:
315,295,73691,1,0,0:0:0:0:
315,298,73994,1,8,0:0:0:0:
313,304,74145,1,8,0:0:0:0:
311,307,74297,1,0,0:0:0:0:
302,303,74903,1,4,0:0:0:0:
311,307,75206,1,8,0:0:0:0:
322,280,75357,1,0,0:0:0:0:
316,272,75509,1,8,0:0:0:0:
316,272,75812,1,4,0:0:0:0:
339,274,76115,1,0,0:0:0:0:
343,286,76418,1,8,0:0:0:0:
342,289,76569,1,8,0:0:0:0:
340,298,76721,1,0,0:0:0:0:
361,286,77327,1,4,0:0:0:0:
371,296,77630,1,8,0:0:0:0:
371,298,77781,1,0,0:0:0:0:
327,247,78236,1,0,0:0:0:0:
327,247,78539,1,0,0:0:0:0:
263,242,78842,1,0,0:0:0:0:
271,252,78994,1,8,0:0:0:0:
266,219,79297,1,0,0:0:0:0:
340,298,79448,1,8,0:0:0:0:
340,298,79751,1,8,0:0:0:0:
340,298,80054,1,0,0:0:0:0:
340,298,80206,1,8,0:0:0:0:
340,298,80357,1,0,0:0:0:0:
340,298,80433,1,0,0:0:0:0:
340,298,80509,1,0,0:0:0:0:
293,264,80660,1,12,0:0:0:0:
286,273,80963,1,8,0:0:0:0:
296,281,81115,1,8,0:0:0:0:
297,282,81266,1,0,0:0:0:0:
297,282,81418,1,0,0:0:0:0:
297,281,81569,1,8,0:0:0:0:
297,281,81721,1,8,0:0:0:0:
286,273,81872,1,0,0:0:0:0:
259,299,82175,1,8,0:0:0:0:
266,293,82327,1,0,0:0:0:0:
271,301,82781,1,8,0:0:0:0:
284,291,83085,1,4,0:0:0:0:
297,299,83388,1,0,0:0:0:0:
288,298,83539,1,8,0:0:0:0:
288,299,83691,1,0,0:0:0:0:
288,298,83842,1,8,0:0:0:0:
284,291,83994,1,8,0:0:0:0:
286,292,84145,1,8,0:0:0:0:
287,293,84297,1,0,0:0:0:0:
331,290,84600,1,8,0:0:0:0:
344,303,84751,1,0,0:0:0:0:
276,208,85206,1,8,0:0:0:0:
309,246,85509,1,4,0:0:0:0:
313,331,85812,1,0,0:0:0:0:
319,310,86115,1,8,0:0:0:0:
316,313,86418,1,0,0:0:0:0:
316,311,86721,1,8,0:0:0:0:
319,310,87024,1,0,0:0:0:0:
316,313,87175,1,8,0:0:0:0:
317,323,87478,1,0,0:0:0:0:
316,320,87630,1,8,0:0:0:0:
358,315,87933,1,8,0:0:0:0:
349,308,88236,1,0,0:0:0:0:
350,309,88388,1,8,0:0:0:0:
331,314,88691,1,8,0:0:0:0:
311,299,88842,1,8,0:0:0:0:
311,299,89145,1,8,0:0:0:0:
311,299,89297,1,0,0:0:0:0:
311,299,89448,1,8,0:0:0:0:
311,299,89524,1,0,0:0:0:0:
295,289,89600,1,8,0:0:0:0:
298,289,89751,1,8,0:0:0:0:
320,312,89903,1,0,0:0:0:0:
321,312,90054,1,8,0:0:0:0:
339,323,90357,1,12,0:0:0:0:
344,314,90660,1,0,0:0:0:0:
349,303,90963,1,8,0:0:0:0:
351,306,91115,1,8,0:0:0:0:
352,306,91266,1,0,0:0:0:0:
407,307,91569,1,0,0:0:0:0:
406,318,91872,1,8,0:0:0:0:
409,318,92024,1,0,0:0:0:0:
401,333,92327,1,0,0:0:0:0:
405,329,92478,1,8,0:0:0:0:
401,307,92781,1,4,0:0:0:0:
356,273,93084,1,8,0:0:0:0:
361,282,93236,1,0,0:0:0:0:
362,288,93388,1,8,0:0:0:0:
362,288,93539,1,8,0:0:0:0:
386,268,93691,1,0,0:0:0:0:
386,268,93842,1,8,0:0:0:0:
406,284,93994,1,0,0:0:0:0:
406,285,94145,1,8,0:0:0:0:
406,288,94448,1,8,0:0:0:0:
389,249,94600,1,0,0:0:0:0:
389,249,94751,1,0,0:0:0:0:
389,249,94827,1,0,0:0:0:0:
389,249,94903,1,8,0:0:0:0:
408,252,95206,1,12,0:0:0:0:
372,247,95509,1,8,0:0:0:0:
364,242,95812,1,0,0:0:0:0:
361,271,96115,1,8,0:0:0:0:
361,264,96266,1,0,0:0:0:0:
361,271,96418,1,8,0:0:0:0:
357,265,96721,1,0,0:0:0:0:
358,266,96872,1,8,0:0:0:0:
333,245,97175,1,0,0:0:0:0:
206,282,97327,1,8,0:0:0:0:
352,233,97403,1,8,0:0:0:0:
352,233,97478,1,0,0:0:0:0:
297,279,97630,1,0,0:0:0:0:
297,279,97781,1,0,0:0:0:0:
297,279,97933,1,8,0:0:0:0:
306,291,98084,1,0,0:0:0:0:
308,296,98236,1,0,0:0:0:0:
309,290,98388,1,8,0:0:0:0:
310,298,98539,1,0,0:0:0:0:
299,266,98842,5,8,0:0:0:0:
299,266,98918,1,8,0:0:0:0:
318,268,98994,1,0,0:0:0:0:
313,284,99145,1,8,0:0:0:0:
316,287,99297,1,0,0:0:0:0:
316,287,99448,1,8,0:0:0:0:
316,287,99524,1,0,0:0:0:0:
320,322,99600,1,8,0:0:0:0:
316,287,99751,1,0,0:0:0:0:
291,289,100054,1,12,0:0:0:0:
268,304,100357,1,0,0:0:0:0:
271,303,100660,1,10,0:0:0:0:
261,337,100963,1,0,0:0:0:0:
261,337,101266,1,8,0:0:0:0:
312,325,101418,1,0,0:0:0:0:
305,316,101569,1,0,0:0:0:0:
319,339,101721,1,8,0:0:0:0:
338,276,102024,1,0,0:0:0:0:
338,276,102175,1,8,0:0:0:0:
292,355,102478,1,10,0:0:0:0:
268,312,102781,1,0,0:0:0:0:
285,326,103084,1,10,0:0:0:0:
350,318,103388,1,0,0:0:0:0:
351,327,103691,1,8,0:0:0:0:
351,328,103842,1,0,0:0:0:0:
351,334,103994,1,0,0:0:0:0:
351,333,104145,1,8,0:0:0:0:
339,328,104448,1,0,0:0:0:0:
339,328,104600,1,8,0:0:0:0:
318,298,104903,1,0,0:0:0:0:
331,301,105206,1,0,0:0:0:0:
334,309,105509,1,8,0:0:0:0:
331,323,105812,1,0,0:0:0:0:
353,337,106115,1,8,0:0:0:0:
353,337,106418,1,8,0:0:0:0:
353,337,106569,1,8,0:0:0:0:
333,273,106721,1,0,0:0:0:0:
286,313,107024,1,8,0:0:0:0:
287,336,107327,1,0,0:0:0:0:
287,336,107478,1,8,0:0:0:0:
353,337,107554,1,8,0:0:0:0:
353,337,107630,1,8,0:0:0:0:
333,323,107781,1,0,0:0:0:0:
333,322,107933,1,8,0:0:0:0:
269,288,108009,1,8,0:0:0:0:
269,288,108084,1,8,0:0:0:0:
269,288,108160,1,8,0:0:0:0:
376,263,108236,1,0,0:0:0:0:
269,288,108388,1,8,0:0:0:0:
256,192,108539,12,0,109448,0:0:0:0:
333,322,109751,5,12,0:0:0:0:
333,322,109903,1,0,0:0:0:0:
333,322,110054,1,0,0:0:0:0:
333,322,110206,1,8,0:0:0:0:
333,322,110357,1,0,0:0:0:0:
333,322,110509,1,0,0:0:0:0:
333,322,110660,1,8,0:0:0:0:
333,322,110812,1,0,0:0:0:0:
333,322,110963,1,8,0:0:0:0:
333,322,111039,1,8,0:0:0:0:
333,322,111115,1,8,0:0:0:0:
333,322,111266,1,0,0:0:0:0:
333,322,111418,1,8,0:0:0:0:
333,322,111569,1,0,0:0:0:0:
333,322,111645,1,0,0:0:0:0:
333,322,111721,1,0,0:0:0:0:
333,322,111872,1,12,0:0:0:0:
333,322,112175,1,8,0:0:0:0:
333,322,112327,1,0,0:0:0:0:
333,322,112478,1,8,0:0:0:0:
333,322,112630,1,8,0:0:0:0:
333,322,112781,1,0,0:0:0:0:
333,322,112933,1,8,0:0:0:0:
333,322,113085,1,8,0:0:0:0:
333,322,113236,1,0,0:0:0:0:
333,322,113388,1,0,0:0:0:0:
333,322,113463,1,8,0:0:0:0:
333,322,113539,1,8,0:0:0:0:
333,322,113691,1,0,0:0:0:0:
333,322,113842,1,8,0:0:0:0:
333,322,113994,1,0,0:0:0:0:
333,322,114069,1,0,0:0:0:0:
333,322,114145,1,0,0:0:0:0:
333,322,114297,1,12,0:0:0:0:
333,322,114600,1,8,0:0:0:0:
333,322,114751,1,0,0:0:0:0:
333,322,114903,1,8,0:0:0:0:
333,322,115054,1,8,0:0:0:0:
333,322,115206,1,0,0:0:0:0:
333,322,115357,1,0,0:0:0:0:
333,322,115509,1,8,0:0:0:0:
333,322,115660,1,0,0:0:0:0:
333,322,115812,1,8,0:0:0:0:
333,322,115888,1,8,0:0:0:0:
333,322,115963,1,0,0:0:0:0:
333,322,116115,1,0,0:0:0:0:
333,322,116266,1,8,0:0:0:0:
333,322,116418,1,0,0:0:0:0:
333,322,116494,1,0,0:0:0:0:
333,322,116569,1,0,0:0:0:0:
333,322,116721,1,12,0:0:0:0:
333,322,117024,1,8,0:0:0:0:
333,322,117175,1,0,0:0:0:0:
333,322,117327,1,8,0:0:0:0:
333,322,117478,1,0,0:0:0:0:
333,322,117630,1,8,0:0:0:0:
333,322,117781,1,8,0:0:0:0:
333,322,117857,1,8,0:0:0:0:
333,322,117933,1,0,0:0:0:0:
333,322,118084,1,8,0:0:0:0:
333,322,118160,1,8,0:0:0:0:
333,322,118236,1,0,0:0:0:0:
333,322,118312,1,0,0:0:0:0:
333,322,118388,1,8,0:0:0:0:
333,322,118539,1,0,0:0:0:0:
333,322,118691,1,8,0:0:0:0:
333,322,118842,1,8,0:0:0:0:
333,322,118994,1,0,0:0:0:0:
333,322,119145,1,12,0:0:0:0:
333,322,119448,1,12,0:0:0:0:
333,322,119600,1,0,0:0:0:0:
333,322,119751,1,0,0:0:0:0:
333,322,119903,1,8,0:0:0:0:
333,322,120054,1,0,0:0:0:0:
333,322,120206,1,0,0:0:0:0:
333,322,120357,1,8,0:0:0:0:
333,322,120509,1,0,0:0:0:0:
333,322,120660,1,8,0:0:0:0:
333,322,120736,1,8,0:0:0:0:
333,322,120812,1,0,0:0:0:0:
333,322,120963,1,0,0:0:0:0:
333,322,121115,1,8,0:0:0:0:
333,322,121266,1,0,0:0:0:0:
333,322,121342,1,0,0:0:0:0:
333,322,121418,1,0,0:0:0:0:
333,322,121569,1,12,0:0:0:0:
333,322,121872,1,8,0:0:0:0:
333,322,122024,1,0,0:0:0:0:
333,322,122175,1,8,0:0:0:0:
333,322,122327,1,8,0:0:0:0:
333,322,122478,1,0,0:0:0:0:
333,322,122630,1,8,0:0:0:0:
333,322,122781,1,8,0:0:0:0:
333,322,122933,1,0,0:0:0:0:
333,322,123085,1,0,0:0:0:0:
333,322,123160,1,8,0:0:0:0:
333,322,123236,1,8,0:0:0:0:
333,322,123388,1,8,0:0:0:0:
333,322,123539,1,0,0:0:0:0:
333,322,123691,1,0,0:0:0:0:
333,322,123766,1,0,0:0:0:0:
333,322,123842,1,0,0:0:0:0:
333,322,123994,1,12,0:0:0:0:
333,322,124297,1,8,0:0:0:0:
333,322,124448,1,0,0:0:0:0:
333,322,124600,1,0,0:0:0:0:
333,322,124751,1,8,0:0:0:0:
333,322,124903,1,8,0:0:0:0:
333,322,125054,1,0,0:0:0:0:
333,322,125206,1,8,0:0:0:0:
333,322,125357,1,0,0:0:0:0:
333,322,125509,1,8,0:0:0:0:
333,322,125585,1,8,0:0:0:0:
333,322,125660,1,0,0:0:0:0:
333,322,125812,1,8,0:0:0:0:
333,322,125963,1,0,0:0:0:0:
333,322,126115,1,0,0:0:0:0:
333,322,126191,1,0,0:0:0:0:
333,322,126266,1,0,0:0:0:0:
333,322,126418,1,12,0:0:0:0:
333,322,126721,1,4,0:0:0:0:
333,322,127024,1,8,0:0:0:0:
333,322,127327,1,4,0:0:0:0:
333,322,127630,1,4,0:0:0:0:
333,322,127933,1,0,0:0:0:0:
333,322,128236,1,4,0:0:0:0:
333,322,128539,1,12,0:0:0:0:
298,251,129448,5,8,0:0:0:0:
333,322,129751,1,0,0:0:0:0:
333,322,129903,1,0,0:0:0:0:
333,322,130054,1,0,0:0:0:0:
333,322,130357,1,8,0:0:0:0:
350,299,130963,1,0,0:0:0:0:
341,286,131569,1,8,0:0:0:0:
347,296,131872,1,8,0:0:0:0:
350,299,132175,1,0,0:0:0:0:
350,299,132327,1,0,0:0:0:0:
341,280,132478,1,0,0:0:0:0:
344,278,132781,1,8,0:0:0:0:
355,273,133388,1,0,0:0:0:0:
350,299,133691,1,0,0:0:0:0:
353,273,133994,1,8,0:0:0:0:
345,244,134297,1,8,0:0:0:0:
338,245,134600,1,0,0:0:0:0:
350,299,134751,1,0,0:0:0:0:
342,245,134903,1,0,0:0:0:0:
350,299,135130,1,0,0:0:0:0:
345,244,135206,1,8,0:0:0:0:
338,253,136418,1,8,0:0:0:0:
350,299,136721,1,0,0:0:0:0:
350,299,136872,1,0,0:0:0:0:
308,263,137024,1,0,0:0:0:0:
308,267,137327,1,0,0:0:0:0:
304,241,137630,1,8,0:0:0:0:
345,259,137933,1,0,0:0:0:0:
344,262,138236,1,8,0:0:0:0:
365,271,138539,1,0,0:0:0:0:
360,257,138691,1,8,0:0:0:0:
261,246,138842,1,0,0:0:0:0:
261,246,139145,1,8,0:0:0:0:
261,246,139297,1,0,0:0:0:0:
275,294,139448,1,8,0:0:0:0:
275,294,139600,1,8,0:0:0:0:
317,313,139903,1,8,0:0:0:0:
308,301,140206,1,0,0:0:0:0:
306,293,140509,1,0,0:0:0:0:
259,268,140660,1,8,0:0:0:0:
350,299,140812,1,0,0:0:0:0:
259,268,140963,1,0,0:0:0:0:
334,268,141266,1,8,0:0:0:0:
276,273,141569,1,8,0:0:0:0:
273,262,141872,1,8,0:0:0:0:
279,242,142024,1,0,0:0:0:0:
278,262,142175,1,8,0:0:0:0:
279,264,142478,1,8,0:0:0:0:
278,239,142781,1,0,0:0:0:0:
231,263,143084,1,8,0:0:0:0:
350,299,143236,1,0,0:0:0:0:
267,277,143691,1,0,0:0:0:0:
230,229,143994,1,12,0:0:0:0:
230,239,144297,1,0,0:0:0:0:
306,260,144600,1,12,0:0:0:0:
293,264,144903,1,0,0:0:0:0:
294,263,145206,1,12,0:0:0:0:
295,261,145509,1,0,0:0:0:0:
302,273,145660,1,0,0:0:0:0:
284,228,145812,1,12,0:0:0:0:
307,280,145963,1,0,0:0:0:0:
284,228,146115,1,12,0:0:0:0:
284,228,146418,1,12,0:0:0:0:
284,228,146721,1,8,0:0:0:0:
267,247,146872,1,0,0:0:0:0:
270,249,147024,1,0,0:0:0:0:
278,250,147175,1,8,0:0:0:0:
289,254,147327,1,0,0:0:0:0:
266,224,147478,1,8,0:0:0:0:
278,249,147630,1,0,0:0:0:0:
290,240,147706,1,0,0:0:0:0:
292,242,147781,1,0,0:0:0:0:
364,277,147933,1,8,0:0:0:0:
364,277,148009,1,8,0:0:0:0:
364,277,148085,1,8,0:0:0:0:
364,277,148160,1,8,0:0:0:0:
346,243,148236,1,0,0:0:0:0:
364,277,148539,1,8,0:0:0:0:
320,273,148994,1,8,0:0:0:0:
256,198,149448,1,8,0:0:0:0:
333,322,149751,1,8,0:0:0:0:
333,322,149903,1,0,0:0:0:0:
333,322,150054,1,0,0:0:0:0:
333,322,150206,1,8,0:0:0:0:
333,322,150357,1,0,0:0:0:0:
333,322,150433,1,0,0:0:0:0:
333,322,150509,1,0,0:0:0:0:
333,322,150660,1,12,0:0:0:0:
333,322,150963,1,8,0:0:0:0:
333,322,151115,1,0,0:0:0:0:
333,322,151266,1,8,0:0:0:0:
333,322,151418,1,8,0:0:0:0:
333,322,151569,1,0,0:0:0:0:
333,322,151721,1,8,0:0:0:0:
333,322,151872,1,8,0:0:0:0:
333,322,152024,1,0,0:0:0:0:
333,322,152175,1,0,0:0:0:0:
333,322,152251,1,8,0:0:0:0:
333,322,152327,1,8,0:0:0:0:
333,322,152403,1,8,0:0:0:0:
333,322,152478,1,0,0:0:0:0:
333,322,152630,1,8,0:0:0:0:
333,322,152781,1,0,0:0:0:0:
333,322,152857,1,0,0:0:0:0:
333,322,152933,1,0,0:0:0:0:
333,322,153085,1,12,0:0:0:0:
333,322,153388,1,8,0:0:0:0:
333,322,153539,1,0,0:0:0:0:
333,322,153691,1,8,0:0:0:0:
333,322,153842,1,8,0:0:0:0:
333,322,153994,1,0,0:0:0:0:
333,322,154145,1,0,0:0:0:0:
333,322,154297,1,8,0:0:0:0:
333,322,154448,1,0,0:0:0:0:
333,322,154600,1,8,0:0:0:0:
333,322,154675,1,8,0:0:0:0:
333,322,154751,1,0,0:0:0:0:
333,322,154827,1,0,0:0:0:0:
333,322,154903,1,8,0:0:0:0:
333,322,155054,1,8,0:0:0:0:
333,322,155206,1,0,0:0:0:0:
333,322,155281,1,0,0:0:0:0:
333,322,155357,1,0,0:0:0:0:
333,322,155509,1,12,0:0:0:0:
333,322,155812,1,8,0:0:0:0:
333,322,155963,1,0,0:0:0:0:
333,322,156115,1,8,0:0:0:0:
333,322,156266,1,0,0:0:0:0:
333,322,156418,1,8,0:0:0:0:
333,322,156569,1,8,0:0:0:0:
333,322,156645,1,8,0:0:0:0:
333,322,156721,1,0,0:0:0:0:
333,322,156872,1,8,0:0:0:0:
333,322,156948,1,8,0:0:0:0:
333,322,157024,1,0,0:0:0:0:
333,322,157100,1,0,0:0:0:0:
333,322,157175,1,8,0:0:0:0:
333,322,157251,1,0,0:0:0:0:
333,322,157327,1,8,0:0:0:0:
333,322,157478,1,8,0:0:0:0:
333,322,157630,1,8,0:0:0:0:
333,322,157781,1,0,0:0:0:0:
333,322,157933,1,12,0:0:0:0:
333,322,158236,1,12,0:0:0:0:
333,322,158388,1,0,0:0:0:0:
333,322,158539,1,0,0:0:0:0:
333,322,158691,1,8,0:0:0:0:
333,322,158842,1,0,0:0:0:0:
333,322,158994,1,0,0:0:0:0:
333,322,159145,1,8,0:0:0:0:
333,322,159297,1,0,0:0:0:0:
333,322,159448,1,8,0:0:0:0:
333,322,159524,1,8,0:0:0:0:
333,322,159600,1,0,0:0:0:0:
333,322,159675,1,0,0:0:0:0:
333,322,159751,1,0,0:0:0:0:
333,322,159903,1,8,0:0:0:0:
333,322,160054,1,0,0:0:0:0:
333,322,160130,1,0,0:0:0:0:
333,322,160206,1,0,0:0:0:0:
333,322,160357,1,12,0:0:0:0:
333,322,160660,1,8,0:0:0:0:
333,322,160812,1,0,0:0:0:0:
333,322,160963,1,8,0:0:0:0:
333,322,161115,1,8,0:0:0:0:
333,322,161266,1,0,0:0:0:0:
333,322,161418,1,8,0:0:0:0:
333,322,161569,1,8,0:0:0:0:
333,322,161721,1,0,0:0:0:0:
333,322,161872,1,0,0:0:0:0:
333,322,161948,1,8,0:0:0:0:
333,322,162024,1,0,0:0:0:0:
333,322,162100,1,0,0:0:0:0:
333,322,162175,1,8,0:0:0:0:
333,322,162327,1,0,0:0:0:0:
333,322,162478,1,0,0:0:0:0:
333,322,162554,1,0,0:0:0:0:
333,322,162630,1,0,0:0:0:0:
333,322,162781,1,12,0:0:0:0:
333,322,163085,1,8,0:0:0:0:
333,322,163236,1,0,0:0:0:0:
333,322,163388,1,0,0:0:0:0:
333,322,163539,1,8,0:0:0:0:
333,322,163691,1,8,0:0:0:0:
333,322,163842,1,0,0:0:0:0:
333,322,163994,1,8,0:0:0:0:
333,322,164145,1,0,0:0:0:0:
333,322,164297,1,8,0:0:0:0:
333,322,164372,1,8,0:0:0:0:
333,322,164448,1,0,0:0:0:0:
333,322,164524,1,0,0:0:0:0:
333,322,164600,1,8,0:0:0:0:
333,322,164751,1,0,0:0:0:0:
333,322,164903,1,0,0:0:0:0:
333,322,164978,1,0,0:0:0:0:
333,322,165054,1,0,0:0:0:0:
333,322,165206,1,12,0:0:0:0:
333,322,165509,1,0,0:0:0:0:
333,322,165812,1,8,0:0:0:0:
333,322,165963,1,8,0:0:0:0:
333,322,166115,1,0,0:0:0:0:
333,322,166191,1,0,0:0:0:0:
333,322,166266,1,0,0:0:0:0:
333,322,166418,1,8,0:0:0:0:
333,322,166721,1,4,0:0:0:0:
333,322,167024,1,0,0:0:0:0:
287,268,167175,5,8,0:0:0:0:
333,322,167327,1,8,0:0:0:0:
270,254,167478,1,0,0:0:0:0:
270,254,167630,1,8,0:0:0:0:
333,322,167933,5,12,0:0:0:0:
333,322,168084,1,0,0:0:0:0:
333,322,168236,1,0,0:0:0:0:
333,322,168388,1,8,0:0:0:0:
333,322,168539,1,0,0:0:0:0:
333,322,168691,1,0,0:0:0:0:
333,322,168842,1,8,0:0:0:0:
333,322,168918,1,8,0:0:0:0:
333,322,168994,1,0,0:0:0:0:
333,322,169145,1,8,0:0:0:0:
333,322,169221,1,8,0:0:0:0:
333,322,169297,1,0,0:0:0:0:
333,322,169372,1,0,0:0:0:0:
333,322,169448,1,0,0:0:0:0:
333,322,169600,1,8,0:0:0:0:
333,322,169751,1,0,0:0:0:0:
333,322,169827,1,0,0:0:0:0:
333,322,169903,1,0,0:0:0:0:
333,322,170054,1,12,0:0:0:0:
333,322,170357,1,8,0:0:0:0:
333,322,170509,1,0,0:0:0:0:
333,322,170660,1,8,0:0:0:0:
333,322,170812,1,8,0:0:0:0:
333,322,170963,1,0,0:0:0:0:
333,322,171115,1,8,0:0:0:0:
333,322,171266,1,8,0:0:0:0:
333,322,171342,1,0,0:0:0:0:
333,322,171418,1,0,0:0:0:0:
333,322,171569,1,0,0:0:0:0:
333,322,171645,1,8,0:0:0:0:
333,322,171721,1,8,0:0:0:0:
333,322,171797,1,8,0:0:0:0:
333,322,171872,1,0,0:0:0:0:
333,322,172024,1,8,0:0:0:0:
333,322,172175,1,0,0:0:0:0:
333,322,172251,1,0,0:0:0:0:
333,322,172327,1,0,0:0:0:0:
333,322,172478,1,12,0:0:0:0:
333,322,172781,1,8,0:0:0:0:
333,322,172933,1,0,0:0:0:0:
333,322,173084,1,8,0:0:0:0:
333,322,173236,1,8,0:0:0:0:
333,322,173388,1,0,0:0:0:0:
333,322,173539,1,0,0:0:0:0:
333,322,173691,1,8,0:0:0:0:
333,322,173766,1,0,0:0:0:0:
333,322,173842,1,0,0:0:0:0:
333,322,173994,1,8,0:0:0:0:
333,322,174069,1,8,0:0:0:0:
333,322,174145,1,0,0:0:0:0:
333,322,174221,1,0,0:0:0:0:
333,322,174297,1,8,0:0:0:0:
333,322,174448,1,8,0:0:0:0:
333,322,174600,1,0,0:0:0:0:
333,322,174675,1,0,0:0:0:0:
333,322,174751,1,0,0:0:0:0:
333,322,174903,1,12,0:0:0:0:
333,322,175206,1,8,0:0:0:0:
333,322,175357,1,0,0:0:0:0:
333,322,175509,1,8,0:0:0:0:
333,322,175660,1,0,0:0:0:0:
333,322,175812,1,8,0:0:0:0:
333,322,175963,1,8,0:0:0:0:
333,322,176039,1,8,0:0:0:0:
333,322,176115,1,0,0:0:0:0:
333,322,176266,1,8,0:0:0:0:
333,322,176342,1,8,0:0:0:0:
333,322,176418,1,0,0:0:0:0:
333,322,176494,1,0,0:0:0:0:
333,322,176569,1,8,0:0:0:0:
333,322,176645,1,0,0:0:0:0:
333,322,176721,1,8,0:0:0:0:
333,322,176872,1,0,0:0:0:0:
333,322,176948,1,0,0:0:0:0:
333,322,177024,1,8,0:0:0:0:
333,322,177175,1,0,0:0:0:0:
333,322,177327,1,12,0:0:0:0:
333,322,177630,1,8,0:0:0:0:
333,322,177781,1,0,0:0:0:0:
333,322,177933,1,0,0:0:0:0:
333,322,178084,1,8,0:0:0:0:
333,322,178236,1,0,0:0:0:0:
333,322,178388,1,0,0:0:0:0:
333,322,178539,1,8,0:0:0:0:
333,322,178615,1,8,0:0:0:0:
333,322,178691,1,0,0:0:0:0:
333,322,178842,1,8,0:0:0:0:
333,322,178918,1,8,0:0:0:0:
333,322,178994,1,0,0:0:0:0:
333,322,179069,1,0,0:0:0:0:
333,322,179145,1,0,0:0:0:0:
333,322,179297,1,8,0:0:0:0:
333,322,179448,1,0,0:0:0:0:
333,322,179524,1,0,0:0:0:0:
333,322,179600,1,0,0:0:0:0:
333,322,179751,1,12,0:0:0:0:
333,322,180054,1,8,0:0:0:0:
333,322,180206,1,0,0:0:0:0:
333,322,180357,1,8,0:0:0:0:
333,322,180509,1,8,0:0:0:0:
333,322,180660,1,0,0:0:0:0:
333,322,180812,1,8,0:0:0:0:
333,322,180963,1,8,0:0:0:0:
333,322,181039,1,0,0:0:0:0:
333,322,181115,1,0,0:0:0:0:
333,322,181266,1,0,0:0:0:0:
333,322,181342,1,8,0:0:0:0:
333,322,181418,1,0,0:0:0:0:
333,322,181494,1,0,0:0:0:0:
333,322,181569,1,8,0:0:0:0:
333,322,181721,1,0,0:0:0:0:
333,322,181872,1,0,0:0:0:0:
333,322,181948,1,0,0:0:0:0:
333,322,182024,1,0,0:0:0:0:
333,322,182175,1,12,0:0:0:0:
333,322,182478,1,8,0:0:0:0:
333,322,182630,1,0,0:0:0:0:
333,322,182781,1,0,0:0:0:0:
333,322,182933,1,8,0:0:0:0:
333,322,183084,1,8,0:0:0:0:
333,322,183236,1,0,0:0:0:0:
333,322,183388,1,8,0:0:0:0:
333,322,183463,1,0,0:0:0:0:
333,322,183539,1,0,0:0:0:0:
333,322,183691,1,8,0:0:0:0:
333,322,183766,1,8,0:0:0:0:
333,322,183842,1,0,0:0:0:0:
333,322,183918,1,0,0:0:0:0:
333,322,183994,1,8,0:0:0:0:
333,322,184145,1,0,0:0:0:0:
333,322,184297,1,0,0:0:0:0:
333,322,184372,1,0,0:0:0:0:
333,322,184448,1,0,0:0:0:0:
333,322,184600,1,12,0:0:0:0:
333,322,184903,1,4,0:0:0:0:
333,322,185206,1,8,0:0:0:0:
333,322,185509,1,4,0:0:0:0:
333,322,185812,1,4,0:0:0:0:
333,322,186115,1,0,0:0:0:0:
333,322,186418,1,4,0:0:0:0:
333,322,186721,1,12,0:0:0:0:
353,216,187327,1,4,0:0:0:0:
313,219,187630,1,0,0:0:0:0:
341,301,187933,1,8,0:0:0:0:
341,301,188084,1,8,0:0:0:0:
289,311,188236,1,0,0:0:0:0:
294,292,188842,1,4,0:0:0:0:
296,293,189145,1,8,0:0:0:0:
315,300,189297,1,0,0:0:0:0:
315,298,189751,1,4,0:0:0:0:
315,295,190054,1,0,0:0:0:0:
315,298,190357,1,8,0:0:0:0:
313,304,190509,1,8,0:0:0:0:
311,307,190660,1,0,0:0:0:0:
302,303,191266,1,4,0:0:0:0:
311,307,191569,1,8,0:0:0:0:
322,280,191721,1,0,0:0:0:0:
316,272,191872,1,8,0:0:0:0:
316,272,192175,1,4,0:0:0:0:
339,274,192478,1,0,0:0:0:0:
343,286,192781,1,8,0:0:0:0:
342,289,192933,1,8,0:0:0:0:
340,298,193084,1,0,0:0:0:0:
361,286,193691,1,4,0:0:0:0:
371,296,193994,1,8,0:0:0:0:
371,298,194145,1,0,0:0:0:0:
327,247,194600,1,0,0:0:0:0:
327,247,194903,1,0,0:0:0:0:
263,242,195206,1,0,0:0:0:0:
271,252,195357,1,8,0:0:0:0:
266,219,195660,1,0,0:0:0:0:
340,298,195812,1,8,0:0:0:0:
340,298,196115,1,8,0:0:0:0:
340,298,196418,1,0,0:0:0:0:
340,298,196569,1,8,0:0:0:0:
