osu file format v14

[General]
AudioFilename: audio.mp3
AudioLeadIn: 0
PreviewTime: 148463
Countdown: 0
SampleSet: Normal
StackLeniency: 0.7
Mode: 1
LetterboxInBreaks: 0
WidescreenStoryboard: 1

[Editor]
Bookmarks: 22463,41857,51554,70948,80645,100039,109736,129130,148524,167918,187312,197009
DistanceSpacing: 1.4
BeatDivisor: 4
GridSize: 32
TimelineZoom: 2.1

[Metadata]
Title:Ring My Bell
TitleUnicode:링마벨
Artist:Girl's Day
ArtistUnicode:걸스데이
Creator:Capu
Version:Ak1o's Muzukashii
Source:
Tags:ak1o [belajar-osu] raphalge 소진 유라 민아 혜리 SoJin Yura MinAh HyeRi 드림티엔터테인먼트 DREAMT ENTERTAINMENT Love Second Album k-pop kpop KBS Music Bank
BeatmapID:1956287
BeatmapSetID:932109

[Difficulty]
HPDrainRate:6
CircleSize:2
OverallDifficulty:5
ApproachRate:10
SliderMultiplier:1.4
SliderTickRate:1

[Events]
//Background and Video events
0,0,"QkJG1W3.jpg",0,90
//Break Periods
//Storyboard Layer 0 (Background)
//Storyboard Layer 1 (Fail)
//Storyboard Layer 2 (Pass)
//Storyboard Layer 3 (Foreground)
//Storyboard Sound Samples

[TimingPoints]
3085,303.030303030303,4,1,0,60,1,0
3085,-100,4,1,0,60,0,0
12781,-100,4,1,0,90,0,0
51569,-100,4,1,0,100,0,1
68539,-100,4,1,0,90,0,0
109751,-100,4,1,0,100,0,1
126721,-100,4,1,0,90,0,0
129448,-100,4,1,0,65,0,0
138842,-100,4,1,0,75,0,0
143691,-100,4,1,0,80,0,0
146115,-100,4,1,0,90,0,0
149751,-100,4,1,0,100,0,1
166721,-100,4,1,0,90,0,0
167933,-100,4,1,0,100,0,1
184903,-100,4,1,0,90,0,0
187327,-100,4,1,0,90,0,0

[HitObjects]
256,192,3085,5,0,0:0:0:0:
256,192,3388,1,8,0:0:0:0:
256,192,3691,1,0,0:0:0:0:
256,192,3994,1,8,0:0:0:0:
256,192,4600,1,8,0:0:0:0:
256,192,5509,1,0,0:0:0:0:
256,192,5812,1,8,0:0:0:0:
256,192,6115,1,0,0:0:0:0:
256,192,6418,1,8,0:0:0:0:
256,192,7024,1,0,0:0:0:0:
256,192,7933,1,8,0:0:0:0:
256,192,8236,1,8,0:0:0:0:
256,192,8539,1,0,0:0:0:0:
256,192,8842,1,8,0:0:0:0:
256,192,9145,1,0,0:0:0:0:
256,192,9448,1,0,0:0:0:0:
256,192,9751,1,8,0:0:0:0:
256,192,10357,1,12,0:0:0:0:
256,192,10660,1,0,0:0:0:0:
256,192,10963,1,8,0:0:0:0:
256,192,11266,1,12,0:0:0:0:
256,192,11569,1,0,0:0:0:0:
256,192,11872,1,4,0:0:0:0:
256,192,12327,1,4,0:0:0:0:
256,192,12781,1,12,0:0:0:0:
256,192,13084,1,8,0:0:0:0:
256,192,13388,1,0,0:0:0:0:
256,192,13539,1,8,0:0:0:0:
256,192,13994,1,0,0:0:0:0:
256,192,14297,1,8,0:0:0:0:
256,192,14600,1,8,0:0:0:0:
256,192,14751,1,0,0:0:0:0:
256,192,15206,1,8,0:0:0:0:
256,192,15509,1,8,0:0:0:0:
256,192,15812,1,0,0:0:0:0:
256,192,15963,1,8,0:0:0:0:
256,192,16418,1,0,0:0:0:0:
256,192,16721,1,8,0:0:0:0:
256,192,17024,1,8,0:0:0:0:
256,192,17175,1,0,0:0:0:0:
256,192,17630,1,8,0:0:0:0:
256,192,17933,1,8,0:0:0:0:
256,192,18236,1,0,0:0:0:0:
256,192,18388,1,8,0:0:0:0:
256,192,18842,1,0,0:0:0:0:
256,192,19145,1,8,0:0:0:0:
256,192,19448,1,8,0:0:0:0:
256,192,19600,1,0,0:0:0:0:
256,192,20054,1,8,0:0:0:0:
256,192,20357,1,8,0:0:0:0:
256,192,20660,1,0,0:0:0:0:
256,192,20812,1,8,0:0:0:0:
256,192,21115,1,0,0:0:0:0:
256,192,21266,1,8,0:0:0:0:
256,192,21569,1,8,0:0:0:0:
256,192,21872,1,0,0:0:0:0:
256,192,22024,1,8,0:0:0:0:
256,192,22478,1,4,0:0:0:0:
256,192,22781,1,8,0:0:0:0:
256,192,23084,1,0,0:0:0:0:
256,192,23236,1,0,0:0:0:0:
256,192,23388,1,8,0:0:0:0:
256,192,23691,1,0,0:0:0:0:
256,192,23994,1,8,0:0:0:0:
256,192,24145,1,0,0:0:0:0:
256,192,24600,1,8,0:0:0:0:
256,192,24903,1,0,0:0:0:0:
256,192,25206,1,8,0:0:0:0:
256,192,25509,1,0,0:0:0:0:
256,192,25660,1,8,0:0:0:0:
256,192,25812,1,0,0:0:0:0:
256,192,26115,1,0,0:0:0:0:
256,192,26418,1,8,0:0:0:0:
256,192,26569,1,0,0:0:0:0:
256,192,27024,1,8,0:0:0:0:
256,192,27327,1,0,0:0:0:0:
256,192,27630,1,0,0:0:0:0:
256,192,27933,1,8,0:0:0:0:
256,192,28236,1,0,0:0:0:0:
256,192,28388,1,0,0:0:0:0:
256,192,28539,1,8,0:0:0:0:
256,192,28842,1,8,0:0:0:0:
256,192,28994,1,0,0:0:0:0:
256,192,29448,1,8,0:0:0:0:
256,192,29751,1,0,0:0:0:0:
256,192,30054,1,0,0:0:0:0:
256,192,30206,1,8,0:0:0:0:
256,192,30357,1,0,0:0:0:0:
256,192,30660,1,8,0:0:0:0:
256,192,30963,1,8,0:0:0:0:
256,192,31115,1,8,0:0:0:0:
256,192,31266,1,0,0:0:0:0:
256,192,31418,1,8,0:0:0:0:
256,192,31872,1,8,0:0:0:0:
256,192,32175,1,0,0:0:0:0:
256,192,32327,1,8,0:0:0:0:
256,192,32478,1,8,0:0:0:0:
256,192,32781,1,0,0:0:0:0:
256,192,32933,1,8,0:0:0:0:
256,192,33085,1,8,0:0:0:0:
256,192,33388,1,0,0:0:0:0:
256,192,33691,1,8,0:0:0:0:
256,192,33842,1,0,0:0:0:0:
256,192,34145,1,0,0:0:0:0:
256,192,34297,1,8,0:0:0:0:
256,192,34600,1,0,0:0:0:0:
256,192,34903,1,8,0:0:0:0:
256,192,35206,1,0,0:0:0:0:
256,192,35357,1,0,0:0:0:0:
256,192,35509,1,8,0:0:0:0:
256,192,35812,1,0,0:0:0:0:
256,192,35963,1,8,0:0:0:0:
256,192,36266,1,0,0:0:0:0:
256,192,36569,1,0,0:0:0:0:
256,192,36721,1,8,0:0:0:0:
256,192,37024,1,0,0:0:0:0:
256,192,37327,1,8,0:0:0:0:
256,192,37630,1,0,0:0:0:0:
256,192,38084,1,0,0:0:0:0:
256,192,38236,1,8,0:0:0:0:
256,192,38539,1,8,0:0:0:0:
256,192,38691,1,0,0:0:0:0:
256,192,39145,1,0,0:0:0:0:
256,192,39448,1,8,0:0:0:0:
256,192,39751,1,8,0:0:0:0:
256,192,39903,1,0,0:0:0:0:
256,192,40054,1,8,0:0:0:0:
256,192,40357,1,8,0:0:0:0:
256,192,40660,1,8,0:0:0:0:
256,192,40812,1,8,0:0:0:0:
256,192,40963,1,0,0:0:0:0:
256,192,41115,1,8,0:0:0:0:
256,192,41266,1,0,0:0:0:0:
256,192,41569,1,8,0:0:0:0:
256,192,41872,1,4,0:0:0:0:
256,192,42175,1,8,0:0:0:0:
256,192,42478,1,8,0:0:0:0:
256,192,42933,1,0,0:0:0:0:
256,192,43084,1,8,0:0:0:0:
256,192,43388,1,8,0:0:0:0:
256,192,43539,1,0,0:0:0:0:
256,192,43842,1,0,0:0:0:0:
256,192,43994,1,8,0:0:0:0:
256,192,44297,1,0,0:0:0:0:
256,192,44600,1,8,0:0:0:0:
256,192,44903,1,8,0:0:0:0:
256,192,45357,1,0,0:0:0:0:
256,192,45509,1,8,0:0:0:0:
256,192,45660,1,0,0:0:0:0:
256,192,45963,1,8,0:0:0:0:
256,192,46115,1,0,0:0:0:0:
256,192,46266,1,0,0:0:0:0:
256,192,46418,1,8,0:0:0:0:
256,192,46721,1,0,0:0:0:0:
256,192,47024,1,0,0:0:0:0:
256,192,47175,1,0,0:0:0:0:
256,192,47327,1,8,0:0:0:0:
256,192,47630,1,8,0:0:0:0:
256,192,47933,1,0,0:0:0:0:
256,192,48236,1,0,0:0:0:0:
256,192,48388,1,0,0:0:0:0:
256,192,48539,1,8,0:0:0:0:
256,192,48842,1,0,0:0:0:0:
256,192,49145,1,8,0:0:0:0:
256,192,49297,1,0,0:0:0:0:
256,192,49600,1,8,0:0:0:0:
256,192,49903,1,0,0:0:0:0:
256,192,50206,1,0,0:0:0:0:
256,192,50357,1,8,0:0:0:0:
256,192,50509,1,0,0:0:0:0:
256,192,50660,1,0,0:0:0:0:
256,192,50812,1,0,0:0:0:0:
256,192,51266,1,12,0:0:0:0:
256,192,51569,1,4,0:0:0:0:
256,192,51872,1,0,0:0:0:0:
256,192,52024,1,8,0:0:0:0:
256,192,52327,1,0,0:0:0:0:
256,192,52478,1,8,0:0:0:0:
256,192,52781,1,8,0:0:0:0:
256,192,52857,1,8,0:0:0:0:
256,192,52933,1,8,0:0:0:0:
256,192,53084,1,0,0:0:0:0:
256,192,53236,1,8,0:0:0:0:
256,192,53539,1,0,0:0:0:0:
256,192,53691,1,8,0:0:0:0:
256,192,53842,1,0,0:0:0:0:
256,192,53994,1,8,0:0:0:0:
256,192,54297,1,0,0:0:0:0:
256,192,54448,1,8,0:0:0:0:
256,192,54751,1,0,0:0:0:0:
256,192,54903,1,8,0:0:0:0:
256,192,55206,1,8,0:0:0:0:
256,192,55281,1,8,0:0:0:0:
256,192,55357,1,8,0:0:0:0:
256,192,55509,1,8,0:0:0:0:
256,192,55660,1,0,0:0:0:0:
256,192,56115,1,8,0:0:0:0:
256,192,56266,1,0,0:0:0:0:
256,192,56418,1,0,0:0:0:0:
256,192,56721,1,8,0:0:0:0:
256,192,56872,1,0,0:0:0:0:
256,192,57175,1,0,0:0:0:0:
256,192,57327,1,8,0:0:0:0:
256,192,57630,1,0,0:0:0:0:
256,192,57706,1,0,0:0:0:0:
256,192,57781,1,0,0:0:0:0:
256,192,57933,1,8,0:0:0:0:
256,192,58084,1,0,0:0:0:0:
256,192,58539,1,8,0:0:0:0:
256,192,58691,1,0,0:0:0:0:
256,192,58842,1,8,0:0:0:0:
256,192,59145,1,0,0:0:0:0:
256,192,59297,1,8,0:0:0:0:
256,192,59600,1,8,0:0:0:0:
256,192,59903,1,8,0:0:0:0:
256,192,59978,1,8,0:0:0:0:
256,192,60054,1,8,0:0:0:0:
256,192,60206,1,8,0:0:0:0:
256,192,60509,1,0,0:0:0:0:
256,192,60812,1,0,0:0:0:0:
256,192,61266,1,12,0:0:0:0:
256,192,61569,1,0,0:0:0:0:
256,192,61721,1,8,0:0:0:0:
256,192,62024,1,0,0:0:0:0:
256,192,62175,1,8,0:0:0:0:
256,192,62478,1,8,0:0:0:0:
256,192,62554,1,8,0:0:0:0:
256,192,62630,1,8,0:0:0:0:
256,192,62781,1,0,0:0:0:0:
256,192,62933,1,8,0:0:0:0:
256,192,63236,1,0,0:0:0:0:
256,192,63388,1,8,0:0:0:0:
256,192,63539,1,0,0:0:0:0:
256,192,63691,1,8,0:0:0:0:
256,192,63994,1,8,0:0:0:0:
256,192,64145,1,0,0:0:0:0:
256,192,64448,1,0,0:0:0:0:
256,192,64600,1,8,0:0:0:0:
256,192,64903,1,8,0:0:0:0:
256,192,64978,1,8,0:0:0:0:
256,192,65054,1,8,0:0:0:0:
256,192,65206,1,8,0:0:0:0:
256,192,65357,1,0,0:0:0:0:
256,192,65812,1,8,0:0:0:0:
256,192,65963,1,0,0:0:0:0:
256,192,66115,1,0,0:0:0:0:
256,192,66418,1,8,0:0:0:0:
256,192,66569,1,0,0:0:0:0:
256,192,66872,1,0,0:0:0:0:
256,192,67024,1,8,0:0:0:0:
256,192,67327,1,0,0:0:0:0:
256,192,67403,1,0,0:0:0:0:
256,192,67478,1,0,0:0:0:0:
256,192,67630,1,8,0:0:0:0:
256,192,67781,1,0,0:0:0:0:
256,192,68085,1,0,0:0:0:0:
256,192,68236,1,8,0:0:0:0:
256,192,68539,1,12,0:0:0:0:
256,192,68842,1,0,0:0:0:0:
256,192,69145,1,8,0:0:0:0:
256,192,69448,1,4,0:0:0:0:
256,192,70054,1,12,0:0:0:0:
256,192,70357,1,4,0:0:0:0:
256,192,70963,1,12,0:0:0:0:
256,192,71266,1,8,0:0:0:0:
256,192,71569,1,0,0:0:0:0:
256,192,71721,1,8,0:0:0:0:
256,192,72175,1,0,0:0:0:0:
256,192,72478,1,8,0:0:0:0:
256,192,72781,1,8,0:0:0:0:
256,192,72933,1,0,0:0:0:0:
256,192,73388,1,8,0:0:0:0:
256,192,73691,1,8,0:0:0:0:
256,192,73994,1,0,0:0:0:0:
256,192,74145,1,8,0:0:0:0:
256,192,74600,1,0,0:0:0:0:
256,192,74903,1,8,0:0:0:0:
256,192,75206,1,8,0:0:0:0:
256,192,75357,1,0,0:0:0:0:
256,192,75812,1,8,0:0:0:0:
256,192,76115,1,8,0:0:0:0:
256,192,76418,1,0,0:0:0:0:
256,192,76569,1,8,0:0:0:0:
256,192,77024,1,0,0:0:0:0:
256,192,77327,1,8,0:0:0:0:
256,192,77630,1,8,0:0:0:0:
256,192,77781,1,0,0:0:0:0:
256,192,78236,1,8,0:0:0:0:
256,192,78539,1,8,0:0:0:0:
256,192,78842,1,0,0:0:0:0:
256,192,78994,1,8,0:0:0:0:
256,192,79297,1,0,0:0:0:0:
256,192,79448,1,8,0:0:0:0:
256,192,79751,1,8,0:0:0:0:
256,192,80054,1,0,0:0:0:0:
256,192,80206,1,8,0:0:0:0:
256,192,80660,1,4,0:0:0:0:
256,192,80963,1,8,0:0:0:0:
256,192,81266,1,0,0:0:0:0:
256,192,81418,1,0,0:0:0:0:
256,192,81569,1,8,0:0:0:0:
256,192,81872,1,0,0:0:0:0:
256,192,82175,1,8,0:0:0:0:
256,192,82327,1,0,0:0:0:0:
256,192,82781,1,8,0:0:0:0:
256,192,83084,1,0,0:0:0:0:
256,192,83388,1,8,0:0:0:0:
256,192,83691,1,0,0:0:0:0:
256,192,83842,1,8,0:0:0:0:
256,192,83994,1,0,0:0:0:0:
256,192,84297,1,0,0:0:0:0:
256,192,84600,1,8,0:0:0:0:
256,192,84751,1,0,0:0:0:0:
256,192,85206,1,8,0:0:0:0:
256,192,85509,1,0,0:0:0:0:
256,192,85812,1,0,0:0:0:0:
256,192,86115,1,8,0:0:0:0:
256,192,86418,1,0,0:0:0:0:
256,192,86569,1,0,0:0:0:0:
256,192,86721,1,8,0:0:0:0:
256,192,87024,1,0,0:0:0:0:
256,192,87175,1,8,0:0:0:0:
256,192,87478,1,8,0:0:0:0:
256,192,87630,1,0,0:0:0:0:
256,192,87933,1,8,0:0:0:0:
256,192,88236,1,0,0:0:0:0:
256,192,88388,1,8,0:0:0:0:
256,192,88539,1,0,0:0:0:0:
256,192,88842,1,8,0:0:0:0:
256,192,89145,1,8,0:0:0:0:
256,192,89297,1,8,0:0:0:0:
256,192,89448,1,0,0:0:0:0:
256,192,89600,1,8,0:0:0:0:
256,192,90054,1,8,0:0:0:0:
256,192,90357,1,0,0:0:0:0:
256,192,90509,1,8,0:0:0:0:
256,192,90660,1,8,0:0:0:0:
256,192,90963,1,0,0:0:0:0:
256,192,91115,1,8,0:0:0:0:
256,192,91266,1,8,0:0:0:0:
256,192,91569,1,0,0:0:0:0:
256,192,91872,1,8,0:0:0:0:
256,192,92024,1,0,0:0:0:0:
256,192,92327,1,0,0:0:0:0:
256,192,92478,1,8,0:0:0:0:
256,192,92781,1,0,0:0:0:0:
256,192,93084,1,8,0:0:0:0:
256,192,93388,1,0,0:0:0:0:
256,192,93539,1,8,0:0:0:0:
256,192,93691,1,0,0:0:0:0:
256,192,93994,1,8,0:0:0:0:
256,192,94145,1,8,0:0:0:0:
256,192,94448,1,0,0:0:0:0:
256,192,94751,1,0,0:0:0:0:
256,192,94903,1,8,0:0:0:0:
256,192,95206,1,0,0:0:0:0:
256,192,95509,1,8,0:0:0:0:
256,192,95812,1,0,0:0:0:0:
256,192,96266,1,0,0:0:0:0:
256,192,96418,1,8,0:0:0:0:
256,192,96721,1,8,0:0:0:0:
256,192,96872,1,0,0:0:0:0:
256,192,97327,1,0,0:0:0:0:
256,192,97630,1,8,0:0:0:0:
256,192,97933,1,8,0:0:0:0:
256,192,98084,1,0,0:0:0:0:
256,192,98236,1,8,0:0:0:0:
256,192,98539,1,8,0:0:0:0:
256,192,98842,1,8,0:0:0:0:
256,192,98994,1,8,0:0:0:0:
256,192,99145,1,0,0:0:0:0:
256,192,99297,1,8,0:0:0:0:
256,192,99448,1,8,0:0:0:0:
256,192,99751,1,8,0:0:0:0:
256,192,100054,1,4,0:0:0:0:
256,192,100357,1,8,0:0:0:0:
256,192,100660,1,8,0:0:0:0:
256,192,101115,1,0,0:0:0:0:
256,192,101266,1,8,0:0:0:0:
256,192,101569,1,8,0:0:0:0:
256,192,101721,1,0,0:0:0:0:
256,192,102024,1,0,0:0:0:0:
256,192,102175,1,8,0:0:0:0:
256,192,102478,1,0,0:0:0:0:
256,192,102781,1,8,0:0:0:0:
256,192,103084,1,8,0:0:0:0:
256,192,103539,1,0,0:0:0:0:
256,192,103691,1,8,0:0:0:0:
256,192,103842,1,0,0:0:0:0:
256,192,104145,1,8,0:0:0:0:
256,192,104297,1,0,0:0:0:0:
256,192,104448,1,0,0:0:0:0:
256,192,104600,1,8,0:0:0:0:
256,192,104903,1,0,0:0:0:0:
256,192,105206,1,0,0:0:0:0:
256,192,105357,1,0,0:0:0:0:
256,192,105509,1,8,0:0:0:0:
256,192,105812,1,8,0:0:0:0:
256,192,106115,1,0,0:0:0:0:
256,192,106418,1,0,0:0:0:0:
256,192,106569,1,0,0:0:0:0:
256,192,106721,1,8,0:0:0:0:
256,192,107024,1,0,0:0:0:0:
256,192,107327,1,8,0:0:0:0:
256,192,107478,1,0,0:0:0:0:
256,192,107781,1,8,0:0:0:0:
256,192,108084,1,0,0:0:0:0:
256,192,108388,1,0,0:0:0:0:
256,192,108539,1,8,0:0:0:0:
256,192,108691,1,0,0:0:0:0:
256,192,108842,1,0,0:0:0:0:
256,192,108994,1,0,0:0:0:0:
256,192,109448,1,12,0:0:0:0:
256,192,109751,1,4,0:0:0:0:
256,192,110054,1,0,0:0:0:0:
256,192,110206,1,8,0:0:0:0:
256,192,110509,1,0,0:0:0:0:
256,192,110660,1,8,0:0:0:0:
256,192,110812,1,0,0:0:0:0:
256,192,110963,1,8,0:0:0:0:
256,192,111039,1,8,0:0:0:0:
256,192,111115,1,8,0:0:0:0:
256,192,111266,1,0,0:0:0:0:
256,192,111418,1,8,0:0:0:0:
256,192,111721,1,0,0:0:0:0:
256,192,111872,1,8,0:0:0:0:
256,192,112024,1,0,0:0:0:0:
256,192,112175,1,8,0:0:0:0:
256,192,112478,1,0,0:0:0:0:
256,192,112630,1,8,0:0:0:0:
256,192,112933,1,0,0:0:0:0:
256,192,113084,1,8,0:0:0:0:
256,192,113236,1,0,0:0:0:0:
256,192,113388,1,8,0:0:0:0:
256,192,113463,1,8,0:0:0:0:
256,192,113539,1,8,0:0:0:0:
256,192,113691,1,8,0:0:0:0:
256,192,113842,1,0,0:0:0:0:
256,192,114297,1,8,0:0:0:0:
256,192,114448,1,0,0:0:0:0:
256,192,114600,1,0,0:0:0:0:
256,192,114903,1,8,0:0:0:0:
256,192,115054,1,0,0:0:0:0:
256,192,115357,1,0,0:0:0:0:
256,192,115509,1,8,0:0:0:0:
256,192,115812,1,0,0:0:0:0:
256,192,115888,1,0,0:0:0:0:
256,192,115963,1,0,0:0:0:0:
256,192,116115,1,8,0:0:0:0:
256,192,116266,1,0,0:0:0:0:
256,192,116721,1,8,0:0:0:0:
256,192,116872,1,0,0:0:0:0:
256,192,117024,1,8,0:0:0:0:
256,192,117327,1,0,0:0:0:0:
256,192,117478,1,8,0:0:0:0:
256,192,117781,1,8,0:0:0:0:
256,192,117933,1,0,0:0:0:0:
256,192,118084,1,8,0:0:0:0:
256,192,118160,1,8,0:0:0:0:
256,192,118236,1,8,0:0:0:0:
256,192,118388,1,8,0:0:0:0:
256,192,118691,1,0,0:0:0:0:
256,192,118994,1,0,0:0:0:0:
256,192,119448,1,12,0:0:0:0:
256,192,119751,1,0,0:0:0:0:
256,192,119903,1,8,0:0:0:0:
256,192,120206,1,0,0:0:0:0:
256,192,120357,1,8,0:0:0:0:
256,192,120509,1,0,0:0:0:0:
256,192,120660,1,8,0:0:0:0:
256,192,120736,1,8,0:0:0:0:
256,192,120812,1,8,0:0:0:0:
256,192,120963,1,0,0:0:0:0:
256,192,121115,1,8,0:0:0:0:
256,192,121418,1,0,0:0:0:0:
256,192,121569,1,8,0:0:0:0:
256,192,121721,1,0,0:0:0:0:
256,192,121872,1,8,0:0:0:0:
256,192,122175,1,8,0:0:0:0:
256,192,122327,1,0,0:0:0:0:
256,192,122630,1,0,0:0:0:0:
256,192,122781,1,8,0:0:0:0:
256,192,122933,1,0,0:0:0:0:
256,192,123084,1,8,0:0:0:0:
256,192,123160,1,8,0:0:0:0:
256,192,123236,1,8,0:0:0:0:
256,192,123388,1,8,0:0:0:0:
256,192,123539,1,0,0:0:0:0:
256,192,123994,1,8,0:0:0:0:
256,192,124145,1,0,0:0:0:0:
256,192,124297,1,0,0:0:0:0:
256,192,124600,1,8,0:0:0:0:
256,192,124751,1,0,0:0:0:0:
256,192,125054,1,0,0:0:0:0:
256,192,125206,1,8,0:0:0:0:
256,192,125509,1,0,0:0:0:0:
256,192,125584,1,0,0:0:0:0:
256,192,125660,1,0,0:0:0:0:
256,192,125812,1,8,0:0:0:0:
256,192,125963,1,0,0:0:0:0:
256,192,126266,1,0,0:0:0:0:
256,192,126418,1,8,0:0:0:0:
256,192,126721,1,12,0:0:0:0:
256,192,127024,1,0,0:0:0:0:
256,192,127327,1,8,0:0:0:0:
256,192,127630,1,4,0:0:0:0:
256,192,128236,1,12,0:0:0:0:
256,192,128539,1,4,0:0:0:0:
256,192,129145,1,0,0:0:0:0:
256,192,129448,1,0,0:0:0:0:
256,192,129751,1,8,0:0:0:0:
256,192,130054,1,0,0:0:0:0:
256,192,130963,1,0,0:0:0:0:
256,192,131569,1,0,0:0:0:0:
256,192,131872,1,0,0:0:0:0:
256,192,132175,1,8,0:0:0:0:
256,192,132478,1,8,0:0:0:0:
256,192,133388,1,8,0:0:0:0:
256,192,133994,1,0,0:0:0:0:
256,192,134297,1,0,0:0:0:0:
256,192,134600,1,8,0:0:0:0:
256,192,134903,1,0,0:0:0:0:
256,192,135812,1,0,0:0:0:0:
256,192,136418,1,0,0:0:0:0:
256,192,136721,1,0,0:0:0:0:
256,192,137024,1,8,0:0:0:0:
256,192,137327,1,8,0:0:0:0:
256,192,137630,1,0,0:0:0:0:
256,192,138236,1,8,0:0:0:0:
256,192,138842,1,0,0:0:0:0:
256,192,139145,1,0,0:0:0:0:
256,192,139448,1,8,0:0:0:0:
256,192,139600,1,0,0:0:0:0:
256,192,139903,1,0,0:0:0:0:
256,192,140054,1,8,0:0:0:0:
256,192,140206,1,8,0:0:0:0:
256,192,140357,1,0,0:0:0:0:
256,192,140660,1,8,0:0:0:0:
256,192,140963,1,8,0:0:0:0:
256,192,141266,1,0,0:0:0:0:
256,192,141569,1,0,0:0:0:0:
256,192,141872,1,8,0:0:0:0:
256,192,142175,1,0,0:0:0:0:
256,192,142327,1,0,0:0:0:0:
256,192,142478,1,8,0:0:0:0:
256,192,142630,1,0,0:0:0:0:
256,192,142781,1,8,0:0:0:0:
256,192,143084,1,0,0:0:0:0:
256,192,143236,1,8,0:0:0:0:
256,192,143691,1,0,0:0:0:0:
256,192,143994,1,8,0:0:0:0:
256,192,144297,1,8,0:0:0:0:
256,192,144448,1,0,0:0:0:0:
256,192,144600,1,0,0:0:0:0:
256,192,144751,1,8,0:0:0:0:
256,192,145054,1,0,0:0:0:0:
256,192,145357,1,8,0:0:0:0:
256,192,145660,1,8,0:0:0:0:
256,192,145812,1,0,0:0:0:0:
256,192,146115,1,12,0:0:0:0:
256,192,146418,1,8,0:0:0:0:
256,192,146721,1,8,0:0:0:0:
256,192,146872,1,8,0:0:0:0:
256,192,147024,1,0,0:0:0:0:
256,192,147175,1,8,0:0:0:0:
256,192,147251,1,8,0:0:0:0:
256,192,147327,1,8,0:0:0:0:
256,192,147478,1,0,0:0:0:0:
256,192,147630,1,8,0:0:0:0:
256,192,147933,1,0,0:0:0:0:
256,192,148009,1,0,0:0:0:0:
256,192,148084,1,0,0:0:0:0:
256,192,148236,1,0,0:0:0:0:
256,192,148539,1,8,0:0:0:0:
256,192,148994,1,8,0:0:0:0:
256,192,149448,1,8,0:0:0:0:
256,192,149751,1,12,0:0:0:0:
256,192,150054,1,0,0:0:0:0:
256,192,150206,1,8,0:0:0:0:
256,192,150509,1,0,0:0:0:0:
256,192,150660,1,8,0:0:0:0:
256,192,150812,1,0,0:0:0:0:
256,192,150963,1,8,0:0:0:0:
256,192,151266,1,0,0:0:0:0:
256,192,151418,1,8,0:0:0:0:
256,192,151721,1,0,0:0:0:0:
256,192,151872,1,8,0:0:0:0:
256,192,152024,1,0,0:0:0:0:
256,192,152175,1,8,0:0:0:0:
256,192,152251,1,8,0:0:0:0:
256,192,152327,1,8,0:0:0:0:
256,192,152478,1,8,0:0:0:0:
256,192,152630,1,0,0:0:0:0:
256,192,153084,1,8,0:0:0:0:
256,192,153236,1,0,0:0:0:0:
256,192,153388,1,0,0:0:0:0:
256,192,153691,1,8,0:0:0:0:
256,192,153842,1,0,0:0:0:0:
256,192,154145,1,0,0:0:0:0:
256,192,154297,1,8,0:0:0:0:
256,192,154600,1,0,0:0:0:0:
256,192,154675,1,0,0:0:0:0:
256,192,154751,1,0,0:0:0:0:
256,192,154903,1,8,0:0:0:0:
256,192,155054,1,0,0:0:0:0:
256,192,155509,1,8,0:0:0:0:
256,192,155660,1,0,0:0:0:0:
256,192,155812,1,8,0:0:0:0:
256,192,155963,1,0,0:0:0:0:
256,192,156039,1,0,0:0:0:0:
256,192,156115,1,0,0:0:0:0:
256,192,156266,1,8,0:0:0:0:
256,192,156569,1,8,0:0:0:0:
256,192,156721,1,0,0:0:0:0:
256,192,156872,1,8,0:0:0:0:
256,192,156948,1,8,0:0:0:0:
256,192,157024,1,8,0:0:0:0:
256,192,157175,1,8,0:0:0:0:
256,192,157478,1,0,0:0:0:0:
256,192,157781,1,0,0:0:0:0:
256,192,158236,1,12,0:0:0:0:
256,192,158539,1,0,0:0:0:0:
256,192,158691,1,8,0:0:0:0:
256,192,158994,1,0,0:0:0:0:
256,192,159145,1,8,0:0:0:0:
256,192,159297,1,0,0:0:0:0:
256,192,159448,1,8,0:0:0:0:
256,192,159524,1,8,0:0:0:0:
256,192,159600,1,8,0:0:0:0:
256,192,159751,1,0,0:0:0:0:
256,192,159903,1,8,0:0:0:0:
256,192,160206,1,0,0:0:0:0:
256,192,160357,1,8,0:0:0:0:
256,192,160509,1,0,0:0:0:0:
256,192,160660,1,8,0:0:0:0:
256,192,160963,1,8,0:0:0:0:
256,192,161115,1,0,0:0:0:0:
256,192,161418,1,0,0:0:0:0:
256,192,161569,1,8,0:0:0:0:
256,192,161721,1,0,0:0:0:0:
256,192,161872,1,8,0:0:0:0:
256,192,161948,1,8,0:0:0:0:
256,192,162024,1,8,0:0:0:0:
256,192,162175,1,8,0:0:0:0:
256,192,162327,1,0,0:0:0:0:
256,192,162781,1,8,0:0:0:0:
256,192,162933,1,0,0:0:0:0:
256,192,163084,1,0,0:0:0:0:
256,192,163388,1,8,0:0:0:0:
256,192,163539,1,0,0:0:0:0:
256,192,163842,1,0,0:0:0:0:
256,192,163994,1,8,0:0:0:0:
256,192,164297,1,0,0:0:0:0:
256,192,164372,1,0,0:0:0:0:
256,192,164448,1,0,0:0:0:0:
256,192,164600,1,8,0:0:0:0:
256,192,164751,1,0,0:0:0:0:
256,192,165054,1,0,0:0:0:0:
256,192,165206,1,8,0:0:0:0:
256,192,165509,1,8,0:0:0:0:
256,192,165812,1,8,0:0:0:0:
256,192,165963,1,0,0:0:0:0:
256,192,166115,1,0,0:0:0:0:
256,192,166418,1,8,0:0:0:0:
256,192,166721,1,0,0:0:0:0:
256,192,166872,1,0,0:0:0:0:
256,192,167024,1,8,0:0:0:0:
256,192,167175,1,0,0:0:0:0:
256,192,167630,1,12,0:0:0:0:
256,192,167933,1,4,0:0:0:0:
256,192,168236,1,0,0:0:0:0:
256,192,168388,1,8,0:0:0:0:
256,192,168691,1,0,0:0:0:0:
256,192,168842,1,8,0:0:0:0:
256,192,168994,1,0,0:0:0:0:
256,192,169145,1,8,0:0:0:0:
256,192,169221,1,8,0:0:0:0:
256,192,169297,1,8,0:0:0:0:
256,192,169448,1,0,0:0:0:0:
256,192,169600,1,8,0:0:0:0:
256,192,169903,1,0,0:0:0:0:
256,192,170054,1,8,0:0:0:0:
256,192,170206,1,0,0:0:0:0:
256,192,170357,1,8,0:0:0:0:
256,192,170660,1,0,0:0:0:0:
256,192,170812,1,8,0:0:0:0:
256,192,171115,1,0,0:0:0:0:
256,192,171266,1,8,0:0:0:0:
256,192,171418,1,0,0:0:0:0:
256,192,171569,1,8,0:0:0:0:
256,192,171645,1,8,0:0:0:0:
256,192,171721,1,8,0:0:0:0:
256,192,171872,1,8,0:0:0:0:
256,192,172024,1,0,0:0:0:0:
256,192,172478,1,8,0:0:0:0:
256,192,172630,1,0,0:0:0:0:
256,192,172781,1,8,0:0:0:0:
256,192,173084,1,8,0:0:0:0:
256,192,173236,1,0,0:0:0:0:
256,192,173539,1,0,0:0:0:0:
256,192,173691,1,8,0:0:0:0:
256,192,173994,1,0,0:0:0:0:
256,192,174069,1,0,0:0:0:0:
256,192,174145,1,0,0:0:0:0:
256,192,174297,1,8,0:0:0:0:
256,192,174448,1,0,0:0:0:0:
256,192,174903,1,8,0:0:0:0:
256,192,175054,1,0,0:0:0:0:
256,192,175206,1,8,0:0:0:0:
256,192,175357,1,0,0:0:0:0:
256,192,175433,1,0,0:0:0:0:
256,192,175509,1,0,0:0:0:0:
256,192,175660,1,8,0:0:0:0:
256,192,175963,1,8,0:0:0:0:
256,192,176115,1,0,0:0:0:0:
256,192,176266,1,8,0:0:0:0:
256,192,176342,1,8,0:0:0:0:
256,192,176418,1,8,0:0:0:0:
256,192,176569,1,8,0:0:0:0:
256,192,176872,1,0,0:0:0:0:
256,192,177175,1,0,0:0:0:0:
256,192,177630,1,12,0:0:0:0:
256,192,177933,1,0,0:0:0:0:
256,192,178084,1,8,0:0:0:0:
256,192,178388,1,0,0:0:0:0:
256,192,178539,1,8,0:0:0:0:
256,192,178691,1,0,0:0:0:0:
256,192,178842,1,8,0:0:0:0:
256,192,178918,1,8,0:0:0:0:
256,192,178994,1,8,0:0:0:0:
256,192,179145,1,0,0:0:0:0:
256,192,179297,1,8,0:0:0:0:
256,192,179600,1,0,0:0:0:0:
256,192,179751,1,8,0:0:0:0:
256,192,179903,1,0,0:0:0:0:
256,192,180054,1,8,0:0:0:0:
256,192,180357,1,8,0:0:0:0:
256,192,180509,1,0,0:0:0:0:
256,192,180812,1,0,0:0:0:0:
256,192,180963,1,8,0:0:0:0:
256,192,181115,1,0,0:0:0:0:
256,192,181266,1,8,0:0:0:0:
256,192,181342,1,8,0:0:0:0:
256,192,181418,1,8,0:0:0:0:
256,192,181569,1,8,0:0:0:0:
256,192,181721,1,0,0:0:0:0:
256,192,182175,1,8,0:0:0:0:
256,192,182327,1,0,0:0:0:0:
256,192,182478,1,8,0:0:0:0:
256,192,182781,1,8,0:0:0:0:
256,192,182933,1,0,0:0:0:0:
256,192,183236,1,0,0:0:0:0:
256,192,183388,1,8,0:0:0:0:
256,192,183691,1,0,0:0:0:0:
256,192,183766,1,0,0:0:0:0:
256,192,183842,1,0,0:0:0:0:
256,192,183994,1,8,0:0:0:0:
256,192,184145,1,0,0:0:0:0:
256,192,184448,1,0,0:0:0:0:
256,192,184600,1,8,0:0:0:0:
256,192,184903,1,12,0:0:0:0:
256,192,185206,1,0,0:0:0:0:
256,192,185509,1,8,0:0:0:0:
256,192,185812,1,4,0:0:0:0:
256,192,186418,1,12,0:0:0:0:
256,192,186721,1,4,0:0:0:0:
256,192,187327,1,12,0:0:0:0:
256,192,187630,1,8,0:0:0:0:
256,192,187933,1,0,0:0:0:0:
256,192,188084,1,8,0:0:0:0:
256,192,188539,1,0,0:0:0:0:
256,192,188842,1,8,0:0:0:0:
256,192,189145,1,8,0:0:0:0:
256,192,189297,1,0,0:0:0:0:
256,192,189751,1,8,0:0:0:0:
256,192,190054,1,8,0:0:0:0:
256,192,190357,1,0,0:0:0:0:
256,192,190509,1,8,0:0:0:0:
256,192,190963,1,0,0:0:0:0:
256,192,191266,1,8,0:0:0:0:
256,192,191569,1,8,0:0:0:0:
256,192,191721,1,0,0:0:0:0:
256,192,192175,1,8,0:0:0:0:
256,192,192478,1,8,0:0:0:0:
256,192,192781,1,0,0:0:0:0:
256,192,192933,1,8,0:0:0:0:
256,192,193388,1,0,0:0:0:0:
256,192,193691,1,8,0:0:0:0:
256,192,193994,1,8,0:0:0:0:
256,192,194145,1,0,0:0:0:0:
256,192,194600,1,8,0:0:0:0:
256,192,194903,1,8,0:0:0:0:
256,192,195206,1,0,0:0:0:0:
256,192,195357,1,8,0:0:0:0:
256,192,195660,1,0,0:0:0:0:
256,192,195812,1,8,0:0:0:0:
256,192,196115,1,8,0:0:0:0:
256,192,196418,1,0,0:0:0:0:
256,192,196569,1,8,0:0:0:0:
