osu file format v14

[General]
AudioFilename: audio.mp3
AudioLeadIn: 0
PreviewTime: 185945
Countdown: 0
SampleSet: Soft
StackLeniency: 0.4
Mode: 0
LetterboxInBreaks: 0
WidescreenStoryboard: 1

[Editor]
Bookmarks: 33133,48133,108133
DistanceSpacing: 1.2
BeatDivisor: 2
GridSize: 32
TimelineZoom: 0.4999999

[Metadata]
Title:Look at me
TitleUnicode:Look at me
Artist:Girl's Day
ArtistUnicode:걸스데이
Creator:Nabori
Version:Yiyo's Easy
Source:
Tags:syph [im nayeon] kpop k-pop pop love dreamt entertainment ent girls 소진 유라 민아 혜리 sojin minah yura hyeri korean girls iyiyo yiyo
BeatmapID:3645420
BeatmapSetID:1749429

[Difficulty]
HPDrainRate:2
CircleSize:2.4
OverallDifficulty:3
ApproachRate:3.5
SliderMultiplier:1.4
SliderTickRate:1

[Events]
//Background and Video events
0,0,"bg.jpg",0,0
//Break Periods
2,93333,94253
2,173054,181726
//Storyboard Layer 0 (Background)
//Storyboard Layer 1 (Fail)
//Storyboard Layer 2 (Pass)
//Storyboard Layer 3 (Foreground)
//Storyboard Layer 4 (Overlay)
//Storyboard Sound Samples

[TimingPoints]
3148,625,3,2,85,60,1,0
3460,-100,4,2,86,60,0,0
4085,-100,4,2,85,60,0,0
4398,-100,4,2,86,60,0,0
5023,-100,4,2,85,60,0,0
5335,-100,4,2,86,60,0,0
5960,-100,4,2,85,60,0,0
6273,-100,4,2,86,60,0,0
6898,-100,4,2,87,60,0,0
7210,-100,4,2,88,60,0,0
7835,-100,4,2,87,60,0,0
8148,-100,4,2,88,60,0,0
8773,-100,4,2,89,60,0,0
9085,-100,4,2,86,60,0,0
9710,-100,4,2,89,60,0,0
10023,-100,4,2,86,60,0,0
16273,-100,4,2,97,60,0,0
18133,625,3,2,1,65,1,0
33133,-100,4,2,1,70,0,0
62195,-100,4,2,2,75,0,0
63133,-100,4,2,2,85,0,1
68758,-100,4,2,8,85,0,1
69695,-100,4,2,2,85,0,1
77195,-100,4,2,2,85,0,0
78133,-100,4,2,2,85,0,1
80008,-100,4,2,3,85,0,1
80945,-100,4,2,2,85,0,1
81883,-100,4,2,4,85,0,1
85008,-100,4,2,2,85,0,1
93133,-100,4,2,1,70,0,0
95633,-100,4,2,1,75,0,0
122195,-100,4,2,2,85,0,0
123133,-100,4,2,2,85,0,1
128758,-100,4,2,8,85,0,1
129695,-100,4,2,2,85,0,1
137195,-100,4,2,2,85,0,0
138133,-100,4,2,2,85,0,1
140008,-100,4,2,3,85,0,1
140945,-100,4,2,2,85,0,1
141883,-100,4,2,4,85,0,1
145008,-100,4,2,2,85,0,1
151258,-100,4,2,2,85,0,0
153133,-100,4,2,6,80,0,1
153758,-100,4,2,6,80,0,0
154070,-100,4,2,2,80,0,0
171883,-100,4,2,2,5,0,0
183133,-100,4,2,10,75,0,0
184383,-100,4,2,15,75,0,0
184695,-100,4,2,16,75,0,0
185007,-100,4,2,17,80,0,0
185945,-100,4,2,11,80,0,0
186258,-100,4,2,12,80,0,0
186570,-100,4,2,13,80,0,0
186883,-100,4,2,14,90,0,1
187195,-100,4,2,2,90,0,1
187820,-100,4,2,18,90,0,1
188133,-100,4,2,19,90,0,1
188445,-100,4,2,20,90,0,1
188758,-100,4,2,21,90,0,1
189695,-100,4,2,22,90,0,1
190007,-100,4,2,23,90,0,1
190320,-100,4,2,24,90,0,1
190945,-100,4,2,25,90,0,1
191258,-100,4,2,26,90,0,1
191570,-100,4,2,27,90,0,1
191883,-100,4,2,28,90,0,1
192195,-100,4,2,29,90,0,1
192508,-100,4,2,30,90,0,1
193445,-100,4,2,31,90,0,1
193758,-100,4,2,32,90,0,1
194070,-100,4,2,33,90,0,1
194695,-100,4,2,34,90,0,1
195008,-100,4,2,35,90,0,1
195320,-100,4,2,37,90,0,1
195632,-100,4,2,38,90,0,1
196258,-100,4,2,39,90,0,1
196570,-100,4,2,35,90,0,1
196726,-100,4,2,36,90,0,1
196883,-100,4,2,40,90,0,1
197195,-100,4,2,41,90,0,1
197507,-100,4,2,38,90,0,1
198133,-100,4,2,42,90,0,1
198445,-100,4,2,43,90,0,1
198758,-100,4,2,44,90,0,1
199070,-100,4,2,45,90,0,1
199382,-100,4,2,46,90,0,1
199695,-100,4,2,47,90,0,1
200008,-100,4,2,48,90,0,1
200945,-100,4,2,49,90,0,0
201258,-100,4,2,50,90,0,0
201570,-100,4,2,51,90,0,0
201883,-100,4,2,52,90,0,1
202820,-100,4,2,53,90,0,1
203132,-100,4,2,54,90,0,1
203445,-100,4,2,55,90,0,1
203758,-100,4,2,56,90,0,1
204695,-100,4,2,2,90,0,1
205008,-100,4,2,57,90,0,1
205320,-100,4,2,58,90,0,1
205633,-100,4,2,59,90,0,1
206258,-100,4,2,60,90,0,1
206570,-100,4,2,61,90,0,1
207508,-100,4,2,62,90,0,1
207820,-100,4,2,2,90,0,1
208758,-100,4,2,63,90,0,1
209070,-100,4,2,64,90,0,1
209383,-100,4,2,65,90,0,1
209695,-100,4,2,66,90,0,1
210319,-100,4,2,67,90,0,1
210633,-100,4,2,68,90,0,1
210944,-100,4,2,69,90,0,1
211258,-100,4,2,70,90,0,1
211570,-100,4,2,71,90,0,1
211883,-100,4,2,72,90,0,1
212195,-100,4,2,73,90,0,1
213133,-100,4,2,74,90,0,1
213445,-100,4,2,75,90,0,1
214071,-100,4,2,76,90,0,1
214383,-100,4,2,77,90,0,1
215008,-100,4,2,78,90,0,1
215945,-100,4,2,83,85,0,1
216883,-100,4,2,82,85,0,1
217195,-100,4,2,82,85,0,0

[Colours]
Combo1 : 136,68,68
Combo2 : 255,166,210
Combo3 : 181,181,219
Combo4 : 206,206,206

[HitObjects]
64,106,3148,6,0,P|114:59|182:60,1,140,2|2,2:0|2:0,2:0:0:0:
256,99,4085,2,0,L|245:254,1,140,2|2,2:0|2:0,2:0:0:0:
320,277,5023,2,0,P|388:277|437:230,1,140,2|2,2:0|2:0,2:0:0:0:
401,155,5960,2,0,P|332:154|283:201,1,140,2|2,2:0|2:0,2:0:0:0:
218,255,6898,6,0,B|120:283|120:283|84:269,1,140,2|2,2:0|2:0,2:0:0:0:
71,186,7835,2,0,B|169:158|169:158|204:171,1,140,2|2,2:0|2:0,2:0:0:0:
283,201,8773,2,0,B|318:214|318:214|416:186,1,140,2|2,2:0|2:0,2:0:0:0:
403,103,9710,2,0,B|367:89|367:89|269:117,1,140,2|2,2:0|2:0,2:0:0:0:
256,192,10648,12,2,16273,2:0:0:0:
50,253,18133,6,0,B|107:283|107:283|134:252|172:248,1,140,2|0,1:2|2:0,2:0:0:0:
235,303,19070,2,0,L|317:293,1,70,10|2,2:0|2:0,2:0:0:0:
383,322,19695,1,2,1:2:0:0:
466,312,20008,1,2,1:2:0:0:
469,60,20945,6,0,L|399:68,1,70,10|2,2:0|1:2,2:0:0:0:
329,115,21570,1,2,1:2:0:0:
245,125,21883,2,0,B|150:137|150:137|135:95,1,140,2|2,1:2|2:0,2:0:0:0:
51,106,22820,2,0,P|42:174|62:244,1,140,10|2,2:0|1:2,2:0:0:0:
112,308,23758,1,2,1:2:0:0:
362,282,24695,6,0,L|352:131,1,140,10|2,2:0|1:2,2:0:0:0:
290,85,25633,2,0,P|226:70|195:127,1,140,2|2,1:2|2:0,2:0:0:0:
113,144,26570,1,8,2:0:0:0:
150,307,27195,1,2,1:2:0:0:
232,290,27508,6,0,L|370:269,1,140,2|2,1:2|2:0,2:0:0:0:
450,294,28445,1,8,2:0:0:0:
506,231,28758,2,0,P|503:196|484:167,1,70,2|2,1:2|1:2,2:0:0:0:
403,145,29383,2,0,L|264:165,1,140,2|2,1:2|2:0,2:0:0:0:
182,180,30320,1,10,2:0:0:0:
32,104,30945,5,2,1:2:0:0:
48,21,31258,1,2,1:2:0:0:
421,65,33133,6,0,P|368:109|370:176,1,140,6|2,1:2|2:0,2:0:0:0:
409,251,34070,2,0,P|345:227|287:262,1,140,10|2,2:0|1:2,2:0:0:0:
211,298,35008,1,2,1:2:0:0:
69,89,35945,6,0,P|99:108|133:110,1,70,10|2,2:0|1:2,2:0:0:0:
213,85,36570,1,2,1:2:0:0:
292,56,36883,2,0,P|360:48|425:72,1,140,2|2,1:2|2:0,2:0:0:0:
486,130,37820,1,10,2:0:0:0:
454,295,38445,1,2,1:2:0:0:
387,346,38758,2,0,P|318:353|253:329,1,140,2|0,1:2|2:0,2:0:0:0:
181,284,39695,6,0,L|178:187,1,70,10|2,2:0|1:2,2:0:0:0:
111,163,40320,1,2,1:2:0:0:
130,81,40633,2,0,B|186:77|201:29|201:29|242:47,1,140,2|2,1:2|2:0,2:0:0:0:
327,52,41570,1,8,2:0:0:0:
328,219,42195,1,2,1:2:0:0:
244,233,42508,2,0,B|202:251|202:251|187:203|131:199,1,140,2|2,1:2|2:0,2:0:0:0:
48,210,43445,1,8,2:0:0:0:
77,43,44070,5,2,1:2:0:0:
147,90,44383,2,0,P|214:95|256:42,1,140,2|2,1:2|2:0,2:0:0:0:
340,43,45320,2,0,P|382:95|449:90,1,140,10|2,2:0|1:2,2:0:0:0:
509,30,46258,1,2,1:2:0:0:
463,284,47508,2,0,L|393:278,1,70,0|0,1:0|1:0,2:0:0:0:
350,351,48133,6,0,L|342:211,1,140,6|2,1:2|2:0,2:0:0:0:
335,127,49070,1,10,2:0:0:0:
118,252,50008,2,0,P|117:319|173:355,1,140,2|2,1:2|2:0,2:0:0:0:
250,322,50945,2,0,P|250:254|194:218,1,140,10|2,2:0|1:2,2:0:0:0:
129,164,51883,6,0,B|96:73|96:73|138:64,1,140,2|2,1:2|2:0,2:0:0:0:
220,46,52820,1,10,2:0:0:0:
447,154,53758,2,0,P|447:221|391:257,1,140,2|2,1:2|2:0,2:0:0:0:
325,205,54695,1,10,2:0:0:0:
90,113,55633,6,0,L|106:252,1,140,2|2,1:2|2:0,2:0:0:0:
117,336,56570,1,10,2:0:0:0:
200,351,56883,1,2,2:0:0:0:
366,329,57508,2,0,L|355:244,1,70,2|2,1:2|2:0,2:0:0:0:
344,176,58133,1,2,2:0:0:0:
266,143,58445,2,0,P|232:86|268:30,1,140,10|2,2:0|1:2,2:0:0:0:
353,29,59383,6,0,L|494:184,1,210,2|8,1:2|2:0,2:0:0:0:
499,268,60633,1,2,2:0:0:0:
436,324,60945,1,2,1:2:0:0:
355,301,61258,2,0,B|297:239|297:239|225:236|193:295,1,210,2|10,1:2|1:2,2:0:0:0:
131,352,62508,6,0,L|61:348,1,70,2|2,1:2|1:2,2:0:0:0:
7,282,63133,2,0,P|-1:216|46:167,1,140,6|0,1:2|2:0,2:0:0:0:
92,96,64070,1,10,2:0:0:0:
176,104,64383,2,0,L|245:107,1,70,2|2,2:0|1:2,2:0:0:0:
321,145,65008,2,0,B|411:149|411:149|401:198,1,140,2|0,1:2|2:0,2:0:0:0:
484,214,65945,2,0,L|469:282,1,70,10|2,2:0|1:2,2:0:0:0:
448,364,66570,1,2,1:2:0:0:
286,318,67195,5,2,2:0:0:0:
209,282,67508,1,2,2:0:0:0:
135,322,67820,2,0,B|89:307|89:307|119:220,1,140,10|2,2:0|1:2,2:0:0:0:
39,191,68758,2,0,P|85:141|153:142,1,140,6|0,1:2|2:0,2:0:0:0:
206,209,69695,2,0,P|274:209|320:159,1,140,10|2,2:0|1:2,2:0:0:0:
321,74,70633,6,0,B|258:28|258:28|192:39,1,140,0|2,1:0|2:0,2:0:0:0:
113,35,71570,2,0,P|107:70|115:104,1,70,10|2,2:0|2:0,2:0:0:0:
263,185,72508,2,0,L|400:158,1,140,2|2,1:2|2:0,2:0:0:0:
483,150,73445,2,0,P|490:183|484:218,1,70,10|2,2:0|1:2,2:0:0:0:
373,344,74383,6,0,P|326:294|257:293,1,140,2|2,1:2|2:0,2:0:0:0:
185,335,75320,2,0,L|115:324,1,70,10|2,2:0|2:0,2:0:0:0:
33,305,75945,1,2,1:2:0:0:
51,222,76258,2,0,B|6:209|6:209|41:42,1,210,2|10,1:2|2:0,2:0:0:0:
120,24,77508,6,0,L|188:37,1,70,2|2,1:2|1:2,2:0:0:0:
226,112,78133,2,0,P|289:136|346:100,1,140,6|0,1:2|2:0,2:0:0:0:
430,95,79070,2,0,L|443:162,1,70,10|2,2:0|2:0,2:0:0:0:
461,246,79695,1,2,1:2:0:0:
403,307,80008,6,0,B|352:336|304:304|304:304|253:272|204:298,1,210,6|8,1:2|2:0,2:0:0:0:
119,297,81258,2,0,L|106:229,1,70,2|2,1:2|1:2,2:0:0:0:
29,190,81883,2,0,P|81:146|148:154,1,140,6|2,1:2|2:0,2:0:0:0:
232,143,82820,1,14,2:0:0:0:
301,297,83445,5,2,1:2:0:0:
385,297,83758,2,0,B|443:169|443:169|412:154|386:128,1,210,6|8,1:2|2:0,2:0:0:0:
362,48,85008,2,0,P|331:33|298:42,1,70,2|2,1:2|1:2,2:0:0:0:
241,104,85633,6,0,L|101:92,1,140,6|0,1:2|2:0,2:0:0:0:
41,151,86570,2,0,P|24:217|70:266,1,140,14|2,2:0|1:2,2:0:0:0:
153,276,87508,2,0,L|293:288,1,140,6|2,1:2|2:0,2:0:0:0:
376,297,88445,1,10,2:0:0:0:
474,62,89383,6,0,L|334:50,1,140,6|0,1:2|2:0,2:0:0:0:
266,100,90320,2,0,P|220:150|152:149,1,140,14|0,2:0|1:0,2:0:0:0:
86,94,91258,1,6,1:2:0:0:
175,331,92195,2,0,L|315:343,1,140,10|2,2:0|1:2,2:0:0:0:
398,352,93133,1,2,2:0:0:0:
398,352,95633,5,2,1:2:0:0:
457,291,95945,2,0,L|443:151,1,140,10|2,2:0|1:2,2:0:0:0:
360,133,96883,2,0,B|257:125|257:125|267:160,1,140,6|2,1:2|2:0,2:0:0:0:
289,241,97820,1,10,2:0:0:0:
135,311,98445,5,2,1:2:0:0:
86,241,98758,2,0,P|118:184|183:194,1,140,2|2,1:2|2:0,2:0:0:0:
253,242,99695,2,0,P|318:253|350:195,1,140,8|0,2:0|1:0,2:0:0:0:
327,113,100633,5,2,1:2:0:0:
176,36,101258,1,2,2:0:0:0:
99,72,101570,2,0,L|113:211,1,140,10|2,2:0|1:2,2:0:0:0:
126,295,102508,1,2,1:2:0:0:
292,327,103133,5,2,2:0:0:0:
278,243,103445,2,0,P|340:214|405:234,1,140,10|2,2:0|1:2,2:0:0:0:
468,292,104383,2,0,L|450:154,1,140,2|2,1:2|2:0,2:0:0:0:
437,69,105320,1,10,2:0:0:0:
269,42,105945,5,2,1:2:0:0:
189,72,106258,2,0,P|149:127|167:192,1,140,2|2,1:2|2:0,2:0:0:0:
208,266,107195,1,10,2:0:0:0:
292,257,107508,2,0,L|362:251,1,70,0|0,1:0|1:0,2:0:0:0:
401,326,108133,6,0,L|409:186,1,140,6|2,1:2|2:0,2:0:0:0:
417,102,109070,1,10,2:0:0:0:
167,150,110008,2,0,P|166:217|222:253,1,140,2|2,1:2|2:0,2:0:0:0:
299,220,110945,2,0,P|299:152|243:116,1,140,10|2,2:0|1:2,2:0:0:0:
176,63,111883,6,0,B|101:53|101:53|61:102,1,140,2|2,1:2|2:0,2:0:0:0:
14,174,112820,1,10,2:0:0:0:
220,322,113758,2,0,P|268:275|333:291,1,140,2|2,1:2|2:0,2:0:0:0:
418,294,114695,1,10,2:0:0:0:
377,42,115633,6,0,L|238:58,1,140,2|2,1:2|2:0,2:0:0:0:
157,33,116570,1,10,2:0:0:0:
86,80,116883,1,2,2:0:0:0:
87,249,117508,2,0,L|172:238,1,70,2|2,1:2|2:0,2:0:0:0:
236,267,118133,1,2,2:0:0:0:
298,210,118445,2,0,P|355:176|411:212,1,140,10|2,2:0|1:2,2:0:0:0:
467,274,119383,6,0,L|455:57,1,210,2|8,1:2|2:0,2:0:0:0:
384,17,120633,1,2,2:0:0:0:
299,21,120945,1,2,1:2:0:0:
230,70,121258,2,0,B|235:176|235:176|195:166|163:175|143:205,1,210,2|10,1:2|1:2,2:0:0:0:
101,279,122508,6,0,L|118:356,1,70,2|2,1:2|1:2,2:0:0:0:
200,353,123133,2,0,P|267:360|315:312,1,140,6|0,1:2|2:0,2:0:0:0:
391,276,124070,1,10,2:0:0:0:
412,194,124383,2,0,L|396:125,1,70,2|2,2:0|1:2,2:0:0:0:
357,50,125008,2,0,P|289:42|241:90,1,140,2|0,1:2|2:0,2:0:0:0:
179,145,125945,2,0,L|194:213,1,70,10|2,2:0|1:2,2:0:0:0:
217,294,126570,1,2,1:2:0:0:
55,338,127195,5,2,2:0:0:0:
13,264,127508,1,2,2:0:0:0:
30,181,127820,2,0,B|42:93|42:93|94:95,1,140,10|2,2:0|1:2,2:0:0:0:
177,101,128758,2,0,P|210:42|276:26,1,140,6|0,1:2|2:0,2:0:0:0:
351,65,129695,2,0,L|364:206,1,140,10|2,2:0|1:2,2:0:0:0:
339,284,130633,6,0,B|236:254|236:254|220:282,1,140,0|2,1:0|2:0,2:0:0:0:
147,325,131570,2,0,P|112:318|87:296,1,70,10|2,2:0|2:0,2:0:0:0:
21,140,132508,2,0,B|55:52|55:52|100:63,1,140,2|2,1:2|2:0,2:0:0:0:
179,87,133445,2,0,L|153:152,1,70,10|2,2:0|1:2,2:0:0:0:
29,266,134383,6,0,P|85:305|153:301,1,140,2|2,1:2|2:0,2:0:0:0:
207,236,135320,2,0,L|277:234,1,70,10|2,2:0|2:0,2:0:0:0:
333,296,135945,1,2,1:2:0:0:
409,260,136258,2,0,P|458:177|387:112,1,210,2|10,1:2|2:0,2:0:0:0:
304,101,137508,6,0,L|236:114,1,70,2|2,1:2|1:2,2:0:0:0:
153,135,138133,2,0,L|167:289,1,140,6|0,1:2|2:0,2:0:0:0:
81,284,139070,2,0,L|74:214,1,70,10|2,2:0|2:0,2:0:0:0:
38,137,139695,1,2,1:2:0:0:
78,62,140008,6,0,B|129:33|177:65|177:65|228:97|277:71,1,210,6|8,1:2|2:0,2:0:0:0:
360,79,141258,2,0,L|347:147,1,70,2|2,1:2|1:2,2:0:0:0:
270,186,141883,2,0,P|322:230|389:222,1,140,6|2,1:2|2:0,2:0:0:0:
436,150,142820,1,14,2:0:0:0:
455,318,143445,5,2,1:2:0:0:
370,327,143758,2,0,B|231:347|231:347|203:328|165:328,1,210,6|8,1:2|2:0,2:0:0:0:
80,321,145008,2,0,P|65:289|67:255,1,70,2|2,1:2|1:2,2:0:0:0:
106,180,145633,6,0,L|246:192,1,140,6|0,1:2|2:0,2:0:0:0:
329,197,146570,2,0,P|374:147|356:82,1,140,14|2,2:0|1:2,2:0:0:0:
281,42,147508,2,0,L|141:30,1,140,6|2,1:2|2:0,2:0:0:0:
57,20,148445,1,10,2:0:0:0:
18,269,149383,6,0,P|81:292|143:263,1,140,6|0,1:2|2:0,2:0:0:0:
196,197,150320,2,0,L|335:212,1,140,14|0,2:0|1:0,2:0:0:0:
419,225,151258,1,6,1:2:0:0:
233,51,152195,2,0,P|169:27|107:56,1,140,10|2,2:0|1:2,2:0:0:0:
73,133,153133,1,6,2:0:0:0:
192,357,154070,5,10,2:0:0:0:
247,292,154383,2,0,B|333:285|333:285|343:337,1,140,2|2,2:0|1:2,2:0:0:0:
499,137,155945,2,0,P|435:110|367:125,1,140,10|0,2:0|1:0,2:0:0:0:
321,196,156883,6,0,P|260:220|221:168,1,140,2|0,1:2|1:0,2:0:0:0:
188,90,157820,2,0,P|149:37|88:62,1,140,10|2,2:0|2:0,2:0:0:0:
50,138,158758,1,2,1:2:0:0:
99,299,159383,1,2,2:0:0:0:
183,290,159695,2,0,L|327:277,1,140,10|0,2:0|1:0,2:0:0:0:
316,192,160633,6,0,P|264:147|195:148,1,140,6|2,1:2|1:2,2:0:0:0:
142,214,161570,2,0,L|130:74,1,140,10|2,2:0|2:0,2:0:0:0:
211,49,162508,2,0,P|279:50|331:5,1,140,2|2,1:2|2:0,2:0:0:0:
415,19,163445,2,0,L|403:158,1,140,10|2,2:0|1:2,2:0:0:0:
395,243,164383,5,2,1:2:0:0:
243,318,165008,1,2,1:2:0:0:
175,266,165320,2,0,B|171:193|171:193|105:179,1,140,10|2,2:0|2:0,2:0:0:0:
22,162,166258,1,0,1:0:0:0:
233,21,167195,2,0,P|297:40|314:105,1,140,10|2,2:0|1:2,2:0:0:0:
256,192,168133,12,0,171883,2:0:0:0:
142,314,183133,5,2,1:2:0:0:
147,93,184070,2,0,B|204:96|241:54|241:54|295:93|338:72,1,210,0|2,1:2|1:2,2:0:0:0:
383,290,185945,5,10,1:2:0:0:
450,238,186258,2,0,L|443:168,1,70,2|2,1:2|1:2,2:0:0:0:
431,84,186883,2,0,P|383:35|316:40,1,140,6|0,1:2|2:0,2:0:0:0:
252,95,187820,1,10,2:0:0:0:
171,68,188133,2,0,L|101:74,1,70,2|2,2:0|1:2,2:0:0:0:
25,111,188758,2,0,P|20:178|68:225,1,140,2|0,1:2|2:0,2:0:0:0:
154,226,189695,2,0,L|148:157,1,70,10|2,2:0|1:2,2:0:0:0:
137,72,190320,1,2,1:2:0:0:
302,38,190945,5,2,2:0:0:0:
379,72,191258,1,2,2:0:0:0:
391,155,191570,2,0,B|339:198|339:198|394:245,1,140,10|2,2:0|1:2,2:0:0:0:
333,305,192508,2,0,B|272:251|272:251|225:286,1,140,6|0,1:2|2:0,2:0:0:0:
141,296,193445,2,0,P|92:248|92:180,1,140,10|2,2:0|1:2,2:0:0:0:
133,107,194383,6,0,L|282:115,1,140,0|2,1:0|2:0,2:0:0:0:
335,58,195320,2,0,P|368:49|402:57,1,70,10|2,2:0|2:0,2:0:0:0:
482,208,196258,2,0,P|432:254|364:246,1,140,2|2,1:2|2:0,2:0:0:0:
298,193,197195,2,0,P|264:184|230:193,1,70,10|2,2:0|1:2,2:0:0:0:
69,144,198133,6,0,B|59:216|59:216|128:234,1,140,2|2,1:2|2:0,2:0:0:0:
112,316,199070,2,0,L|179:335,1,70,10|2,2:0|2:0,2:0:0:0:
259,310,199695,1,2,1:2:0:0:
336,341,200008,2,0,P|417:282|393:186,1,210,2|10,1:2|2:0,2:0:0:0:
314,161,201258,6,0,L|246:174,1,70,2|2,1:2|1:2,2:0:0:0:
169,136,201883,2,0,L|192:274,1,140,6|0,1:2|2:0,2:0:0:0:
154,350,202820,2,0,P|122:335|87:336,1,70,10|2,2:0|2:0,2:0:0:0:
12,297,203445,1,2,1:2:0:0:
65,230,203758,6,0,B|94:179|62:131|62:131|30:80|56:31,1,210,6|8,1:2|2:0,2:0:0:0:
129,75,205008,2,0,L|196:89,1,70,2|2,1:2|1:2,2:0:0:0:
272,48,205633,2,0,P|279:115|235:167,1,140,6|2,1:2|2:0,2:0:0:0:
151,168,206570,1,14,2:0:0:0:
206,327,207195,5,2,1:2:0:0:
284,295,207508,2,0,B|352:266|352:266|401:321|476:302,1,210,6|8,1:2|2:0,2:0:0:0:
509,224,208758,2,0,P|510:189|495:158,1,70,2|2,1:2|1:2,2:0:0:0:
452,86,209383,6,0,P|387:68|337:113,1,140,6|0,1:2|2:0,2:0:0:0:
256,138,210319,2,0,L|268:278,1,140,14|2,2:0|1:2,2:0:0:0:
205,335,211258,2,0,P|140:352|90:307,1,140,6|2,1:2|2:0,2:0:0:0:
66,226,212195,1,10,2:0:0:0:
244,44,213133,6,0,L|383:59,1,140,6|0,1:2|2:0,2:0:0:0:
466,76,214071,2,0,P|488:140|459:201,1,140,14|0,2:0|1:0,2:0:0:0:
374,188,215008,1,6,1:2:0:0:
136,102,215945,2,0,L|151:256,1,140,10|2,2:0|1:2,2:0:0:0:
161,325,216883,1,2,2:0:0:0:
