osu file format v14

[General]
AudioFilename: audio.mp3
AudioLeadIn: 0
PreviewTime: 185945
Countdown: 0
SampleSet: Soft
StackLeniency: 0.6
Mode: 0
LetterboxInBreaks: 0
WidescreenStoryboard: 1

[Editor]
DistanceSpacing: 1.6
BeatDivisor: 8
GridSize: 8
TimelineZoom: 1.4

[Metadata]
Title:Look at me
TitleUnicode:Look at me
Artist:Girl's Day
ArtistUnicode:걸스데이
Creator:Nabori
Version:Syph's Dark Nights
Source:
Tags:syph [im nayeon] kpop k-pop pop love dreamt entertainment ent girls 소진 유라 민아 혜리 sojin minah yura hyeri korean girls iyiyo yiyo
BeatmapID:3579036
BeatmapSetID:1749429

[Difficulty]
HPDrainRate:5.4
CircleSize:4
OverallDifficulty:8.3
ApproachRate:9
SliderMultiplier:1.9
SliderTickRate:1

[Events]
//Background and Video events
0,0,"bg.jpg",0,0
//Break Periods
2,173054,182273
//Storyboard Layer 0 (Background)
//Storyboard Layer 1 (Fail)
//Storyboard Layer 2 (Pass)
//Storyboard Layer 3 (Foreground)
//Storyboard Layer 4 (Overlay)
//Storyboard Sound Samples

[TimingPoints]
3148,625,3,2,85,60,1,0
3460,-100,4,2,86,60,0,0
4085,-100,4,2,85,60,0,0
4398,-100,4,2,86,60,0,0
5023,-100,4,2,85,60,0,0
5335,-100,4,2,86,60,0,0
5960,-100,4,2,85,60,0,0
6273,-100,4,2,86,60,0,0
6898,-100,4,2,87,60,0,0
7210,-100,4,2,88,60,0,0
7835,-100,4,2,87,60,0,0
8148,-100,4,2,88,60,0,0
8773,-100,4,2,89,60,0,0
9085,-100,4,2,86,60,0,0
9710,-100,4,2,89,60,0,0
10022,-100,4,2,86,60,0,0
10648,-100,4,2,90,60,0,0
10960,-100,4,2,86,60,0,0
11585,-100,4,2,96,60,0,0
11897,-100,4,2,86,60,0,0
12523,-100,4,2,94,60,0,0
12835,-100,4,2,86,60,0,0
13460,-100,4,2,95,60,0,0
13773,-100,4,2,88,60,0,0
14398,-100,4,2,95,60,0,0
14710,-100,4,2,88,60,0,0
15335,-100,4,2,95,60,0,0
15648,-100,4,2,88,60,0,0
16273,-100,4,2,97,60,0,0
17210,-100,4,2,98,60,0,0
17366,-100,4,2,99,60,0,0
17523,-100,4,2,98,60,0,0
17679,-100,4,2,100,60,0,0
17835,-100,4,2,84,60,0,0
18133,625,3,2,1,65,1,0
18133,-125,4,2,1,65,0,0
21883,-76.9230769230769,4,2,1,65,0,0
29383,-125,4,2,1,65,0,0
32195,-58.8235294117647,4,2,1,65,0,0
33133,-76.9230769230769,4,2,1,70,0,0
62195,-76.9230769230769,4,2,2,75,0,0
63133,-66.6666666666667,4,2,2,85,0,1
68758,-66.6666666666667,4,2,8,85,0,1
69695,-66.6666666666667,4,2,2,85,0,1
77195,-66.6666666666667,4,2,2,85,0,0
78133,-76.9230769230769,4,2,2,85,0,1
78758,-66.6666666666667,4,2,2,85,0,1
80008,-66.6666666666667,4,2,3,85,0,1
80945,-66.6666666666667,4,2,2,85,0,1
81883,-66.6666666666667,4,2,4,85,0,1
85008,-66.6666666666667,4,2,2,85,0,1
93133,-66.6666666666667,4,2,1,70,0,0
95633,-66.6666666666667,4,2,1,75,0,0
95945,-76.9230769230769,4,2,1,75,0,0
122195,-76.9230769230769,4,2,2,85,0,0
123133,-66.6666666666667,4,2,2,85,0,1
128758,-66.6666666666667,4,2,8,85,0,1
129695,-66.6666666666667,4,2,2,85,0,1
137195,-66.6666666666667,4,2,2,85,0,0
138133,-76.9230769230769,4,2,2,85,0,1
138758,-66.6666666666667,4,2,2,85,0,1
140008,-66.6666666666667,4,2,3,85,0,1
140945,-66.6666666666667,4,2,2,85,0,1
141883,-66.6666666666667,4,2,4,85,0,1
145008,-66.6666666666667,4,2,2,85,0,1
151258,-66.6666666666667,4,2,2,85,0,0
153133,-66.6666666666667,4,2,6,80,0,1
153758,-66.6666666666667,4,2,2,80,0,0
155008,-76.9230769230769,4,2,2,80,0,0
183133,-100,4,2,10,75,0,0
184383,-100,4,2,15,75,0,0
184695,-100,4,2,16,75,0,0
185008,-100,4,2,17,80,0,0
185945,-100,4,2,11,80,0,0
186258,-100,4,2,12,80,0,0
186570,-100,4,2,13,80,0,0
186883,-66.6666666666667,4,2,14,90,0,1
187195,-66.6666666666667,4,2,2,90,0,1
187820,-66.6666666666667,4,2,18,90,0,1
188133,-66.6666666666667,4,2,19,90,0,1
188445,-66.6666666666667,4,2,20,90,0,1
188758,-66.6666666666667,4,2,21,90,0,1
189695,-66.6666666666667,4,2,22,90,0,1
190008,-66.6666666666667,4,2,23,90,0,1
190320,-66.6666666666667,4,2,24,90,0,1
190945,-66.6666666666667,4,2,25,90,0,1
191258,-66.6666666666667,4,2,26,90,0,1
191570,-66.6666666666667,4,2,27,90,0,1
191883,-66.6666666666667,4,2,28,90,0,1
192195,-66.6666666666667,4,2,29,90,0,1
192508,-66.6666666666667,4,2,30,90,0,1
193445,-66.6666666666667,4,2,31,90,0,1
193758,-66.6666666666667,4,2,32,90,0,1
194070,-66.6666666666667,4,2,33,90,0,1
194695,-66.6666666666667,4,2,34,90,0,1
195008,-66.6666666666667,4,2,35,90,0,1
195164,-66.6666666666667,4,2,36,90,0,1
195320,-66.6666666666667,4,2,37,90,0,1
195633,-66.6666666666667,4,2,38,90,0,1
196258,-66.6666666666667,4,2,39,90,0,1
196570,-66.6666666666667,4,2,35,90,0,1
196726,-66.6666666666667,4,2,36,90,0,1
196883,-66.6666666666667,4,2,40,90,0,1
197039,-66.6666666666667,4,2,36,90,0,1
197195,-66.6666666666667,4,2,41,90,0,1
197508,-66.6666666666667,4,2,38,90,0,1
198133,-66.6666666666667,4,2,42,90,0,1
198445,-66.6666666666667,4,2,43,90,0,1
198758,-66.6666666666667,4,2,44,90,0,1
199070,-66.6666666666667,4,2,45,90,0,1
199383,-66.6666666666667,4,2,46,90,0,1
199695,-66.6666666666667,4,2,47,90,0,1
200008,-66.6666666666667,4,2,48,90,0,1
200945,-66.6666666666667,4,2,49,90,0,0
201258,-66.6666666666667,4,2,50,90,0,0
201570,-66.6666666666667,4,2,51,90,0,0
201883,-76.9230769230769,4,2,52,90,0,1
202508,-66.6666666666667,4,2,52,90,0,1
202820,-66.6666666666667,4,2,53,90,0,1
203133,-66.6666666666667,4,2,54,90,0,1
203445,-66.6666666666667,4,2,55,90,0,1
203758,-66.6666666666667,4,2,56,90,0,1
204695,-66.6666666666667,4,2,2,90,0,1
205008,-66.6666666666667,4,2,57,90,0,1
205320,-66.6666666666667,4,2,58,90,0,1
205633,-66.6666666666667,4,2,59,90,0,1
206258,-66.6666666666667,4,2,60,90,0,1
206570,-66.6666666666667,4,2,61,90,0,1
207508,-66.6666666666667,4,2,62,90,0,1
207820,-66.6666666666667,4,2,2,90,0,1
208758,-66.6666666666667,4,2,63,90,0,1
209070,-66.6666666666667,4,2,64,90,0,1
209383,-66.6666666666667,4,2,65,90,0,1
209695,-66.6666666666667,4,2,66,90,0,1
210320,-66.6666666666667,4,2,67,90,0,1
210632,-66.6666666666667,4,2,68,90,0,1
210944,-66.6666666666667,4,2,69,90,0,1
211258,-66.6666666666667,4,2,70,90,0,1
211570,-66.6666666666667,4,2,71,90,0,1
211883,-66.6666666666667,4,2,72,90,0,1
212195,-66.6666666666667,4,2,73,90,0,1
213133,-66.6666666666667,4,2,74,90,0,1
213445,-66.6666666666667,4,2,75,90,0,1
214070,-66.6666666666667,4,2,76,90,0,1
214382,-66.6666666666667,4,2,77,90,0,1
215008,-66.6666666666667,4,2,78,90,0,1
215320,-66.6666666666667,4,2,79,85,0,1
215633,-66.6666666666667,4,2,80,85,0,1
215945,-66.6666666666667,4,2,83,85,0,1
216570,-66.6666666666667,4,2,83,85,0,0
216883,-142.857142857143,4,2,82,85,0,1
217195,-142.857142857143,4,2,82,85,0,0
217508,-142.857142857143,4,2,82,5,0,0

[Colours]
Combo1 : 136,68,68
Combo2 : 255,166,210
Combo3 : 181,181,219
Combo4 : 206,206,206

[HitObjects]
77,120,3148,5,2,2:0:0:0:
77,120,3460,2,0,P|125:127|150:166,1,95,2|2,2:0|2:0,2:0:0:0:
80,200,4085,2,0,L|277:160,1,190,2|2,2:0|2:0,2:0:0:0:
460,285,5023,1,2,2:0:0:0:
460,285,5335,2,0,P|412:278|387:239,1,95,2|2,2:0|2:0,2:0:0:0:
460,209,5960,2,0,L|273:246,1,190,2|2,2:0|2:0,2:0:0:0:
148,337,6898,2,0,P|155:289|194:264,2,95,2|2|2,2:0|2:0|2:0,2:0:0:0:
225,333,7835,6,0,L|262:146,1,190,2|2,2:0|2:0,2:0:0:0:
199,26,8773,1,2,2:0:0:0:
199,26,9085,2,0,P|151:33|126:72,1,95,2|2,2:0|2:0,2:0:0:0:
126,148,9710,1,2,2:0:0:0:
126,148,10022,2,0,P|174:141|199:102,1,95,2|2,2:0|2:0,2:0:0:0:
336,0,10648,1,2,2:0:0:0:
336,0,10960,2,0,P|288:7|263:46,1,95,2|2,2:0|2:0,2:0:0:0:
314,174,11585,2,0,L|334:71,2,95,2|2|2,2:0|2:0|2:0,2:0:0:0:
313,253,12523,5,2,2:0:0:0:
313,253,12835,2,0,P|361:246|386:207,1,95,2|2,2:0|2:0,2:0:0:0:
314,174,13460,2,0,L|501:211,1,190,2|2,2:0|2:0,2:0:0:0:
469,55,14398,2,0,P|506:81|512:127,2,95,2|2|2,2:0|2:0|2:0,2:0:0:0:
343,101,15335,1,2,2:0:0:0:
343,101,15648,2,0,L|453:123,1,95,2|2,2:0|2:0,2:0:0:0:
501,338,16273,1,2,2:0:0:0:
501,338,17210,5,2,2:0:0:0:
405,297,17366,1,2,2:0:0:0:
228,309,17523,1,2,2:0:0:0:
324,350,17679,1,2,2:0:0:0:
488,234,17835,1,2,2:0:0:0:
488,234,18133,6,0,L|338:204,1,152,2|0,1:2|2:0,2:0:0:0:
230,88,19070,1,10,2:0:0:0:
340,204,19383,1,2,2:0:0:0:
274,12,19695,1,2,1:2:0:0:
179,260,20008,2,0,L|29:230,1,152,2|0,1:2|2:0,2:0:0:0:
3,155,20789,5,0,3:0:0:0:
3,155,20867,1,0,3:0:0:0:
3,155,20945,1,10,2:0:0:0:
171,92,21258,1,2,1:2:0:0:
58,307,21570,1,2,1:2:0:0:
171,92,21883,2,0,L|141:242,1,123.499994346619,2|2,1:2|2:0,2:0:0:0:
146,213,22508,1,2,2:0:0:0:
251,20,22820,2,0,L|281:170,1,123.499994346619,10|2,2:0|2:0,2:0:0:0:
276,141,23445,1,2,1:2:0:0:
466,49,23758,6,0,P|404:42|335:111,2,123.499994346619,2|0|0,1:2|2:0|2:0,2:0:0:0:
512,126,24539,1,0,3:0:0:0:
512,126,24617,1,0,3:0:0:0:
512,126,24695,2,0,P|473:135|440:126,1,61.7499971733095,10|0,2:0|2:0,2:0:0:0:
437,245,25008,2,0,P|409:215|401:182,1,61.7499971733095,2|0,1:2|2:0,2:0:0:0:
296,239,25320,2,0,P|307:200|332:176,1,61.7499971733095,2|0,1:2|2:0,2:0:0:0:
361,317,25633,5,2,1:2:0:0:
370,113,25945,1,2,2:0:0:0:
286,99,26258,1,2,2:0:0:0:
205,165,26570,1,8,2:0:0:0:
97,95,26883,1,2,2:0:0:0:
296,12,27195,1,2,1:2:0:0:
83,223,27508,6,0,L|21:211,1,61.7499971733095,2|0,1:2|2:0,2:0:0:0:
205,165,27820,2,0,L|267:153,1,61.7499971733095,2|0,2:0|2:0,2:0:0:0:
190,297,28133,1,2,2:0:0:0:
159,227,28289,1,0,3:0:0:0:
159,227,28367,1,0,3:0:0:0:
159,227,28445,1,8,2:0:0:0:
371,373,28758,5,2,1:2:0:0:
392,117,29070,1,2,1:2:0:0:
392,117,29383,2,0,L|410:209,1,76,2|2,1:2|2:0,2:0:0:0:
406,191,29851,1,2,2:0:0:0:
450,45,30008,1,2,2:0:0:0:
394,276,30320,6,0,P|373:271|354:258,1,38,10|0,2:0|2:0,2:0:0:0:
326,193,30633,2,0,P|327:171|336:150,1,38,2|0,2:0|2:0,2:0:0:0:
177,0,30945,6,0,P|198:5|217:18,1,38,2|0,1:2|2:0,2:0:0:0:
188,255,31258,1,2,1:2:0:0:
326,193,31883,1,0,2:0:0:0:
156,184,32039,5,0,3:0:0:0:
156,184,32117,1,0,3:0:0:0:
156,184,32195,2,0,P|211:174|259:239,1,121.125002310276,8|0,2:0|2:0,2:0:0:0:
290,295,32508,1,0,1:0:0:0:
290,295,32664,1,0,1:0:0:0:
326,193,32820,1,0,1:0:0:0:
394,280,32976,1,0,1:0:0:0:
301,71,33133,6,0,L|331:221,1,123.499994346619,6|2,1:2|2:0,2:0:0:0:
326,192,33758,1,2,2:0:0:0:
221,0,34070,2,0,L|191:150,1,123.499994346619,10|2,2:0|2:0,2:0:0:0:
196,120,34695,1,2,1:2:0:0:
14,38,35008,2,0,P|76:31|145:100,1,123.499994346619,2|0,1:2|2:0,2:0:0:0:
126,62,35633,1,0,2:0:0:0:
60,120,35789,1,0,3:0:0:0:
60,120,35867,1,0,3:0:0:0:
60,120,35945,6,0,L|45:195,1,61.7499971733095,10|0,2:0|2:0,2:0:0:0:
101,241,36258,2,0,L|116:316,1,61.7499971733095,2|0,1:2|2:0,2:0:0:0:
20,372,36570,2,0,L|32:311,1,61.7499971733095,2|0,1:2|2:0,2:0:0:0:
203,384,36883,6,0,L|353:354,2,123.499994346619,2|2|2,1:2|2:0|2:0,2:0:0:0:
342,174,37820,2,0,P|372:228|336:318,1,123.499994346619,10|2,2:0|2:0,2:0:0:0:
181,253,38445,1,2,1:2:0:0:
321,99,38758,1,2,1:2:0:0:
390,147,39070,1,0,2:0:0:0:
469,91,39383,1,0,2:0:0:0:
423,15,39539,5,0,3:0:0:0:
423,15,39617,1,0,3:0:0:0:
423,15,39695,2,0,P|403:38|392:68,1,61.7499971733095,10|0,2:0|2:0,2:0:0:0:
291,46,40008,2,0,P|300:74|321:99,1,61.7499971733095,2|0,1:2|2:0,2:0:0:0:
251,175,40320,2,0,P|280:180|312:175,1,61.7499971733095,2|0,1:2|2:0,2:0:0:0:
158,0,40633,6,0,L|128:150,1,123.499994346619,2|2,1:2|2:0,2:0:0:0:
133,120,41258,1,2,2:0:0:0:
36,64,41570,1,8,2:0:0:0:
36,64,41883,2,0,L|20:139,1,61.7499971733095,2|0,2:0|2:0,2:0:0:0:
98,266,42195,2,0,L|85:205,1,61.7499971733095,2|0,1:2|2:0,2:0:0:0:
0,345,42508,2,0,L|121:369,1,123.499994346619,2|2,1:2|2:0,2:0:0:0:
201,318,43133,6,0,P|212:288|201:243,1,61.7499971733095,2|0,2:0|2:0,2:0:0:0:
208,258,43367,1,0,3:0:0:0:
208,258,43445,1,8,0:0:0:0:
334,382,43758,1,0,1:0:0:0:
441,209,44070,2,0,P|452:239|441:284,1,61.7499971733095,2|0,1:2|2:0,2:0:0:0:
248,187,44383,2,0,L|369:162,2,123.499994346619,2|0|2,1:2|2:0|2:0,2:0:0:0:
157,139,45320,5,10,2:0:0:0:
132,114,45633,1,2,2:0:0:0:
183,44,45945,1,2,1:2:0:0:
368,162,46258,1,2,1:2:0:0:
511,8,46570,6,0,L|390:33,1,123.499994346619,0|0,2:0|2:0,2:0:0:0:
261,0,47039,1,0,2:0:0:0:
390,32,47195,1,8,2:0:0:0:
96,129,47508,6,0,P|85:159|96:204,1,61.7499971733095,0|0,1:0|2:0,2:0:0:0:
172,333,47820,1,0,1:0:0:0:
88,188,47976,1,0,1:0:0:0:
236,241,48133,5,6,1:2:0:0:
84,295,48289,1,2,2:0:0:0:
279,175,48445,1,2,2:0:0:0:
370,309,48601,1,2,2:0:0:0:
481,232,48758,2,0,P|512:239|538:281,1,61.7499971733095,2|0,2:0|2:0,2:0:0:0:
370,309,49070,2,0,L|395:188,1,123.499994346619,10|0,2:0|2:0,2:0:0:0:
250,11,49695,2,0,L|264:81,1,61.7499971733095,0|0,1:0|2:0,2:0:0:0:
164,182,50008,6,0,P|104:173|71:123,1,123.499994346619,2|2,1:2|2:0,2:0:0:0:
71,123,50633,1,2,2:0:0:0:
231,259,50789,1,0,3:0:0:0:
231,259,50867,1,0,3:0:0:0:
231,259,50945,2,0,P|260:262|279:286,1,61.7499971733095,10|0,2:0|2:0,2:0:0:0:
123,348,51258,6,0,L|135:287,1,61.7499971733095,2|0,1:2|2:0,2:0:0:0:
262,71,51570,2,0,L|274:131,1,61.7499971733095,2|0,1:2|2:0,2:0:0:0:
418,287,51883,5,2,1:2:0:0:
359,105,52039,1,2,2:0:0:0:
512,217,52195,1,2,2:0:0:0:
322,217,52351,1,2,2:0:0:0:
476,106,52508,2,0,P|492:81|486:51,1,61.7499971733095,2|0,2:0|2:0,2:0:0:0:
411,189,52820,2,0,L|436:310,1,123.499994346619,10|0,2:0|2:0,2:0:0:0:
310,381,53445,1,0,1:0:0:0:
189,284,53758,6,0,P|159:283|138:304,1,61.7499971733095,2|0,1:2|2:0,2:0:0:0:
256,236,54070,2,0,P|241:210|212:202,1,61.7499971733095,2|0,2:0|2:0,2:0:0:0:
331,270,54383,2,0,P|346:245|338:215,1,61.7499971733095,2|0,2:0|2:0,2:0:0:0:
338,214,54617,1,0,3:0:0:0:
338,214,54695,1,10,2:0:0:0:
66,348,55008,1,0,1:0:0:0:
86,46,55320,1,0,1:0:0:0:
0,274,55633,6,0,L|121:249,1,123.499994346619,2|2,1:2|2:0,2:0:0:0:
120,249,56258,1,2,2:0:0:0:
181,148,56570,2,0,L|302:173,1,123.499994346619,10|2,2:0|2:0,2:0:0:0:
66,159,57195,1,0,1:0:0:0:
220,320,57508,6,0,L|232:259,1,61.7499971733095,2|0,1:2|2:0,2:0:0:0:
314,233,57820,2,0,L|301:172,1,61.7499971733095,2|0,2:0|2:0,2:0:0:0:
241,114,58133,2,0,P|213:105|185:119,1,61.7499971733095,2|0,2:0|2:0,2:0:0:0:
185,119,58367,1,0,3:0:0:0:
185,119,58445,5,10,2:0:0:0:
407,254,58758,1,2,1:2:0:0:
125,342,59070,1,2,1:2:0:0:
125,342,59383,6,0,B|86:198|244:240|182:96,1,246.999988693238,2|0,1:2|2:0,2:0:0:0:
50,118,60320,2,0,L|316:62,1,246.999988693238,8|2,2:0|1:2,2:0:0:0:
478,173,61258,2,0,L|417:160,1,61.7499971733095,2|0,1:2|2:0,2:0:0:0:
237,249,61570,2,0,L|297:236,1,61.7499971733095,0|0,2:0|2:0,2:0:0:0:
436,304,61883,2,0,L|375:291,1,61.7499971733095,0|0,2:0|2:0,2:0:0:0:
375,291,62117,1,0,3:0:0:0:
375,291,62195,1,10,1:2:0:0:
237,249,62508,1,2,1:2:0:0:
478,173,62820,1,2,1:2:0:0:
279,17,63133,6,0,L|50:55,1,213.750008153916,6|0,1:2|2:0,2:0:0:0:
57,66,63758,1,0,2:0:0:0:
27,264,64070,2,0,P|55:222|34:164,1,71.2500027179719,10|0,2:0|2:0,2:0:0:0:
135,190,64383,2,0,P|112:144|51:133,1,71.2500027179719,2|0,2:0|2:0,2:0:0:0:
124,59,64695,2,0,P|73:55|33:102,1,71.2500027179719,2|0,1:2|2:0,2:0:0:0:
113,283,65008,6,0,L|320:248,1,142.500005435944,2|0,1:2|2:0,2:0:0:0:
311,140,65476,1,0,2:0:0:0:
311,140,65633,2,0,P|265:162|254:223,1,71.2500027179719,0|0,2:0|2:0,2:0:0:0:
400,235,65945,6,0,L|272:213,1,71.2500027179719,10|0,2:0|2:0,2:0:0:0:
348,377,66258,2,0,L|302:255,1,71.2500027179719,2|0,1:2|2:0,2:0:0:0:
502,129,66570,2,0,L|476:195,1,71.2500027179719,2|0,1:2|2:0,2:0:0:0:
311,140,66883,6,0,P|371:74|450:133,2,142.500005435944,2|2|2,1:2|2:0|2:0,2:0:0:0:
256,359,67820,1,10,2:0:0:0:
159,218,68133,1,2,2:0:0:0:
65,359,68445,2,0,P|17:340|2:280,1,71.2500027179719,2|0,1:2|2:0,2:0:0:0:
194,150,68758,2,0,L|169:306,1,142.500005435944,6|0,1:2|2:0,2:0:0:0:
171,290,69226,1,0,2:0:0:0:
70,277,69383,2,0,P|45:232|72:176,1,71.2500027179719,0|0,2:0|2:0,2:0:0:0:
126,76,69695,6,0,L|110:181,1,71.2500027179719,10|0,2:0|2:0,2:0:0:0:
187,364,70008,2,0,L|176:293,1,71.2500027179719,2|0,1:2|2:0,2:0:0:0:
328,181,70320,2,0,L|312:286,1,71.2500027179719,2|0,1:2|2:0,2:0:0:0:
512,351,70633,2,0,L|407:367,1,106.875004076958,0|0,1:0|2:0,2:0:0:0:
394,360,70945,6,0,P|383:326|403:281,1,71.25,2|0,2:0|2:0,2:0:0:0:
474,183,71258,1,2,2:0:0:0:
317,251,71414,1,2,2:0:0:0:
472,94,71570,2,0,P|436:97|402:133,1,71.25,10|0,2:0|2:0,2:0:0:0:
321,156,71883,2,0,P|285:152|251:116,1,71.25,2|0,2:0|2:0,2:0:0:0:
401,222,72195,1,0,1:0:0:0:
281,370,72508,6,0,L|297:265,1,106.875004076958,2|0,1:2|2:0,2:0:0:0:
301,243,72820,1,2,2:0:0:0:
371,321,72976,1,2,2:0:0:0:
325,113,73133,1,2,2:0:0:0:
164,243,73289,1,2,2:0:0:0:
58,155,73445,2,0,P|10:168|-17:208,1,71.2500027179719,10|0,2:0|2:0,2:0:0:0:
234,200,73758,2,0,P|198:164|150:161,1,71.2500027179719,2|0,1:2|2:0,2:0:0:0:
283,374,74070,2,0,P|295:325|274:282,1,71.2500027179719,0|0,1:0|2:0,2:0:0:0:
70,306,74383,6,0,L|226:331,2,142.500005435944,2|0|2,1:2|2:0|2:0,2:0:0:0:
9,85,75320,1,10,2:0:0:0:
102,222,75633,1,2,2:0:0:0:
178,143,75945,2,0,P|226:156|253:196,1,71.2500027179719,2|0,1:2|2:0,2:0:0:0:
293,384,76258,2,0,L|316:244,1,142.500005435944,2|0,1:2|2:0,2:0:0:0:
447,111,76726,1,0,2:0:0:0:
447,111,76883,2,0,P|399:124|372:164,1,71.2500027179719,0|0,2:0|2:0,2:0:0:0:
210,271,77195,5,10,2:0:0:0:
210,52,77351,1,8,3:0:0:0:
81,229,77508,1,2,1:2:0:0:
290,161,77664,1,8,3:0:0:0:
81,94,77820,1,2,1:2:0:0:
312,165,77976,1,8,3:0:0:0:
56,312,78133,6,0,P|15:285|29:158,1,185.249991519928,6|0,1:2|2:0,2:0:0:0:
81,94,78758,2,0,P|110:134|105:182,1,71.2500027179719,0|0,2:0|2:0,2:0:0:0:
195,360,79070,2,0,L|324:341,1,71.2500027179719,10|0,2:0|2:0,2:0:0:0:
327,297,79383,2,0,L|456:316,1,71.2500027179719,2|0,2:0|2:0,2:0:0:0:
460,366,79695,1,2,1:2:0:0:
460,366,79851,1,2,2:0:0:0:
443,157,80008,6,0,P|484:224|464:297,1,142.500005435944,6|0,1:2|2:0,2:0:0:0:
472,283,80476,1,0,2:0:0:0:
373,74,80633,1,0,2:0:0:0:
242,265,80945,1,8,2:0:0:0:
112,2,81258,6,0,L|96:77,1,71.2500027179719,2|0,1:2|2:0,2:0:0:0:
174,204,81570,2,0,L|158:132,1,71.2500027179719,2|0,1:2|2:0,2:0:0:0:
10,231,81883,2,0,B|130:198|95:330|214:283,1,213.750008153916,6|0,1:2|2:0,2:0:0:0:
271,325,82508,2,0,P|280:287|246:230,1,71.2500027179719,2|0,2:0|2:0,2:0:0:0:
229,12,82820,2,0,B|261:132|137:97|177:216,1,213.750008153916,14|0,2:0|2:0,2:0:0:0:
147,44,83445,1,2,1:2:0:0:
255,185,83601,1,0,2:0:0:0:
407,111,83758,6,0,P|382:86|348:76,1,71.2500027179719,6|0,1:2|2:0,2:0:0:0:
255,185,84070,2,0,P|279:160|313:150,1,71.2500027179719,0|0,2:0|2:0,2:0:0:0:
425,264,84383,2,0,P|415:229|391:204,1,71.2500027179719,0|0,2:0|2:0,2:0:0:0:
279,324,84695,2,0,P|288:289|312:264,1,71.2500027179719,8|0,2:0|2:0,2:0:0:0:
178,367,85008,6,0,L|103:351,1,71.2500027179719,2|0,1:2|2:0,2:0:0:0:
1,283,85320,2,0,L|70:268,1,71.2500027179719,2|0,1:2|2:0,2:0:0:0:
188,78,85633,5,6,1:2:0:0:
188,78,85945,2,0,P|117:116|114:202,1,142.500005435944,2|0,2:0|2:0,2:0:0:0:
257,147,86570,1,14,2:0:0:0:
257,147,86882,2,0,P|236:213|173:240,1,142.500005435944,2|2,2:0|1:2,2:0:0:0:
281,59,87508,5,6,1:2:0:0:
348,219,87820,1,2,2:0:0:0:
406,122,88133,1,2,2:0:0:0:
461,334,88445,5,10,2:0:0:0:
505,166,88758,1,0,1:0:0:0:
338,212,89070,1,0,1:0:0:0:
127,42,89383,5,6,1:2:0:0:
221,7,89695,2,0,L|191:157,1,142.500005435944,2|0,2:0|2:0,2:0:0:0:
66,314,90320,1,14,2:0:0:0:
160,349,90632,2,0,L|130:199,1,142.500005435944,2|0,2:0|1:0,2:0:0:0:
16,92,91258,5,6,1:2:0:0:
193,146,91570,1,2,2:0:0:0:
57,272,91883,1,2,2:0:0:0:
122,62,92195,5,10,2:0:0:0:
193,146,92351,1,8,2:3:0:0:
283,19,92508,1,0,1:0:0:0:
356,217,92664,1,8,2:3:0:0:
495,117,92820,2,0,P|470:92|436:82,1,71.2500027179719,2|8,1:2|2:3,2:0:0:0:
366,116,93133,1,2,2:0:0:0:
366,116,95008,5,2,2:0:0:0:
290,100,95633,1,2,1:2:0:0:
321,181,95789,1,0,3:0:0:0:
321,181,95867,1,0,3:0:0:0:
321,181,95945,2,0,P|291:186|262:177,1,61.7499971733095,10|0,2:0|2:0,2:0:0:0:
156,109,96258,2,0,P|185:103|214:112,1,61.7499971733095,2|0,1:2|1:0,2:0:0:0:
264,291,96570,1,2,1:2:0:0:
182,197,96726,1,0,1:0:0:0:
121,309,96883,6,0,L|-29:279,2,123.499994346619,6|2|2,1:2|2:0|2:0,2:0:0:0:
304,172,97820,1,10,2:0:0:0:
264,291,98133,1,2,2:0:0:0:
385,113,98445,1,2,1:2:0:0:
429,358,98758,1,2,1:2:0:0:
429,358,99070,6,0,L|444:283,1,61.7499971733095,2|0,2:0|2:0,2:0:0:0:
375,253,99383,2,0,L|360:178,1,61.7499971733095,2|0,2:0|2:0,2:0:0:0:
362,192,99617,1,0,3:0:0:0:
362,192,99695,1,8,2:0:0:0:
219,103,100008,1,0,1:0:0:0:
70,241,100320,1,0,1:0:0:0:
0,39,100633,5,2,1:2:0:0:
98,124,100945,1,2,2:0:0:0:
0,194,101258,1,2,2:0:0:0:
116,345,101570,1,10,2:0:0:0:
203,253,101883,1,2,2:0:0:0:
275,370,102195,2,0,L|350:355,1,61.7499971733095,2|0,1:2|2:0,2:0:0:0:
429,260,102508,5,2,1:2:0:0:
297,227,102820,1,2,2:0:0:0:
335,357,103133,1,2,2:0:0:0:
357,285,103289,1,0,3:0:0:0:
357,285,103367,1,0,3:0:0:0:
357,285,103445,1,10,2:0:0:0:
486,136,103758,2,0,L|471:61,1,61.7499971733095,2|0,1:2|2:0,2:0:0:0:
512,304,104070,2,0,L|497:379,1,61.7499971733095,2|0,1:2|2:0,2:0:0:0:
407,171,104383,5,2,1:2:0:0:
470,228,104695,1,2,2:0:0:0:
324,155,105008,1,2,2:0:0:0:
182,258,105320,1,10,2:0:0:0:
74,203,105633,1,2,2:0:0:0:
23,371,105945,1,2,1:2:0:0:
175,136,106258,1,2,1:2:0:0:
12,31,106570,6,0,L|-3:106,1,61.7499971733095,2|0,2:0|2:0,2:0:0:0:
66,136,106883,2,0,L|81:211,1,61.7499971733095,2|0,2:0|2:0,2:0:0:0:
79,197,107117,1,0,3:0:0:0:
79,197,107195,1,10,2:0:0:0:
291,34,107508,5,0,1:0:0:0:
223,93,107664,1,0,2:0:0:0:
309,123,107820,1,0,1:0:0:0:
205,4,107976,1,0,2:0:0:0:
166,162,108133,5,6,1:2:0:0:
28,213,108289,1,2,2:0:0:0:
223,93,108445,1,2,2:0:0:0:
314,227,108601,1,2,2:0:0:0:
425,150,108758,2,0,P|456:157|482:199,1,61.7499971733095,2|0,2:0|2:0,2:0:0:0:
314,227,109070,2,0,L|339:106,1,123.499994346619,10|0,2:0|2:0,2:0:0:0:
451,269,109695,2,0,L|390:281,1,61.7499971733095,0|0,1:0|2:0,2:0:0:0:
213,282,110008,6,0,P|247:331|306:339,1,123.499994346619,2|2,1:2|2:0,2:0:0:0:
306,339,110633,1,2,2:0:0:0:
143,329,110789,1,0,3:0:0:0:
143,329,110867,1,0,3:0:0:0:
143,329,110945,2,0,P|140:358|116:377,1,61.7499971733095,10|0,2:0|2:0,2:0:0:0:
0,306,111258,2,0,L|61:318,1,61.7499971733095,2|0,1:2|2:0,2:0:0:0:
273,270,111570,2,0,L|212:282,1,61.7499971733095,2|0,1:2|2:0,2:0:0:0:
29,181,111883,5,2,1:2:0:0:
152,141,112039,1,2,2:0:0:0:
29,101,112195,1,2,2:0:0:0:
106,207,112351,1,2,2:0:0:0:
105,76,112508,1,2,2:0:0:0:
105,76,112820,2,0,L|226:101,1,123.499994346619,10|0,2:0|2:0,2:0:0:0:
357,27,113445,2,0,L|296:39,1,61.7499971733095,0|0,1:0|2:0,2:0:0:0:
429,80,113758,6,0,P|460:87|486:129,1,61.7499971733095,2|0,1:2|2:0,2:0:0:0:
497,185,114070,2,0,P|506:215|483:258,1,61.7499971733095,2|0,2:0|2:0,2:0:0:0:
440,296,114383,2,0,P|418:319|369:320,1,61.7499971733095,2|0,2:0|2:0,2:0:0:0:
390,326,114617,1,0,3:0:0:0:
390,326,114695,1,10,2:0:0:0:
192,222,115008,1,0,1:0:0:0:
192,222,115164,1,0,2:0:0:0:
273,346,115320,2,0,L|290:261,1,61.7499971733095,0|0,1:0|2:0,2:0:0:0:
498,243,115633,6,0,L|377:218,1,123.499994346619,2|2,1:2|2:0,2:0:0:0:
378,218,116258,1,2,2:0:0:0:
317,117,116570,2,0,L|196:142,1,123.499994346619,10|2,2:0|2:0,2:0:0:0:
432,128,117195,1,0,1:0:0:0:
278,289,117508,6,0,L|266:228,1,61.7499971733095,2|0,1:2|2:0,2:0:0:0:
184,202,117820,2,0,L|196:141,1,61.7499971733095,2|0,2:0|2:0,2:0:0:0:
107,247,118133,1,2,2:0:0:0:
60,177,118289,5,0,3:0:0:0:
60,177,118367,1,0,3:0:0:0:
60,177,118445,2,0,L|-1:189,1,61.7499971733095,10|0,2:0|2:0,2:0:0:0:
134,325,118758,2,0,P|161:312|178:286,1,61.7499971733095,2|0,1:2|2:0,2:0:0:0:
195,141,119070,2,0,P|216:162|222:192,1,61.7499971733095,2|0,1:2|2:0,2:0:0:0:
366,358,119383,6,0,B|327:214|485:256|423:112,1,246.999988693238,2|0,1:2|2:0,2:0:0:0:
512,78,120320,2,0,L|246:134,1,246.999988693238,8|2,2:0|1:2,2:0:0:0:
95,26,121258,2,0,L|243:57,1,123.499994346619,2|0,1:2|2:0,2:0:0:0:
215,51,121726,1,0,2:0:0:0:
52,166,121883,1,0,2:0:0:0:
136,130,122039,1,0,3:0:0:0:
136,130,122117,1,0,3:0:0:0:
136,130,122195,1,10,1:2:0:0:
31,344,122508,1,2,1:2:0:0:
136,130,122820,1,2,1:2:0:0:
268,327,123133,6,0,L|483:292,1,213.750008153916,6|0,1:2|2:0,2:0:0:0:
511,222,123758,2,0,P|510:186|471:146,1,71.2500027179719,0|0,2:0|2:0,2:0:0:0:
240,63,124070,2,0,P|267:86|323:84,1,71.2500027179719,10|0,2:0|2:0,2:0:0:0:
332,5,124383,2,0,L|359:171,1,142.500005435944,2|2,2:0|1:2,2:0:0:0:
423,44,124851,1,0,2:0:0:0:
376,238,125008,2,0,P|307:228|267:172,1,142.500005435944,2|0,1:2|2:0,2:0:0:0:
267,172,125476,1,0,2:0:0:0:
139,357,125633,1,0,2:0:0:0:
139,357,125945,6,0,P|104:351|78:329,1,71.2500027179719,10|0,2:0|2:0,2:0:0:0:
8,279,126258,2,0,P|29:251|63:239,1,71.2500027179719,2|0,1:2|2:0,2:0:0:0:
141,204,126570,2,0,P|153:236|147:271,1,71.2500027179719,2|0,1:2|2:0,2:0:0:0:
20,36,126883,6,0,L|175:10,2,142.500005435944,2|2|2,1:2|2:0|2:0,2:0:0:0:
235,203,127820,1,10,2:0:0:0:
341,91,128133,1,2,2:0:0:0:
424,237,128445,2,0,P|472:218|487:158,1,71.2500027179719,2|0,1:2|2:0,2:0:0:0:
295,28,128758,2,0,L|320:184,1,142.500005435944,6|0,1:2|2:0,2:0:0:0:
317,168,129226,1,0,2:0:0:0:
244,246,129383,2,0,P|196:227|181:167,1,71.2500027179719,0|0,2:0|2:0,2:0:0:0:
20,36,129695,6,0,L|97:23,1,71.2500027179719,10|0,2:0|2:0,2:0:0:0:
269,107,130008,2,0,L|191:94,1,71.2500027179719,2|0,1:2|2:0,2:0:0:0:
47,167,130320,2,0,L|125:155,1,71.2500027179719,2|0,1:2|2:0,2:0:0:0:
201,371,130633,1,0,1:0:0:0:
201,371,130945,6,0,P|212:337|192:292,1,71.25,2|0,2:0|2:0,2:0:0:0:
117,156,131258,1,2,2:0:0:0:
274,88,131414,1,2,2:0:0:0:
119,245,131570,2,0,P|155:242|189:206,1,71.25,10|0,2:0|2:0,2:0:0:0:
270,183,131883,2,0,P|306:187|340:223,1,71.25,2|0,2:0|2:0,2:0:0:0:
190,117,132195,1,0,1:0:0:0:
93,331,132508,6,0,L|77:226,1,106.875004076958,2|0,1:2|2:0,2:0:0:0:
73,204,132820,1,2,2:0:0:0:
3,282,132976,1,2,2:0:0:0:
47,81,133133,1,2,2:0:0:0:
210,204,133289,1,2,2:0:0:0:
316,116,133445,2,0,P|364:129|391:169,1,71.2500027179719,10|0,2:0|2:0,2:0:0:0:
140,161,133758,2,0,P|176:125|224:122,1,71.2500027179719,2|0,1:2|2:0,2:0:0:0:
91,335,134070,2,0,P|79:286|100:243,1,71.2500027179719,0|0,1:0|2:0,2:0:0:0:
304,267,134383,6,0,L|148:292,2,142.500005435944,2|0|2,1:2|2:0|2:0,2:0:0:0:
509,236,135320,1,10,2:0:0:0:
456,384,135633,1,2,2:0:0:0:
238,143,135945,2,0,P|286:156|313:196,1,71.2500027179719,2|0,1:2|2:0,2:0:0:0:
353,384,136258,2,0,L|376:244,1,142.500005435944,2|0,1:2|2:0,2:0:0:0:
507,111,136726,1,0,2:0:0:0:
507,111,136883,2,0,P|459:124|432:164,1,71.2500027179719,0|0,2:0|2:0,2:0:0:0:
257,246,137195,5,10,2:0:0:0:
257,27,137351,1,8,3:0:0:0:
386,204,137508,1,2,1:2:0:0:
177,136,137664,1,8,3:0:0:0:
386,69,137820,1,2,1:2:0:0:
157,130,137976,1,8,3:0:0:0:
411,287,138133,6,0,P|452:260|438:133,1,185.249991519928,6|0,1:2|2:0,2:0:0:0:
386,69,138758,2,0,P|432:48|462:51,1,71.2500027179719,0|0,2:0|2:0,2:0:0:0:
386,204,139070,2,0,L|309:191,1,71.2500027179719,10|0,2:0|2:0,2:0:0:0:
245,77,139383,2,0,L|168:90,1,71.2500027179719,2|0,2:0|2:0,2:0:0:0:
103,184,139695,1,2,1:2:0:0:
103,184,139851,1,2,2:0:0:0:
183,345,140008,6,0,L|206:205,1,142.500005435944,6|0,1:2|2:0,2:0:0:0:
206,204,140476,1,0,2:0:0:0:
88,267,140633,2,0,P|43:243|27:218,1,71.2500027179719,0|0,2:0|2:0,2:0:0:0:
133,0,140945,1,8,2:0:0:0:
133,0,141258,6,0,L|117:75,1,71.2500027179719,2|0,1:2|2:0,2:0:0:0:
195,202,141570,2,0,L|179:130,1,71.2500027179719,2|0,1:2|2:0,2:0:0:0:
31,229,141883,2,0,B|151:196|116:328|235:281,1,213.750008153916,6|0,1:2|2:0,2:0:0:0:
292,323,142508,2,0,P|301:285|267:228,1,71.2500027179719,2|0,2:0|2:0,2:0:0:0:
250,10,142820,2,0,B|282:130|158:95|198:214,1,213.750008153916,14|0,2:0|2:0,2:0:0:0:
168,42,143445,1,2,1:2:0:0:
276,183,143601,1,0,2:0:0:0:
428,109,143758,6,0,P|403:84|369:74,1,71.2500027179719,6|0,1:2|2:0,2:0:0:0:
276,183,144070,2,0,P|300:158|334:148,1,71.2500027179719,0|0,2:0|2:0,2:0:0:0:
411,199,144383,2,0,P|420:232|412:266,1,71.2500027179719,0|0,2:0|2:0,2:0:0:0:
269,273,144695,2,0,P|294:298|329:307,1,71.2500027179719,8|0,2:0|2:0,2:0:0:0:
512,103,145008,6,0,L|496:178,1,71.2500027179719,2|0,1:2|2:0,2:0:0:0:
413,39,145320,2,0,L|429:114,1,71.2500027179719,2|0,1:2|2:0,2:0:0:0:
492,349,145633,5,6,1:2:0:0:
492,349,145945,2,0,L|352:372,1,142.500005435944,2|0,2:0|2:0,2:0:0:0:
209,298,146570,1,14,2:0:0:0:
209,298,146882,2,0,L|297:312,1,71.2500027179719,2|0,2:0|2:0,2:0:0:0:
365,274,147195,2,0,P|366:238|350:207,1,71.2500027179719,2|0,1:2|2:0,2:0:0:0:
61,87,147508,6,0,P|85:62|119:52,1,71.2500027179719,6|0,1:2|2:0,2:0:0:0:
196,103,147821,2,0,P|205:136|197:170,1,71.2500027179719,2|0,2:0|2:0,2:0:0:0:
113,210,148133,2,0,P|79:201|54:177,1,71.2500027179719,2|0,2:0|2:0,2:0:0:0:
186,266,148445,2,0,L|171:354,1,71.2500027179719,10|0,2:0|2:0,2:0:0:0:
283,220,148758,2,0,L|297:308,1,71.2500027179719,0|0,1:0|2:0,2:0:0:0:
401,45,149070,1,0,1:0:0:0:
381,359,149383,5,6,1:2:0:0:
381,359,149695,2,0,L|406:218,1,142.500005435944,2|0,2:0|2:0,2:0:0:0:
258,79,150320,1,14,2:0:0:0:
258,79,150632,2,0,L|283:220,1,142.500005435944,2|0,2:0|1:0,2:0:0:0:
5,305,151258,5,6,1:2:0:0:
182,251,151570,1,2,2:0:0:0:
46,125,151883,1,2,2:0:0:0:
111,335,152195,5,10,2:0:0:0:
182,251,152351,1,8,2:3:0:0:
272,378,152508,1,0,1:0:0:0:
345,180,152664,1,8,2:3:0:0:
484,280,152820,2,0,P|459:305|425:315,1,71.2500027179719,2|8,1:2|2:3,2:0:0:0:
354,280,153133,2,0,B|318:174|442:209|410:89,1,213.750008153916,6|0,2:0|2:0,2:0:0:0:
402,69,153758,1,0,1:0:0:0:
251,179,154070,6,0,P|217:168|192:144,1,71.2500027179719,10|0,2:0|2:0,2:0:0:0:
158,71,154383,1,2,2:0:0:0:
23,249,154695,2,0,P|56:238|81:214,1,71.2500027179719,2|0,2:0|2:0,2:0:0:0:
51,37,155008,2,0,P|68:96|112:140,1,123.499994346619,2|0,1:2|2:0,2:0:0:0:
110,139,155476,1,0,2:0:0:0:
208,40,155633,2,0,P|179:49|158:71,1,61.7499971733095,2|0,2:0|2:0,2:0:0:0:
332,109,155945,2,0,P|309:87|280:79,1,61.7499971733095,10|0,2:0|2:0,2:0:0:0:
334,249,156258,2,0,P|341:219|333:189,1,61.7499971733095,0|0,1:0|2:0,2:0:0:0:
213,320,156570,2,0,P|242:311|263:289,1,61.7499971733095,0|0,1:0|2:0,2:0:0:0:
81,214,156883,5,2,1:2:0:0:
208,40,157195,1,2,2:0:0:0:
208,40,157351,2,0,L|183:181,1,123.499994346619,2|0,2:0|2:0,2:0:0:0:
252,209,157820,2,0,P|281:200|302:178,1,61.7499971733095,10|0,2:0|2:0,2:0:0:0:
363,128,158133,2,0,P|392:136|413:158,1,61.7499971733095,2|0,2:0|2:0,2:0:0:0:
470,213,158445,1,2,2:0:0:0:
470,213,158601,1,0,2:0:0:0:
372,342,158758,2,0,P|363:278|399:226,2,123.499994346619,2|0|2,1:2|2:0|2:0,2:0:0:0:
486,138,159695,5,10,2:0:0:0:
393,230,159851,1,8,3:0:0:0:
344,33,160008,1,0,1:0:0:0:
344,33,160164,1,8,3:0:0:0:
198,174,160320,2,0,P|168:165|147:143,1,61.7499971733095,0|8,1:0|3:0,2:0:0:0:
65,2,160633,5,6,1:2:0:0:
0,154,160945,1,2,2:0:0:0:
208,0,161258,1,2,1:2:0:0:
261,244,161570,1,10,2:0:0:0:
407,142,161883,1,2,2:0:0:0:
438,346,162195,2,0,P|467:337|488:315,1,61.7499971733095,2|0,2:0|2:0,2:0:0:0:
292,151,162508,5,2,1:2:0:0:
240,323,162820,1,2,2:0:0:0:
117,191,163133,1,2,2:0:0:0:
50,384,163445,2,0,P|20:375|0:353,1,61.7499971733095,10|0,2:0|2:0,2:0:0:0:
159,267,163758,2,0,L|143:356,1,61.7499971733095,2|0,1:2|2:0,2:0:0:0:
30,101,164070,2,0,L|45:190,1,61.7499971733095,2|0,1:2|2:0,2:0:0:0:
247,56,164383,6,0,P|201:17|141:17,1,123.499994346619,2|2,1:2|2:0,2:0:0:0:
140,17,164851,1,0,2:0:0:0:
112,108,165008,2,0,L|201:92,1,61.7499971733095,2|0,1:2|2:0,2:0:0:0:
305,152,165320,2,0,L|215:136,1,61.7499971733095,10|0,2:0|2:0,2:0:0:0:
355,17,165633,2,0,L|339:106,1,61.7499971733095,2|0,2:0|2:0,2:0:0:0:
399,210,165945,2,0,L|383:120,1,61.7499971733095,2|0,2:0|2:0,2:0:0:0:
477,261,166258,6,0,P|430:299|370:300,1,123.499994346619,0|0,1:0|3:0,2:0:0:0:
370,300,166726,1,0,3:0:0:0:
326,239,166883,2,0,P|304:260|295:289,1,61.7499971733095,0|0,3:0|2:0,2:0:0:0:
321,366,167195,5,10,2:0:0:0:
477,189,167351,1,2,2:0:0:0:
247,140,167508,1,2,1:2:0:0:
449,322,167664,1,2,2:0:0:0:
376,98,167820,1,2,1:2:0:0:
219,273,167976,1,2,2:0:0:0:
145,49,168133,6,0,P|87:68|56:119,1,123.499994346619,2|0,1:2|2:0,2:0:0:0:
56,120,168601,1,0,2:0:0:0:
108,187,168758,2,0,P|130:166|139:137,1,61.7499971733095,0|0,1:0|2:0,2:0:0:0:
207,0,169070,2,0,P|222:25|224:56,1,61.7499971733095,8|0,2:0|2:0,2:0:0:0:
298,237,169383,6,0,L|387:221,1,61.7499971733095,2|0,2:0|2:0,2:0:0:0:
496,167,169695,2,0,L|407:151,1,61.7499971733095,0|0,1:0|2:0,2:0:0:0:
465,351,170008,2,0,L|449:262,1,61.7499971733095,10|0,1:2|2:0,2:0:0:0:
357,77,170320,2,0,L|346:137,1,61.7499971733095,8|0,1:2|2:0,2:0:0:0:
211,384,170633,2,0,L|195:295,1,61.7499971733095,8|0,1:2|2:0,2:0:0:0:
145,47,170945,1,12,1:2:0:0:
42,344,183133,6,0,L|230:312,1,190,2|0,1:2|2:0,2:0:0:0:
23,189,184070,1,0,1:2:0:0:
23,189,184383,2,0,P|-1:234|12:277,2,95,2|2|2,2:0|2:0|1:2,2:0:0:0:
170,46,185320,2,0,L|162:92,1,47.5,0|0,2:0|2:0,2:0:0:0:
87,108,185633,2,0,L|94:154,1,47.5,0|0,2:0|2:0,2:0:0:0:
117,264,185945,1,10,1:2:0:0:
243,83,186258,1,2,1:2:0:0:
319,359,186570,1,2,1:2:0:0:
0,117,186883,6,0,B|113:86|80:210|202:171,1,213.750008153916,6|0,1:2|2:0,2:0:0:0:
229,95,187508,2,0,P|195:84|161:91,1,71.2500027179719,0|0,2:0|2:0,2:0:0:0:
209,367,187820,2,0,L|221:293,1,71.2500027179719,10|0,2:0|2:0,2:0:0:0:
294,201,188133,2,0,L|306:271,1,71.2500027179719,2|0,2:0|2:0,2:0:0:0:
324,362,188445,1,2,1:2:0:0:
324,362,188601,1,0,2:0:0:0:
512,288,188758,6,0,P|464:323|379:292,1,142.500005435944,2|0,1:2|2:0,2:0:0:0:
456,173,189226,1,0,2:0:0:0:
456,173,189383,2,0,L|443:243,1,71.2500027179719,0|0,2:0|2:0,2:0:0:0:
325,130,189695,2,0,P|354:110|389:107,1,71.2500027179719,10|0,2:0|2:0,2:0:0:0:
230,202,190008,2,0,P|228:166|243:134,1,71.2500027179719,2|0,1:2|2:0,2:0:0:0:
244,320,190320,2,0,P|212:304|192:274,1,71.2500027179719,2|0,1:2|2:0,2:0:0:0:
145,39,190633,6,0,P|76:42|35:98,2,142.500005435944,0|2|2,1:2|2:0|2:0,2:0:0:0:
51,258,191570,1,10,2:0:0:0:
115,121,191883,1,2,2:0:0:0:
244,330,192195,2,0,P|292:311|307:251,1,71.2500027179719,2|0,1:2|2:0,2:0:0:0:
115,121,192508,2,0,L|140:277,1,142.500005435944,6|0,1:2|2:0,2:0:0:0:
137,261,192976,1,0,2:0:0:0:
64,339,193133,6,0,P|16:320|1:260,1,71.2500027179719,0|0,2:0|2:0,2:0:0:0:
208,205,193445,2,0,L|286:217,1,71.2500027179719,10|0,2:0|2:0,2:0:0:0:
486,278,193758,2,0,L|408:290,1,71.2500027179719,2|0,2:0|2:0,2:0:0:0:
255,347,194070,2,0,L|333:359,1,71.2500027179719,2|0,1:2|2:0,2:0:0:0:
434,204,194383,2,0,L|416:94,1,106.875004076958,0|0,1:0|2:0,2:0:0:0:
415,80,194695,6,0,P|367:99|352:159,1,71.2500027179719,2|0,2:0|2:0,2:0:0:0:
311,273,195008,1,2,2:0:0:0:
234,68,195164,1,2,2:0:0:0:
112,200,195320,2,0,P|64:181|49:121,1,71.2500027179719,10|0,2:0|2:0,2:0:0:0:
234,68,195633,2,0,P|250:116|213:167,1,71.2500027179719,2|0,2:0|2:0,2:0:0:0:
227,272,195945,1,0,1:0:0:0:
227,272,196258,6,0,L|336:289,1,106.875004076958,2|0,1:2|2:0,2:0:0:0:
354,294,196570,1,2,2:0:0:0:
272,360,196726,1,2,2:0:0:0:
346,120,196883,1,2,2:0:0:0:
489,315,197039,1,2,2:0:0:0:
253,34,197195,6,0,P|205:47|178:87,1,71.2500027179719,10|0,2:0|2:0,2:0:0:0:
416,81,197508,2,0,P|380:45|332:42,1,71.2500027179719,2|0,1:2|2:0,2:0:0:0:
456,245,197820,2,0,P|469:195|447:152,1,71.2500027179719,0|0,1:2|2:0,2:0:0:0:
243,176,198133,6,0,L|399:201,2,142.500005435944,2|2|2,1:2|2:0|2:0,2:0:0:0:
13,139,199070,1,10,2:0:0:0:
81,92,199383,2,0,P|97:140|60:191,1,71.2500027179719,2|0,2:0|2:0,2:0:0:0:
38,220,199695,1,2,1:2:0:0:
38,220,199851,1,0,2:0:0:0:
103,310,200008,6,0,L|116:228,1,71.2500027179719,2|0,1:2|2:0,2:0:0:0:
219,88,200320,2,0,L|230:158,1,71.2500027179719,0|0,2:0|2:0,2:0:0:0:
304,367,200633,2,0,L|317:285,1,71.2500027179719,0|0,2:0|2:0,2:0:0:0:
357,82,200945,5,10,2:0:0:0:
315,296,201101,1,8,3:0:0:0:
222,98,201258,1,2,1:2:0:0:
414,205,201414,1,8,3:0:0:0:
196,231,201570,1,2,1:2:0:0:
436,205,201726,1,8,3:0:0:0:
213,12,201883,6,0,P|167:30|157:158,1,185.249991519928,6|0,1:2|2:0,2:0:0:0:
196,231,202508,2,0,P|235:199|232:136,1,71.2500027179719,0|0,2:0|2:0,2:0:0:0:
318,73,202820,2,0,P|345:115|323:174,1,71.2500027179719,10|0,2:0|2:0,2:0:0:0:
338,250,203133,2,0,L|494:275,1,142.500005435944,2|2,2:0|1:2,2:0:0:0:
478,272,203601,1,0,2:0:0:0:
512,194,203758,6,0,P|493:146|432:131,1,71.2500027179719,6|0,1:2|2:0,2:0:0:0:
410,80,204070,1,0,2:0:0:0:
424,201,204226,1,0,2:0:0:0:
480,0,204383,1,0,2:0:0:0:
196,53,204695,1,8,2:0:0:0:
196,53,205008,6,0,L|212:128,1,71.2500027179719,2|0,1:2|2:0,2:0:0:0:
134,255,205320,2,0,L|150:183,1,71.2500027179719,2|0,1:2|2:0,2:0:0:0:
298,282,205633,2,0,B|178:249|213:381|94:334,1,213.750008153916,6|0,1:2|2:0,2:0:0:0:
37,376,206258,2,0,P|28:338|62:281,1,71.2500027179719,2|0,2:0|2:0,2:0:0:0:
79,63,206570,2,0,B|47:183|171:148|131:267,1,213.750008153916,14|0,2:0|2:0,2:0:0:0:
161,95,207195,1,2,1:2:0:0:
53,236,207351,1,0,2:0:0:0:
187,12,207508,6,0,P|229:39|231:102,1,71.2500027179719,6|0,1:2|2:0,2:0:0:0:
230,143,207820,2,0,P|192:176|130:162,1,71.2500027179719,2|0,2:0|2:0,2:0:0:0:
90,151,208133,2,0,P|66:106|95:49,1,71.2500027179719,2|0,2:0|2:0,2:0:0:0:
103,240,208445,2,0,L|92:310,1,71.2500027179719,8|0,2:0|2:0,2:0:0:0:
225,384,208758,6,0,L|214:314,1,71.2500027179719,2|0,1:2|2:0,2:0:0:0:
392,160,209070,1,2,1:2:0:0:
446,381,209383,5,6,1:2:0:0:
446,381,209695,2,0,L|296:357,1,142.500005435944,2|0,2:0|2:0,2:0:0:0:
154,263,210320,5,14,2:0:0:0:
154,263,210632,2,0,L|303:239,1,142.500005435944,2|2,2:0|1:2,2:0:0:0:
500,206,211258,5,6,1:2:0:0:
375,116,211570,1,2,2:0:0:0:
424,298,211883,1,2,2:0:0:0:
461,55,212195,2,0,P|503:82|505:145,1,71.2500027179719,10|0,2:0|2:0,2:0:0:0:
310,136,212508,2,0,P|355:113|410:143,1,71.2500027179719,0|0,1:0|2:0,2:0:0:0:
304,307,212820,2,0,P|307:256|360:223,1,71.2500027179719,0|0,1:0|2:0,2:0:0:0:
199,378,213133,5,6,1:2:0:0:
199,378,213445,2,0,L|58:355,1,142.500005435944,2|0,2:0|2:0,2:0:0:0:
0,254,214070,1,14,2:0:0:0:
0,254,214382,2,0,L|140:231,1,142.500005435944,2|0,2:0|1:0,2:0:0:0:
286,114,215008,5,6,1:2:0:0:
305,308,215320,1,2,2:0:0:0:
383,75,215633,1,2,2:0:0:0:
244,219,215945,5,10,2:0:0:0:
305,308,216101,1,8,3:0:0:0:
362,166,216258,1,0,1:0:0:0:
424,259,216414,1,8,3:0:0:0:
509,103,216570,2,0,P|517:73|495:27,1,71.2500027179719,2|8,1:2|3:0,2:0:0:0:
301,92,216883,6,0,P|367:87|433:75,1,132.999995941162,2|0,2:0|2:0,2:0:0:0:
