osu file format v14

[General]
AudioFilename: audio.mp3
AudioLeadIn: 0
PreviewTime: 185945
Countdown: 0
SampleSet: Soft
StackLeniency: 0.5
Mode: 0
LetterboxInBreaks: 0
WidescreenStoryboard: 0

[Editor]
DistanceSpacing: 1.1
BeatDivisor: 4
GridSize: 8
TimelineZoom: 1

[Metadata]
Title:Look at me
TitleUnicode:Look at me
Artist:Girl's Day
ArtistUnicode:걸스데이
Creator:Nabori
Version:Insane
Source:
Tags:syph [im nayeon] kpop k-pop pop love dreamt entertainment ent girls 소진 유라 민아 혜리 sojin minah yura hyeri korean girls iyiyo yiyo
BeatmapID:3580610
BeatmapSetID:1749429

[Difficulty]
HPDrainRate:5
CircleSize:4.5
OverallDifficulty:7
ApproachRate:8
SliderMultiplier:1.6
SliderTickRate:1

[Events]
//Background and Video events
0,0,"bg.jpg",0,0
//Break Periods
2,93445,94851
2,173054,182273
//Storyboard Layer 0 (Background)
//Storyboard Layer 1 (Fail)
//Storyboard Layer 2 (Pass)
//Storyboard Layer 3 (Foreground)
//Storyboard Layer 4 (Overlay)
//Storyboard Sound Samples

[TimingPoints]
3148,625,3,2,85,60,1,0
3460,-100,3,2,86,60,0,0
4085,-100,3,2,85,60,0,0
4397,-100,3,2,86,60,0,0
5023,-100,3,2,85,60,0,0
5335,-100,3,2,86,60,0,0
5960,-100,3,2,85,60,0,0
6272,-100,3,2,86,60,0,0
6898,-100,3,2,87,60,0,0
7210,-100,3,2,88,60,0,0
7835,-100,3,2,87,60,0,0
8147,-100,3,2,88,60,0,0
8773,-100,3,2,89,60,0,0
9085,-100,3,2,86,60,0,0
9710,-100,3,2,89,60,0,0
10022,-100,3,2,86,60,0,0
10648,-100,3,2,90,60,0,0
10960,-100,3,2,86,60,0,0
11585,-100,3,2,96,60,0,0
11897,-100,3,2,86,60,0,0
12523,-100,3,2,94,60,0,0
12835,-100,3,2,86,60,0,0
13460,-100,3,2,95,60,0,0
13772,-100,3,2,88,60,0,0
14398,-100,3,2,95,60,0,0
14710,-100,3,2,88,60,0,0
15335,-100,3,2,95,60,0,0
15647,-100,3,2,88,60,0,0
16273,-100,3,2,97,60,0,0
17210,-100,3,2,98,60,0,0
17366,-100,3,2,99,60,0,0
17522,-100,3,2,98,60,0,0
17678,-100,3,2,100,60,0,0
17835,-100,3,2,84,60,0,0
18133,625,3,2,1,65,1,0
19695,-83.3333333333333,4,2,1,65,0,0
33133,-74.0740740740741,4,2,1,70,0,0
36883,-45.4545454545455,4,2,1,70,0,0
38445,-74.0740740740741,4,2,1,70,0,0
38758,-399.999999999997,4,2,1,70,0,0
40008,-74.0740740740741,4,2,1,70,0,0
43133,-55.5555555555556,4,2,1,70,0,0
43758,-66.6666666666667,4,2,1,70,0,0
53758,-57.1428571428571,4,2,1,70,0,0
55633,-50,4,2,1,70,0,0
56570,-57.1428571428571,4,2,1,70,0,0
59383,-344.827586206897,4,2,1,70,0,0
60945,-57.1428571428571,4,2,1,70,0,0
61258,-66.6666666666667,4,2,1,70,0,0
62039,-66.6666666666667,4,2,1,5,0,0
62195,-57.1428571428571,4,2,2,75,0,0
63133,-57.1428571428571,4,2,2,85,0,1
68758,-833.333333333333,4,2,8,85,0,1
69695,-57.1428571428571,4,2,2,85,0,1
74383,-500,4,2,2,85,0,1
75320,-57.1428571428571,4,2,2,85,0,1
77195,-57.1428571428571,4,2,2,85,0,0
78133,-57.1428571428571,4,2,2,85,0,1
80008,-400,4,2,3,85,0,1
80945,-400,4,2,2,85,0,1
81258,-57.1428571428571,4,2,2,85,0,1
81883,-833.333333333333,4,2,4,85,0,1
85008,-57.1428571428571,4,2,2,85,0,0
85633,-50,4,2,2,85,0,1
85789,-50,4,2,2,5,0,0
85945,-50,4,2,2,85,0,0
86570,-50,4,2,2,85,0,1
86726,-50,4,2,2,5,0,0
86883,-50,4,2,2,85,0,0
87508,-57.1428571428571,4,2,2,85,0,1
87664,-57.1428571428571,4,2,2,5,0,0
87820,-57.1428571428571,4,2,2,85,0,0
89383,-50,4,2,2,85,0,1
89539,-50,4,2,2,5,0,0
89695,-50,4,2,2,85,0,0
90320,-50,4,2,2,85,0,1
90476,-50,4,2,2,85,0,0
91258,-222.222222222221,4,2,2,85,0,1
92195,-57.1428571428571,4,2,2,85,0,0
93133,-57.1428571428571,4,2,1,70,0,0
95633,-57.1428571428571,4,2,1,75,0,0
96883,-76.9230769230769,4,2,1,75,0,0
107195,-66.6666666666667,4,2,1,75,0,0
113758,-57.1428571428571,4,2,1,75,0,0
115633,-50,4,2,1,75,0,0
116570,-57.1428571428571,4,2,1,75,0,0
119383,-344.827586206897,4,2,1,75,0,0
120945,-57.1428571428571,4,2,1,75,0,0
121258,-66.6666666666667,4,2,1,75,0,0
122039,-66.6666666666667,4,2,1,5,0,0
122195,-57.1428571428571,4,2,2,85,0,0
123133,-57.1428571428571,4,2,2,85,0,1
128758,-833.333333333333,4,2,8,85,0,1
129695,-57.1428571428571,4,2,2,85,0,1
134383,-500,4,2,2,85,0,1
135320,-57.1428571428571,4,2,2,85,0,1
137195,-57.1428571428571,4,2,2,85,0,0
138133,-57.1428571428571,4,2,2,85,0,1
140008,-400,4,2,3,85,0,1
140945,-400,4,2,2,85,0,1
141258,-57.1428571428571,4,2,2,85,0,1
141883,-833.333333333333,4,2,4,85,0,1
145008,-57.1428571428571,4,2,2,85,0,0
145633,-50,4,2,2,85,0,1
145789,-50,4,2,2,5,0,0
145945,-50,4,2,2,85,0,0
146570,-50,4,2,2,85,0,1
146726,-50,4,2,2,5,0,0
146883,-50,4,2,2,85,0,0
147508,-57.1428571428571,4,2,2,85,0,1
147664,-57.1428571428571,4,2,2,5,0,0
147820,-57.1428571428571,4,2,2,85,0,0
149383,-50,4,2,2,85,0,1
149539,-50,4,2,2,5,0,0
149695,-50,4,2,2,85,0,0
150320,-50,4,2,2,85,0,1
150476,-50,4,2,2,5,0,0
150633,-50,4,2,2,85,0,0
151258,-222.222222222221,4,2,2,85,0,1
152195,-57.1428571428571,4,2,2,85,0,0
153133,-57.1428571428571,4,2,6,80,0,1
153289,-57.1428571428571,4,2,6,80,0,0
153758,-57.1428571428571,4,2,2,80,0,0
154070,-60.6060606060606,4,2,2,80,0,0
155476,-60.6060606060606,4,2,2,5,0,0
155633,-60.6060606060606,4,2,2,80,0,0
159226,-60.6060606060606,4,2,2,5,0,0
159383,-60.6060606060606,4,2,2,80,0,0
160633,-57.1428571428571,4,2,2,80,0,0
164383,-48.780487804878,4,2,2,80,0,0
170008,-44.4444444444445,4,2,2,80,0,0
170320,-42.5531914893617,4,2,2,80,0,0
170633,-40.8163265306122,4,2,2,80,0,0
170945,-270.27027027027,4,2,2,80,0,0
183133,-270.27027027027,4,2,10,75,0,0
184383,-270.27027027027,4,2,15,75,0,0
184695,-270.27027027027,4,2,16,75,0,0
185008,-270.27027027027,4,2,17,80,0,0
185945,-52.6315789473684,4,2,11,80,0,0
186258,-52.6315789473684,4,2,12,80,0,0
186570,-52.6315789473684,4,2,13,80,0,0
186883,-52.6315789473684,4,2,14,90,0,1
187195,-52.6315789473684,4,2,2,90,0,1
187820,-52.6315789473684,4,2,18,90,0,1
188133,-52.6315789473684,4,2,19,90,0,1
188445,-52.6315789473684,4,2,20,90,0,1
188758,-52.6315789473684,4,2,21,90,0,1
189695,-52.6315789473684,4,2,22,90,0,1
190008,-52.6315789473684,4,2,23,90,0,1
190320,-52.6315789473684,4,2,24,90,0,1
190945,-52.6315789473684,4,2,25,90,0,1
191258,-52.6315789473684,4,2,26,90,0,1
191570,-52.6315789473684,4,2,27,90,0,1
191883,-52.6315789473684,4,2,28,90,0,1
192195,-52.6315789473684,4,2,29,90,0,1
192508,-52.6315789473684,4,2,30,90,0,1
193445,-52.6315789473684,4,2,31,90,0,1
193758,-52.6315789473684,4,2,32,90,0,1
194070,-52.6315789473684,4,2,33,90,0,1
194695,-52.6315789473684,4,2,34,90,0,1
195007,-52.6315789473684,4,2,35,90,0,1
195163,-52.6315789473684,4,2,36,90,0,1
195320,-52.6315789473684,4,2,37,90,0,1
195632,-52.6315789473684,4,2,38,90,0,1
196257,-52.6315789473684,4,2,39,90,0,1
196570,-52.6315789473684,4,2,35,90,0,1
196726,-52.6315789473684,4,2,36,90,0,1
196882,-52.6315789473684,4,2,40,90,0,1
197038,-52.6315789473684,4,2,36,90,0,1
197195,-52.6315789473684,4,2,41,90,0,1
197508,-52.6315789473684,4,2,38,90,0,1
198133,-52.6315789473684,4,2,42,90,0,1
198445,-52.6315789473684,4,2,43,90,0,1
198757,-52.6315789473684,4,2,44,90,0,1
199070,-52.6315789473684,4,2,45,90,0,1
199382,-52.6315789473684,4,2,46,90,0,1
199695,-52.6315789473684,4,2,47,90,0,1
200008,-52.6315789473684,4,2,48,90,0,1
200945,-52.6315789473684,4,2,49,90,0,0
201258,-52.6315789473684,4,2,50,90,0,0
201570,-52.6315789473684,4,2,51,90,0,0
201883,-52.6315789473684,4,2,52,90,0,1
202820,-52.6315789473684,4,2,53,90,0,1
203133,-52.6315789473684,4,2,54,90,0,1
203445,-52.6315789473684,4,2,55,90,0,1
203758,-100,4,2,56,90,0,1
204695,-100,4,2,2,90,0,1
205008,-52.6315789473684,4,2,57,90,0,1
205320,-52.6315789473684,4,2,58,90,0,1
205633,-47.6190476190476,4,2,59,90,0,1
206258,-52.6315789473684,4,2,60,90,0,1
206570,-47.6190476190476,4,2,61,90,0,1
207195,-52.6315789473684,4,2,61,90,0,1
207508,-47.6190476190476,4,2,62,90,0,1
207820,-47.6190476190476,4,2,2,90,0,1
208758,-52.6315789473684,4,2,63,90,0,0
209070,-52.6315789473684,4,2,64,90,0,0
209383,-47.6190476190476,4,2,65,90,0,1
209539,-47.6190476190476,4,2,65,5,0,0
209695,-47.6190476190476,4,2,66,90,0,0
210320,-47.6190476190476,4,2,67,90,0,1
210476,-47.6190476190476,4,2,67,5,0,0
210633,-47.6190476190476,4,2,68,90,0,0
210945,-47.6190476190476,4,2,69,90,0,0
211258,-47.6190476190476,4,2,70,90,0,1
211414,-47.6190476190476,4,2,70,5,0,0
211570,-47.6190476190476,4,2,71,90,0,0
211883,-47.6190476190476,4,2,72,90,0,0
212195,-47.6190476190476,4,2,73,90,0,0
213133,-47.6190476190476,4,2,74,90,0,1
213289,-47.6190476190476,4,2,74,5,0,0
213445,-47.6190476190476,4,2,75,90,0,0
214070,-47.6190476190476,4,2,76,90,0,1
214226,-47.6190476190476,4,2,76,5,0,0
214383,-47.6190476190476,4,2,77,90,0,0
215008,-47.6190476190476,4,2,78,90,0,1
215164,-47.6190476190476,4,2,78,90,0,0
215320,-47.6190476190476,4,2,79,85,0,0
215633,-47.6190476190476,4,2,80,85,0,0
215945,-47.6190476190476,4,2,83,85,0,0
216883,-47.6190476190476,4,2,82,85,0,1
217039,-47.6190476190476,4,2,82,85,0,0

[Colours]
Combo1 : 136,68,68
Combo2 : 255,166,210
Combo3 : 181,181,219
Combo4 : 206,206,206

[HitObjects]
70,78,3148,6,0,L|55:0,2,80,2|2|2,2:0|2:0|2:0,2:0:0:0:
78,150,4085,2,0,L|-1:163,2,80,2|2|2,2:0|2:0|2:0,2:0:0:0:
150,143,5023,2,0,L|165:225,2,80,2|2|2,2:0|2:0|2:0,2:0:0:0:
142,71,5960,2,0,L|220:57,2,80,2|2|2,2:0|2:0|2:0,2:0:0:0:
0,163,6898,6,0,L|78:150,1,80,2|2,2:0|2:0,2:0:0:0:
142,71,7523,1,2,2:0:0:0:
203,124,7835,2,0,L|217:202,1,80,2|2,2:0|2:0,2:0:0:0:
194,280,8460,1,2,2:0:0:0:
345,300,8773,6,0,P|318:271|272:264,2,80,2|2|2,2:0|2:0|2:0,2:0:0:0:
415,340,9710,2,0,P|426:302|414:257,2,80,2|2|2,2:0|2:0|2:0,2:0:0:0:
352,220,10648,6,0,P|381:193|419:183,1,80,2|2,2:0|2:0,2:0:0:0:
494,216,11273,1,2,2:0:0:0:
426,102,11585,2,0,P|463:113|491:142,1,80,2|2,2:0|2:0,2:0:0:0:
501,223,12210,1,2,2:0:0:0:
352,220,12523,2,0,P|381:193|419:183,1,80,2|2,2:0|2:0,2:0:0:0:
508,230,13148,1,2,2:0:0:0:
425,342,13460,6,0,L|418:262,2,80,2|2|2,2:0|2:0|2:0,2:0:0:0:
334,215,14398,2,0,L|327:294,2,80,2|2|2,2:0|2:0|2:0,2:0:0:0:
403,102,15335,2,0,L|409:181,2,80,2|2|2,2:0|2:0|2:0,2:0:0:0:
256,192,16273,5,2,2:0:0:0:
212,59,17210,5,2,2:0:0:0:
203,71,17366,1,2,2:0:0:0:
212,82,17522,1,2,2:0:0:0:
226,76,17678,1,2,2:0:0:0:
225,62,17835,1,2,2:0:0:0:
256,192,18133,5,2,1:2:0:0:
256,192,19070,5,10,2:0:0:0:
187,137,19382,1,2,2:0:0:0:
85,210,19695,2,0,L|36:201,1,47.9999985351563,2|0,1:2|2:0,2:0:0:0:
0,131,20007,2,0,L|95:114,2,95.9999970703126,2|0|0,1:2|2:0|2:0,2:0:0:0:
0,131,20945,5,10,2:0:0:0:
91,37,21257,2,0,L|145:47,1,47.9999985351563,2|0,1:2|2:0,2:0:0:0:
213,114,21570,2,0,L|159:124,1,47.9999985351563,2|0,1:2|2:0,2:0:0:0:
282,69,21882,2,0,B|298:116|298:116|282:161,2,95.9999970703126,2|2|2,1:2|2:0|2:0,2:0:0:0:
282,69,22820,5,10,2:0:0:0:
363,25,23132,1,2,2:0:0:0:
478,124,23445,2,0,L|486:76,1,47.9999985351563,2|0,1:2|2:0,2:0:0:0:
362,97,23757,2,0,L|378:190,2,95.9999970703126,2|0|0,1:2|2:0|2:0,2:0:0:0:
362,97,24695,5,10,2:0:0:0:
253,36,25007,2,0,L|239:86,1,47.9999985351563,2|0,1:2|2:0,2:0:0:0:
163,106,25320,2,0,L|188:151,1,47.9999985351563,2|0,1:2|2:0,2:0:0:0:
179,25,25633,2,0,L|87:52,2,95.9999970703126,2|2|2,1:2|2:0|2:0,2:0:0:0:
179,25,26570,5,8,2:0:0:0:
264,94,26882,1,2,2:0:0:0:
217,210,27195,2,0,P|197:200|174:190,1,47.9999985351563,2|0,1:2|2:0,2:0:0:0:
33,169,27507,2,0,P|77:151|123:137,2,95.9999970703126,2|2|2,1:2|2:0|2:0,2:0:0:0:
33,169,28445,1,8,2:0:0:0:
88,343,28757,6,0,P|93:318|100:293,1,47.9999985351563,2|0,1:2|2:0,2:0:0:0:
178,207,29070,2,0,P|184:230|189:253,1,47.9999985351563,2|0,1:2|2:0,2:0:0:0:
88,343,29382,2,0,P|100:295|117:248,1,95.9999970703126,2|2,1:2|2:0,2:0:0:0:
112,234,29851,1,2,2:0:0:0:
99,218,30007,1,2,2:0:0:0:
186,336,30320,1,10,2:0:0:0:
254,292,30633,1,2,2:0:0:0:
339,338,30945,2,0,P|332:361|326:387,1,47.9999985351563,2|0,1:2|2:0,2:0:0:0:
400,281,31257,2,0,P|412:327|423:374,2,95.9999970703126,2|0|0,1:2|2:0|2:0,2:0:0:0:
400,281,32195,1,8,2:0:0:0:
482,101,32507,5,0,1:0:0:0:
512,170,32663,1,0,1:0:0:0:
400,131,32820,5,0,1:0:0:0:
430,49,32976,1,0,1:0:0:0:
418,209,33133,6,0,B|365:218|369:181|311:195,2,108.000000411987,6|2|2,1:2|2:0|2:0,2:0:0:0:
418,209,34070,1,10,2:0:0:0:
512,170,34383,1,2,2:0:0:0:
448,79,34695,2,0,P|440:104|432:130,1,54.0000002059937,2|0,1:2|2:0,2:0:0:0:
502,16,35008,2,0,B|454:-26|387:4|395:12|366:70|311:59,1,216.000000823975,2|0,1:2|2:0,2:0:0:0:
310,58,35945,5,10,2:0:0:0:
180,0,36258,2,0,L|186:56,1,54.0000002059937,2|0,1:2|2:0,2:0:0:0:
242,200,36570,2,0,L|235:143,1,54.0000002059937,2|0,1:2|2:0,2:0:0:0:
196,9,36883,2,0,B|206:94|206:94|199:103|199:103|209:180,2,176.000005371094,2|2|2,1:2|2:0|2:0,2:0:0:0:
283,120,37820,1,10,2:0:0:0:
121,67,38133,1,2,2:0:0:0:
53,128,38445,2,0,L|-1:118,1,54.0000002059937,2|0,1:2|2:0,2:0:0:0:
121,67,38758,6,0,L|128:107,1,40,2|0,1:2|2:0,2:0:0:0:
127,106,39695,5,10,2:0:0:0:
277,36,40008,2,0,L|221:45,1,54.0000002059937,2|0,1:2|2:0,2:0:0:0:
240,179,40320,2,0,L|295:188,1,54.0000002059937,2|0,1:2|2:0,2:0:0:0:
207,116,40633,1,2,1:2:0:0:
153,192,40945,1,2,2:0:0:0:
352,142,41258,6,0,B|370:193|370:193|350:245,1,108.000000411987,2|8,2:0|2:0,2:0:0:0:
350,243,41883,5,2,2:0:0:0:
310,75,42195,2,0,L|362:64,1,54.0000002059937,2|0,1:2|2:0,2:0:0:0:
433,104,42508,1,2,1:2:0:0:
512,43,42820,1,2,2:0:0:0:
253,11,43133,6,0,B|229:78|229:78|255:147,1,143.999995605469,2|8,2:0|2:0,2:0:0:0:
255,146,43758,6,0,L|234:90,1,60.0000022888184,0|0,1:0|2:0,2:0:0:0:
336,179,44070,2,0,L|298:225,1,60.0000022888184,2|0,1:2|2:0,2:0:0:0:
253,11,44383,2,0,B|335:0|335:0|398:42|398:42|479:34,1,240.000009155274,2|2,1:2|2:0,2:0:0:0:
479,33,45320,1,10,2:0:0:0:
424,120,45633,1,2,2:0:0:0:
488,279,45945,2,0,L|498:219,1,60.0000022888184,2|0,1:2|2:0,2:0:0:0:
424,120,46258,2,0,L|445:242,1,120.000004577637,2|0,1:2|2:0,2:0:0:0:
444,238,46883,5,0,2:0:0:0:
371,215,47039,5,0,2:0:0:0:
296,268,47195,6,0,L|306:327,1,60.0000022888184,8|0,2:0|2:0,2:0:0:0:
220,224,47508,2,0,L|265:185,1,60.0000022888184,0|0,1:0|2:0,2:0:0:0:
218,310,47820,2,0,L|161:289,1,60.0000022888184,0|0,1:0|1:0,2:0:0:0:
52,161,48133,5,6,1:2:0:0:
67,190,48289,1,2,2:0:0:0:
26,249,48445,1,2,2:0:0:0:
83,309,48601,1,2,2:0:0:0:
31,384,48758,1,2,2:0:0:0:
31,384,49070,1,10,2:0:0:0:
31,384,49695,5,0,1:0:0:0:
139,232,50008,2,0,L|160:351,1,120.000004577637,2|2,1:2|2:0,2:0:0:0:
252,384,50633,1,2,2:0:0:0:
204,192,50945,2,0,L|214:250,1,60.0000022888184,10|0,2:0|2:0,2:0:0:0:
267,146,51258,2,0,L|277:204,1,60.0000022888184,2|0,1:2|2:0,2:0:0:0:
331,101,51570,2,0,L|341:159,1,60.0000022888184,2|0,1:2|2:0,2:0:0:0:
434,279,51883,5,2,1:2:0:0:
449,250,52039,1,2,2:0:0:0:
408,191,52195,1,2,2:0:0:0:
465,131,52351,1,2,2:0:0:0:
413,56,52508,1,2,2:0:0:0:
413,56,52820,1,10,2:0:0:0:
413,56,53445,5,0,1:0:0:0:
253,40,53758,2,0,L|390:64,3,140.000001335144,2|2|2|10,1:2|2:0|2:0|2:0,2:0:0:0:
391,64,55008,6,0,L|321:52,1,70.000000667572,0|0,1:0|2:0,2:0:0:0:
207,126,55320,2,0,L|275:113,1,70.000000667572,0|0,1:0|2:0,2:0:0:0:
146,45,55633,6,0,B|118:120|118:120|145:195,1,160,2|2,1:2|2:0,2:0:0:0:
145,195,56258,1,2,2:0:0:0:
157,59,56570,6,0,B|131:126|131:126|156:193,1,140.000001335144,10|2,2:0|2:0,2:0:0:0:
155,190,57195,6,0,L|130:122,1,70.000000667572,0|0,1:0|2:0,2:0:0:0:
232,241,57508,2,0,P|174:279|107:268,1,140.000001335144,2|2,1:2|2:0,2:0:0:0:
236,140,58133,1,2,2:0:0:0:
318,193,58445,1,10,2:0:0:0:
468,134,58758,6,0,L|455:201,1,70.000000667572,2|0,1:2|2:0,2:0:0:0:
398,302,59070,2,0,L|385:234,1,70.000000667572,2|0,1:2|2:0,2:0:0:0:
477,128,59383,6,0,L|464:195,1,69.6000021240235,2|8,1:2|2:0,2:0:0:0:
465,197,60633,5,2,2:0:0:0:
383,65,60945,2,0,L|395:137,1,70.000000667572,2|0,1:2|2:0,2:0:0:0:
512,11,61258,6,0,B|390:50|469:184|349:247,1,300.000011444092,2|0,1:2|2:0,2:0:0:0:
273,217,62195,6,0,P|268:251|278:285,1,70.000000667572,10|0,1:2|2:0,2:0:0:0:
414,193,62508,2,0,P|386:172|352:164,1,70.000000667572,2|0,1:2|2:0,2:0:0:0:
365,327,62820,2,0,P|397:313|421:287,1,70.000000667572,2|0,1:2|2:0,2:0:0:0:
212,120,63133,6,0,B|266:135|289:92|275:86|341:39|393:64|380:80|430:112|472:77,1,280.000002670288,6|0,1:2|2:0,2:0:0:0:
472,77,64070,6,0,P|439:90|406:84,1,70.000000667572,10|0,2:0|2:0,2:0:0:0:
278,19,64383,2,0,P|309:7|345:2,1,70.000000667572,2|0,2:0|2:0,2:0:0:0:
386,163,64695,2,0,P|354:148|333:122,1,70.000000667572,2|0,1:2|2:0,2:0:0:0:
197,1,65007,2,0,B|184:132|335:67|326:229,1,280.000002670288,2|0,1:2|2:0,2:0:0:0:
326,226,65945,6,0,P|325:189|315:156,1,70.000000667572,10|0,2:0|2:0,2:0:0:0:
208,256,66258,2,0,P|233:229|249:198,1,70.000000667572,2|0,1:2|2:0,2:0:0:0:
36,207,66570,2,0,P|107:205|172:185,1,140.000001335144,2|2,1:2|1:2,2:0:0:0:
172,184,67195,5,2,2:0:0:0:
25,289,67507,1,2,2:0:0:0:
60,69,67820,2,0,L|35:207,1,140.000001335144,10|2,2:0|2:0,2:0:0:0:
128,21,68445,2,0,L|140:92,1,70.000000667572,2|0,1:2|2:0,2:0:0:0:
216,147,68758,6,0,L|219:126,1,19.20000046875,6|0,1:2|2:0,2:0:0:0:
219,128,69695,6,0,L|206:198,1,70.000000667572,10|0,2:0|2:0,2:0:0:0:
360,127,70008,2,0,L|347:56,1,70.000000667572,2|0,1:2|2:0,2:0:0:0:
227,124,70320,2,0,L|202:263,1,140.000001335144,2|0,1:2|1:0,2:0:0:0:
203,262,70945,6,0,L|215:193,1,70.000000667572,2|0,2:0|2:0,2:0:0:0:
344,284,71257,1,2,2:0:0:0:
415,229,71413,1,2,2:0:0:0:
481,316,71570,2,0,L|412:303,1,70.000000667572,10|0,2:0|2:0,2:0:0:0:
277,254,71882,2,0,L|418:228,1,140.000001335144,2|0,2:0|1:0,2:0:0:0:
415,229,72507,6,0,L|346:241,1,70.000000667572,2|0,1:2|2:0,2:0:0:0:
242,47,72820,1,2,2:0:0:0:
260,184,72976,1,2,2:0:0:0:
330,65,73132,1,2,2:0:0:0:
204,122,73288,1,2,2:0:0:0:
342,147,73445,2,0,L|415:134,1,70.000000667572,10|0,2:0|2:0,2:0:0:0:
277,115,73757,1,2,1:2:0:0:
231,320,74070,1,0,1:0:0:0:
75,193,74383,6,0,L|81:227,1,32,2|2,1:2|2:0,2:0:0:0:
81,224,75320,6,0,L|68:151,1,70.000000667572,10|0,2:0|2:0,2:0:0:0:
21,90,75632,1,2,2:0:0:0:
149,276,75945,2,0,L|161:203,1,70.000000667572,2|0,1:2|2:0,2:0:0:0:
21,90,76258,2,0,P|165:101|267:21,1,280.000002670288,2|0,1:2|2:0,2:0:0:0:
267,21,77195,6,0,P|246:49|215:76,1,70.000000667572,10|0,2:0|2:0,2:0:0:0:
399,110,77508,2,0,P|385:77|377:37,1,70.000000667572,2|0,1:2|2:0,2:0:0:0:
257,179,77820,2,0,P|291:183|330:196,1,70.000000667572,2|0,1:2|2:0,2:0:0:0:
483,45,78132,6,0,P|459:169|435:319,1,280.000002670288,6|0,1:2|2:0,2:0:0:0:
435,321,79069,6,0,P|439:288|445:252,1,70.000000667572,10|0,2:0|2:0,2:0:0:0:
323,182,79383,2,0,P|331:215|339:250,1,70.000000667572,2|0,2:0|2:0,2:0:0:0:
186,334,79695,2,0,P|193:301|202:265,1,70.000000667572,2|0,1:2|2:0,2:0:0:0:
39,112,80008,6,0,B|53:113|70:106|65:103|83:96|97:97,1,60,6|8,1:2|2:0,2:0:0:0:
96,97,81258,6,0,L|83:165,1,70.000000667572,2|0,1:2|2:0,2:0:0:0:
33,292,81570,2,0,L|20:223,1,70.000000667572,2|0,1:2|2:0,2:0:0:0:
185,57,81883,6,0,L|166:50,1,19.20000046875,6|2,1:2|2:0,2:0:0:0:
173,150,82820,6,0,L|187:137,1,19.20000046875,14|2,2:0|1:2,2:0:0:0:
96,97,83758,6,0,L|99:116,1,19.20000046875,6|0,1:2|2:0,2:0:0:0:
98,115,84695,5,8,2:0:0:0:
257,36,85008,2,0,L|189:23,1,70.000000667572,2|0,1:2|2:0,2:0:0:0:
270,136,85320,2,0,L|337:123,1,70.000000667572,2|0,1:2|2:0,2:0:0:0:
481,20,85633,6,0,L|466:104,1,80,6|0,1:2|2:0,2:0:0:0:
439,311,85945,2,0,L|411:152,1,160,2|0,2:0|2:0,2:0:0:0:
411,153,86570,6,0,L|425:234,1,80,14|0,2:0|2:0,2:0:0:0:
467,98,86883,1,2,2:0:0:0:
397,0,87195,1,2,1:2:0:0:
278,192,87508,6,0,L|346:204,1,70.000000667572,6|0,1:2|2:0,2:0:0:0:
330,122,87820,1,2,2:0:0:0:
433,232,88133,1,2,2:0:0:0:
397,319,88445,1,10,2:0:0:0:
202,252,88758,6,0,L|189:323,1,70.000000667572,0|0,1:0|2:0,2:0:0:0:
237,126,89070,2,0,L|249:54,1,70.000000667572,0|0,1:0|2:0,2:0:0:0:
283,208,89383,6,0,L|363:222,1,80,6|0,1:2|2:0,2:0:0:0:
157,172,89695,2,0,L|-2:143,1,160,2|0,2:0|2:0,2:0:0:0:
0,144,90320,6,0,L|78:157,1,80,14|0,2:0|2:0,2:0:0:0:
289,50,90633,2,0,L|132:77,1,160,2|0,2:0|1:0,2:0:0:0:
388,311,91258,6,0,L|394:273,2,35.9999989013672,6|2|2,1:2|2:0|2:0,2:0:0:0:
388,311,92195,6,0,L|400:241,1,70.000000667572,10|0,2:0|2:0,2:0:0:0:
249,307,92508,2,0,L|303:352,1,70.000000667572,0|0,1:0|2:0,2:0:0:0:
322,190,92820,2,0,L|255:214,1,70.000000667572,2|0,1:2|2:0,2:0:0:0:
322,273,93133,5,2,2:0:0:0:
322,273,95633,5,2,1:2:0:0:
314,254,95945,1,10,2:0:0:0:
486,276,96258,5,2,1:2:0:0:
512,183,96414,1,0,1:0:0:0:
391,88,96570,5,2,1:2:0:0:
437,173,96726,1,0,1:0:0:0:
460,41,96883,6,0,P|423:12|364:9,2,103.999995239258,6|2|2,1:2|2:0|2:0,2:0:0:0:
460,41,97820,1,10,2:0:0:0:
391,88,98133,1,2,2:0:0:0:
429,204,98445,2,0,L|480:194,1,51.999997619629,2|0,1:2|2:0,2:0:0:0:
360,158,98758,2,0,B|342:208|342:208|360:255,2,103.999995239258,2|2|2,1:2|2:0|2:0,2:0:0:0:
360,158,99695,1,8,2:0:0:0:
220,46,100008,2,0,L|210:99,1,51.999997619629,0|0,1:0|2:0,2:0:0:0:
274,210,100320,2,0,L|264:156,1,51.999997619629,0|0,1:0|2:0,2:0:0:0:
150,26,100633,6,0,L|131:130,2,103.999995239258,2|2|2,1:2|2:0|2:0,2:0:0:0:
150,26,101570,1,10,2:0:0:0:
63,77,101883,1,2,2:0:0:0:
118,202,102195,2,0,L|168:193,1,51.999997619629,2|0,1:2|2:0,2:0:0:0:
271,136,102508,6,0,L|168:117,2,103.999995239258,2|2|2,1:2|2:0|2:0,2:0:0:0:
271,136,103445,1,10,2:0:0:0:
297,294,103758,2,0,L|287:241,1,51.999997619629,2|0,1:2|2:0,2:0:0:0:
351,130,104070,2,0,L|341:184,1,51.999997619629,2|0,1:2|2:0,2:0:0:0:
442,330,104383,6,0,L|423:226,2,103.999995239258,2|2|2,1:2|2:0|2:0,2:0:0:0:
442,330,105320,1,10,2:0:0:0:
360,384,105633,1,2,2:0:0:0:
266,308,105945,2,0,L|319:298,1,51.999997619629,2|0,1:2|2:0,2:0:0:0:
423,227,106258,6,0,L|316:208,1,103.999995239258,2|2,1:2|2:0,2:0:0:0:
320,208,106883,5,2,2:0:0:0:
247,185,107039,5,0,2:0:0:0:
172,238,107195,6,0,L|182:297,1,60.0000022888184,10|0,2:0|2:0,2:0:0:0:
84,350,107508,2,0,L|94:291,1,60.0000022888184,0|0,1:0|2:0,2:0:0:0:
6,224,107820,2,0,L|16:283,1,60.0000022888184,0|0,1:0|2:0,2:0:0:0:
37,136,108133,5,6,1:2:0:0:
66,151,108289,1,2,2:0:0:0:
125,110,108445,1,2,2:0:0:0:
185,167,108601,1,2,2:0:0:0:
260,115,108758,1,2,2:0:0:0:
260,115,109070,1,10,2:0:0:0:
260,115,109695,5,0,1:0:0:0:
419,69,110008,2,0,P|367:40|308:49,1,120.000004577637,2|2,1:2|2:0,2:0:0:0:
351,130,110633,1,2,2:0:0:0:
287,244,110945,2,0,P|275:219|277:188,1,60.0000022888184,10|0,2:0|2:0,2:0:0:0:
417,242,111258,2,0,P|401:264|373:278,1,60.0000022888184,2|0,1:2|2:0,2:0:0:0:
351,130,111570,2,0,P|378:132|404:149,1,60.0000022888184,2|0,1:2|2:0,2:0:0:0:
277,187,111883,5,2,1:2:0:0:
248,172,112039,1,2,2:0:0:0:
189,213,112195,1,2,2:0:0:0:
129,156,112351,1,2,2:0:0:0:
54,208,112508,1,2,2:0:0:0:
54,208,112820,1,10,2:0:0:0:
54,208,113445,5,0,1:0:0:0:
38,48,113758,2,0,L|62:185,3,140.000001335144,2|2|2|10,1:2|2:0|2:0|2:0,2:0:0:0:
62,186,115008,6,0,L|50:116,1,70.000000667572,0|0,1:0|2:0,2:0:0:0:
130,0,115320,2,0,L|117:68,1,70.000000667572,0|0,1:0|2:0,2:0:0:0:
274,189,115633,6,0,P|214:139|135:151,1,160,2|2,1:2|2:0,2:0:0:0:
137,149,116258,1,2,2:0:0:0:
260,191,116570,2,0,P|208:148|142:160,1,140.000001335144,10|2,2:0|2:0,2:0:0:0:
141,161,117195,6,0,P|175:147|210:149,1,70.000000667572,0|0,1:0|2:0,2:0:0:0:
105,235,117508,2,0,P|61:183|73:117,1,140.000001335144,2|2,1:2|2:0,2:0:0:0:
224,15,118133,1,2,2:0:0:0:
282,93,118445,1,10,2:0:0:0:
413,35,118758,6,0,L|346:22,1,70.000000667572,2|0,1:2|2:0,2:0:0:0:
408,185,119070,2,0,L|452:133,1,70.000000667572,2|0,1:2|2:0,2:0:0:0:
282,93,119383,6,0,L|304:158,1,69.6000021240235,2|8,1:2|2:0,2:0:0:0:
304,158,120633,5,2,2:0:0:0:
413,35,120945,6,0,L|346:22,1,70.000000667572,2|0,1:2|2:0,2:0:0:0:
233,31,121258,6,0,B|278:23|278:23|390:183|390:183|447:173,1,300.000011444092,2|0,1:2|2:0,2:0:0:0:
512,146,122195,6,0,B|522:182|522:182|512:213,1,70.000000667572,10|0,1:2|2:0,2:0:0:0:
387,131,122508,2,0,B|413:104|413:104|445:97,1,70.000000667572,2|0,1:2|2:0,2:0:0:0:
436,246,122820,2,0,B|399:236|399:236|377:212,1,70.000000667572,2|0,1:2|2:0,2:0:0:0:
254,0,123133,6,0,B|282:21|304:41|304:41|288:149|267:263,1,280.000002670288,6|0,1:2|2:0,2:0:0:0:
269,253,124070,6,0,L|281:184,1,70.000000667572,10|0,2:0|2:0,2:0:0:0:
173,89,124383,2,0,L|185:157,1,70.000000667572,2|0,2:0|2:0,2:0:0:0:
277,259,124695,2,0,L|289:190,1,70.000000667572,2|0,1:2|2:0,2:0:0:0:
75,234,125008,2,0,B|153:201|204:270|185:295|229:365|309:336,1,280.000002670288,2|0,1:2|2:0,2:0:0:0:
307,337,125945,6,0,P|271:342|239:332,1,70.000000667572,10|0,2:0|2:0,2:0:0:0:
360,274,126258,2,0,P|382:302|389:335,1,70.000000667572,2|0,1:2|2:0,2:0:0:0:
301,130,126570,2,0,L|276:270,1,140.000001335144,2|2,1:2|1:2,2:0:0:0:
276,267,127195,5,2,2:0:0:0:
192,112,127507,1,2,2:0:0:0:
87,326,127820,2,0,B|155:340|155:340|219:308,1,140.000001335144,10|2,2:0|2:0,2:0:0:0:
133,178,128445,2,0,L|145:249,1,70.000000667572,2|0,1:2|2:0,2:0:0:0:
15,324,128758,6,0,L|18:303,1,19.20000046875,6|0,1:2|2:0,2:0:0:0:
18,305,129695,6,0,L|5:375,1,70.000000667572,10|0,2:0|2:0,2:0:0:0:
112,254,130008,2,0,L|124:322,1,70.000000667572,2|0,1:2|2:0,2:0:0:0:
17,196,130320,2,0,L|156:171,1,140.000001335144,2|0,1:2|1:0,2:0:0:0:
155,171,130945,6,0,L|86:183,1,70.000000667572,2|0,2:0|2:0,2:0:0:0:
222,201,131258,1,2,2:0:0:0:
293,146,131414,1,2,2:0:0:0:
359,233,131571,2,0,L|290:220,1,70.000000667572,10|0,2:0|2:0,2:0:0:0:
155,171,131883,2,0,L|296:145,1,140.000001335144,2|0,2:0|1:0,2:0:0:0:
293,146,132508,6,0,L|224:158,1,70.000000667572,2|0,1:2|2:0,2:0:0:0:
408,178,132820,1,2,2:0:0:0:
439,62,132976,1,2,2:0:0:0:
323,32,133133,1,2,2:0:0:0:
293,146,133289,1,2,2:0:0:0:
439,62,133445,2,0,L|507:75,1,70.000000667572,10|0,2:0|2:0,2:0:0:0:
366,104,133757,1,2,1:2:0:0:
183,0,134070,1,0,1:0:0:0:
68,221,134383,6,0,L|62:189,1,32,2|2,1:2|2:0,2:0:0:0:
62,189,135320,6,0,L|74:257,1,70.000000667572,10|0,2:0|2:0,2:0:0:0:
52,335,135632,1,2,2:0:0:0:
210,221,135945,2,0,L|137:209,1,70.000000667572,2|0,1:2|2:0,2:0:0:0:
256,357,136258,2,0,P|365:275|501:288,1,280.000002670288,2|0,1:2|2:0,2:0:0:0:
502,288,137195,6,0,P|467:275|433:269,1,70.000000667572,10|0,2:0|2:0,2:0:0:0:
256,357,137508,2,0,P|284:333|306:306,1,70.000000667572,2|0,1:2|2:0,2:0:0:0:
319,112,137820,2,0,P|325:148|337:181,1,70.000000667572,2|0,1:2|2:0,2:0:0:0:
510,51,138132,6,0,B|439:88|376:37|395:20|318:-22|250:35,1,280.000002670288,6|0,1:2|2:0,2:0:0:0:
250,35,139070,6,0,P|278:17|318:9,1,70.000000667572,10|0,2:0|2:0,2:0:0:0:
179,76,139383,2,0,P|168:44|171:3,1,70.000000667572,2|0,2:0|2:0,2:0:0:0:
198,227,139695,2,0,P|166:237|125:234,1,70.000000667572,2|0,1:2|2:0,2:0:0:0:
108,118,140008,6,0,P|127:140|154:155,1,60,6|8,1:2|2:0,2:0:0:0:
154,155,141258,6,0,P|125:138|104:109,1,70.000000667572,2|0,1:2|2:0,2:0:0:0:
198,227,141570,2,0,P|166:237|125:234,1,70.000000667572,2|0,1:2|2:0,2:0:0:0:
27,80,141883,6,0,L|23:100,1,19.20000046875,6|2,1:2|2:0,2:0:0:0:
74,200,142820,6,0,L|71:182,1,19.20000046875,14|2,2:0|1:2,2:0:0:0:
15,278,143758,6,0,L|11:298,1,19.20000046875,6|0,1:2|2:0,2:0:0:0:
11,296,144695,5,8,2:0:0:0:
143,100,145008,2,0,L|75:87,1,70.000000667572,2|0,1:2|2:0,2:0:0:0:
156,200,145320,2,0,L|223:187,1,70.000000667572,2|0,1:2|2:0,2:0:0:0:
371,120,145633,6,0,B|362:158|362:158|377:195,1,80,6|0,1:2|2:0,2:0:0:0:
455,384,145945,2,0,B|478:307|478:307|452:231,1,160,2|0,2:0|2:0,2:0:0:0:
452,232,146570,6,0,L|478:307,1,80,14|0,2:0|2:0,2:0:0:0:
378,196,146883,1,2,2:0:0:0:
284,240,147195,1,2,1:2:0:0:
348,17,147508,6,0,L|280:29,1,70.000000667572,6|0,1:2|2:0,2:0:0:0:
328,93,147820,1,2,2:0:0:0:
190,42,148133,1,2,2:0:0:0:
111,110,148445,1,10,2:0:0:0:
211,311,148758,6,0,L|223:242,1,70.000000667572,0|0,1:0|2:0,2:0:0:0:
111,110,149070,2,0,L|123:182,1,70.000000667572,0|0,1:0|2:0,2:0:0:0:
53,51,149383,6,0,P|87:31|129:29,1,80,6|0,1:2|2:0,2:0:0:0:
336,108,149695,2,0,P|257:123|191:84,1,160,2|0,2:0|2:0,2:0:0:0:
191,84,150320,6,0,P|221:110|261:124,1,80,14|0,2:0|2:0,2:0:0:0:
479,181,150633,2,0,P|400:166|334:205,1,160,2|0,2:0|1:0,2:0:0:0:
480,30,151258,6,0,L|486:68,2,35.9999989013672,6|2|2,1:2|2:0|2:0,2:0:0:0:
480,30,152195,6,0,L|491:98,1,70.000000667572,10|0,2:0|2:0,2:0:0:0:
440,264,152508,2,0,L|508:252,1,70.000000667572,0|0,1:0|2:0,2:0:0:0:
408,136,152820,2,0,L|465:176,1,70.000000667572,2|0,1:2|2:0,2:0:0:0:
326,225,153133,5,6,2:0:0:0:
326,225,153758,5,0,1:0:0:0:
222,111,154070,2,0,L|244:240,1,132.00000125885,10|2,2:0|2:0,2:0:0:0:
244,240,154695,1,2,2:0:0:0:
243,30,155008,2,0,B|139:12|167:109|63:95,1,198.000001888275,2|0,1:2|2:0,2:0:0:0:
13,37,155633,2,0,P|41:23|76:18,1,66.0000006294251,2|0,2:0|2:0,2:0:0:0:
67,95,155945,1,10,2:0:0:0:
177,291,156258,2,0,L|188:225,1,66.0000006294251,0|0,1:0|2:0,2:0:0:0:
67,95,156570,2,0,L|78:160,1,66.0000006294251,0|0,1:0|2:0,2:0:0:0:
49,235,156883,5,2,1:2:0:0:
177,291,157195,1,2,2:0:0:0:
177,291,157351,2,0,L|47:313,1,132.00000125885,2|0,2:0|2:0,2:0:0:0:
198,371,157820,6,0,B|230:362|230:362|249:333,1,66.0000006294251,10|0,2:0|2:0,2:0:0:0:
198,211,158133,2,0,B|230:220|230:220|249:249,1,66.0000006294251,2|0,2:0|2:0,2:0:0:0:
320,295,158445,5,2,2:0:0:0:
389,256,158601,5,0,2:0:0:0:
478,320,158758,6,0,L|512:124,1,198.000001888275,2|0,1:2|2:0,2:0:0:0:
433,17,159383,2,0,L|443:81,1,66.0000006294251,2|0,2:0|2:0,2:0:0:0:
512,125,159695,1,10,2:0:0:0:
331,101,160008,2,0,L|383:139,1,66.0000006294251,0|0,1:0|2:0,2:0:0:0:
353,225,160320,2,0,L|417:214,1,66.0000006294251,0|0,1:0|2:0,2:0:0:0:
268,20,160633,6,0,L|243:158,2,140.000001335144,6|2|2,1:2|2:0|1:2,2:0:0:0:
268,20,161570,2,0,L|255:90,1,70.000000667572,10|0,2:0|2:0,2:0:0:0:
174,211,161883,2,0,L|161:140,1,70.000000667572,2|0,2:0|2:0,2:0:0:0:
56,90,162195,2,0,L|43:160,1,70.000000667572,2|0,2:0|2:0,2:0:0:0:
38,9,162508,6,0,B|113:-3|102:52|169:47,2,140.000001335144,2|2|2,1:2|2:0|2:0,2:0:0:0:
43,158,163289,1,0,2:0:0:0:
108,110,163445,2,0,L|121:180,1,70.000000667572,10|0,2:0|2:0,2:0:0:0:
234,70,163758,2,0,L|166:46,1,70.000000667572,2|0,1:2|2:0,2:0:0:0:
192,201,164070,2,0,L|246:154,1,70.000000667572,2|0,1:2|2:0,2:0:0:0:
432,277,164383,6,0,P|364:233|285:244,2,164.000002502441,2|2|2,1:2|2:0|1:2,2:0:0:0:
432,277,165320,2,0,P|401:248|363:233,1,82.0000012512207,10|0,2:0|2:0,2:0:0:0:
435,369,165633,2,0,P|475:356|507:331,1,82.0000012512207,2|0,2:0|2:0,2:0:0:0:
512,70,165945,2,0,P|492:146|501:232,1,164.000002502441,2|0,2:0|1:0,2:0:0:0:
500,230,166570,2,0,P|492:185|492:148,1,82.0000012512207,0|0,3:0|3:0,2:0:0:0:
435,292,166883,2,0,P|468:315|506:331,1,82.0000012512207,0|0,3:0|2:0,2:0:0:0:
298,259,167195,5,10,2:0:0:0:
309,281,167351,1,2,2:0:0:0:
417,164,167508,5,2,1:2:0:0:
375,232,167664,1,2,2:0:0:0:
311,67,167821,5,2,1:2:0:0:
339,157,167977,1,2,2:0:0:0:
119,92,168133,6,0,B|20:53|105:-104|289:5|157:148|127:112|64:174|78:254|78:254|84:216|113:194,1,492.000007507324,2|8,1:2|2:0,2:0:0:0:
112,194,169383,5,2,2:0:0:0:
210,288,169695,1,0,1:0:0:0:
410,105,170008,6,0,L|394:193,1,90.0000034332277,10|0,1:2|2:0,2:0:0:0:
297,322,170320,2,0,L|279:227,1,93.9999985656738,8|0,1:2|2:0,2:0:0:0:
168,65,170633,2,0,L|150:161,1,98.0000009346008,8|0,1:2|2:0,2:0:0:0:
32,251,170945,6,0,L|16:164,1,88.8000021679688,12|0,1:2|2:0,2:0:0:0:
256,192,183133,5,2,1:2:0:0:
256,192,184070,5,0,1:2:0:0:
345,274,184383,5,2,2:0:0:0:
417,242,184695,1,2,2:0:0:0:
498,283,185008,6,0,L|486:347,1,59.2000014453125,2|0,1:2|2:0,2:0:0:0:
487,341,185945,6,0,L|502:261,1,75.9999979705811,10|0,1:2|2:0,2:0:0:0:
369,176,186258,2,0,L|382:252,1,75.9999979705811,2|0,1:2|2:0,2:0:0:0:
487,93,186570,2,0,L|500:16,1,75.9999979705811,2|0,1:2|2:0,2:0:0:0:
296,154,186883,6,0,P|370:62|369:176,1,303.999991882324,6|0,1:2|2:0,2:0:0:0:
369,176,187820,6,0,P|399:151|407:108,1,75.9999979705811,10|0,2:0|2:0,2:0:0:0:
297,82,188133,2,0,P|285:118|296:154,1,75.9999979705811,2|0,2:0|2:0,2:0:0:0:
483,58,188445,1,2,1:2:0:0:
408,116,188601,1,0,2:0:0:0:
417,9,188758,6,0,L|469:311,1,303.999991882324,2|0,1:2|2:0,2:0:0:0:
469,309,189695,6,0,L|456:234,1,75.9999979705811,10|0,2:0|2:0,2:0:0:0:
327,347,190008,2,0,L|398:372,1,75.9999979705811,2|0,1:2|2:0,2:0:0:0:
365,206,190320,2,0,L|306:254,1,75.9999979705811,2|0,1:2|2:0,2:0:0:0:
389,289,190633,1,0,1:2:0:0:
389,289,190945,5,2,2:0:0:0:
269,155,191258,1,2,2:0:0:0:
145,298,191570,2,0,L|219:311,1,75.9999979705811,10|0,2:0|2:0,2:0:0:0:
174,378,191883,1,2,2:0:0:0:
63,148,192195,2,0,L|49:226,1,75.9999979705811,2|0,1:2|2:0,2:0:0:0:
14,74,192508,2,0,P|94:64|144:109,2,151.999995941162,6|0|0,1:2|2:0|2:0,2:0:0:0:
14,74,193445,6,0,P|49:60|86:62,1,75.9999979705811,10|0,2:0|2:0,2:0:0:0:
170,187,193758,2,0,P|132:189|97:175,1,75.9999979705811,2|0,2:0|2:0,2:0:0:0:
144,108,194070,2,0,P|219:105|289:133,1,151.999995941162,2|0,1:2|1:0,2:0:0:0:
289,133,194695,6,0,P|256:115|217:104,1,75.9999979705811,2|0,2:0|2:0,2:0:0:0:
326,201,195007,1,2,2:0:0:0:
405,162,195163,1,2,2:0:0:0:
440,275,195320,2,0,P|475:263|513:253,1,75.9999979705811,10|0,2:0|2:0,2:0:0:0:
432,12,195632,2,0,L|405:163,1,151.999995941162,2|0,2:0|1:0,2:0:0:0:
405,161,196257,6,0,L|419:83,1,75.9999979705811,2|0,1:2|2:0,2:0:0:0:
322,0,196570,1,2,2:0:0:0:
300,150,196726,1,2,2:0:0:0:
181,56,196882,1,2,2:0:0:0:
271,64,197038,1,2,2:0:0:0:
111,12,197195,6,0,B|96:49|96:49|106:91,1,75.9999979705811,10|0,2:0|2:0,2:0:0:0:
28,230,197508,2,0,B|65:244|65:244|107:234,1,75.9999979705811,2|0,1:2|2:0,2:0:0:0:
25,104,197820,2,0,B|40:140|40:140|77:163,1,75.9999979705811,0|0,1:2|2:0,2:0:0:0:
304,149,198133,6,0,L|154:176,2,151.999995941162,2|2|2,1:2|2:0|2:0,2:0:0:0:
304,149,199070,6,0,L|222:164,1,75.9999979705811,10|0,2:0|2:0,2:0:0:0:
154,176,199382,1,2,2:0:0:0:
351,217,199695,2,0,L|368:301,1,75.9999979705811,2|0,1:2|2:0,2:0:0:0:
458,384,200008,2,0,P|484:243|511:82,1,303.999991882324,2|0,1:2|2:0,2:0:0:0:
511,85,200945,6,0,P|505:122|498:161,1,75.9999979705811,10|0,2:0|2:0,2:0:0:0:
316,103,201258,2,0,P|332:137|348:173,1,75.9999979705811,2|0,1:2|2:0,2:0:0:0:
505,77,201570,2,0,P|499:114|492:153,1,75.9999979705811,2|0,1:2|2:0,2:0:0:0:
292,30,201882,6,0,B|331:20|365:42|365:42|379:6|423:-2,2,151.999995941162,6|0|0,1:2|2:0|2:0,2:0:0:0:
292,30,202820,6,0,P|329:28|365:42,1,75.9999979705811,10|0,2:0|2:0,2:0:0:0:
213,67,203133,2,0,P|174:70|140:58,1,75.9999979705811,2|0,2:0|2:0,2:0:0:0:
295,132,203445,2,0,P|315:163|321:201,1,75.9999979705811,2|0,1:2|2:0,2:0:0:0:
365,42,203758,6,0,B|314:8|241:28|253:68|195:90|138:57,1,240,6|8,1:2|2:0,2:0:0:0:
140,58,205008,6,0,P|176:71|213:67,1,75.9999979705811,2|0,1:2|2:0,2:0:0:0:
330,157,205320,2,0,P|298:138|260:134,1,75.9999979705811,2|0,1:2|2:0,2:0:0:0:
100,262,205633,6,0,L|57:14,1,251.999992309571,6|0,1:2|2:0,2:0:0:0:
13,190,206258,2,0,L|0:115,1,75.9999979705811,2|0,2:0|2:0,2:0:0:0:
57,14,206570,2,0,L|100:262,1,251.999992309571,14|0,2:0|2:0,2:0:0:0:
143,92,207195,2,0,L|156:167,1,75.9999979705811,2|0,1:2|2:0,2:0:0:0:
297,22,207508,6,0,B|216:14|216:14|212:16|212:16|130:9,2,167.999994873047,6|2|2,1:2|2:0|2:0,2:0:0:0:
426,222,208445,1,8,2:0:0:0:
426,222,208758,6,0,L|440:138,1,75.9999979705811,2|0,1:2|2:0,2:0:0:0:
499,3,209070,2,0,L|512:77,1,75.9999979705811,2|0,1:2|2:0,2:0:0:0:
394,299,209383,6,0,B|436:307|436:307|488:282,1,83.9999974365235,6|0,1:2|2:0,2:0:0:0:
353,96,209695,2,0,B|429:61|429:61|512:78,1,167.999994873047,2|0,2:0|2:0,2:0:0:0:
512,78,210320,6,0,L|428:61,1,83.9999974365235,14|0,2:0|2:0,2:0:0:0:
457,137,210633,1,2,2:0:0:0:
300,0,210945,1,2,1:2:0:0:
107,163,211258,6,0,L|195:148,1,83.9999974365235,6|0,1:2|2:0,2:0:0:0:
140,86,211570,1,2,2:0:0:0:
86,235,211883,1,2,2:0:0:0:
235,291,212195,2,0,L|256:373,1,83.9999974365235,10|0,2:0|2:0,2:0:0:0:
289,140,212508,2,0,L|371:119,1,83.9999974365235,0|0,1:0|2:0,2:0:0:0:
140,86,212820,2,0,L|121:5,1,83.9999974365235,0|0,1:0|2:0,2:0:0:0:
16,280,213133,6,0,L|86:235,1,83.9999974365235,6|0,1:2|2:0,2:0:0:0:
350,218,213445,2,0,P|268:223|201:173,1,167.999994873047,2|0,2:0|2:0,2:0:0:0:
202,174,214070,6,0,P|229:203|273:225,1,83.9999974365235,14|0,2:0|2:0,2:0:0:0:
437,96,214383,2,0,P|355:91|288:141,1,167.999994873047,2|0,2:0|1:0,2:0:0:0:
288,140,215008,5,6,1:2:0:0:
156,60,215320,1,2,2:0:0:0:
150,219,215633,1,2,2:0:0:0:
88,93,215945,6,0,P|98:134|88:175,1,83.9999974365235,10|0,2:0|2:0,2:0:0:0:
295,68,216258,2,0,P|254:56|223:27,1,83.9999974365235,0|0,1:0|2:0,2:0:0:0:
215,258,216570,2,0,P|245:228|286:217,1,83.9999974365235,2|0,1:2|2:0,2:0:0:0:
197,139,216883,5,2,2:0:0:0:
