osu file format v14

[General]
AudioFilename: audio.mp3
AudioLeadIn: 0
PreviewTime: 185945
Countdown: 0
SampleSet: Soft
StackLeniency: 0.4
Mode: 0
LetterboxInBreaks: 0
WidescreenStoryboard: 1

[Editor]
DistanceSpacing: 1.1
BeatDivisor: 4
GridSize: 8
TimelineZoom: 1

[Metadata]
Title:Look at me
TitleUnicode:Look at me
Artist:Girl's Day
ArtistUnicode:걸스데이
Creator:Nabori
Version:Hard
Source:
Tags:syph [im nayeon] kpop k-pop pop love dreamt entertainment ent girls 소진 유라 민아 혜리 sojin minah yura hyeri korean girls iyiyo yiyo
BeatmapID:3613336
BeatmapSetID:1749429

[Difficulty]
HPDrainRate:4
CircleSize:3.8
OverallDifficulty:6
ApproachRate:7
SliderMultiplier:1.6
SliderTickRate:1

[Events]
//Background and Video events
0,0,"bg.jpg",0,0
//Break Periods
2,93445,94695
2,173054,182195
//Storyboard Layer 0 (Background)
//Storyboard Layer 1 (Fail)
//Storyboard Layer 2 (Pass)
//Storyboard Layer 3 (Foreground)
//Storyboard Layer 4 (Overlay)
//Storyboard Sound Samples

[TimingPoints]
3148,625,3,2,85,60,1,0
3460,-100,4,2,86,60,0,0
4085,-100,4,2,85,60,0,0
4397,-100,4,2,86,60,0,0
5023,-100,4,2,85,60,0,0
5335,-100,4,2,86,60,0,0
5960,-100,4,2,85,60,0,0
6272,-100,4,2,86,60,0,0
6898,-100,4,2,87,60,0,0
7210,-100,4,2,88,60,0,0
7835,-100,4,2,87,60,0,0
8147,-100,4,2,88,60,0,0
8773,-100,4,2,89,60,0,0
9085,-100,4,2,86,60,0,0
9710,-100,4,2,89,60,0,0
10022,-100,4,2,86,60,0,0
10648,-100,4,2,90,60,0,0
10960,-100,4,2,86,60,0,0
11585,-100,4,2,96,60,0,0
11897,-100,4,2,86,60,0,0
12523,-100,4,2,94,60,0,0
12835,-100,4,2,86,60,0,0
13460,-100,4,2,95,60,0,0
13772,-100,4,2,88,60,0,0
14398,-100,4,2,95,60,0,0
14710,-100,4,2,88,60,0,0
15335,-100,4,2,95,60,0,0
15647,-100,4,2,88,60,0,0
16273,-100,4,2,97,60,0,0
17210,-100,4,2,98,60,0,0
17366,-100,4,2,99,60,0,0
17523,-100,4,2,98,60,0,0
17679,-100,4,2,100,60,0,0
17835,-100,4,2,84,60,0,0
18133,625,3,2,1,65,1,0
21258,-83.3333333333333,4,2,1,65,0,0
33133,-83.3333333333333,4,2,1,70,0,0
62039,-83.3333333333333,4,2,1,5,0,0
62195,-83.3333333333333,4,2,2,75,0,0
62508,-74.0740740740741,4,2,2,75,0,0
63133,-74.0740740740741,4,2,2,85,0,1
68758,-74.0740740740741,4,2,8,85,0,1
69695,-74.0740740740741,4,2,2,85,0,1
77195,-74.0740740740741,4,2,2,85,0,0
78133,-74.0740740740741,4,2,2,85,0,1
80008,-74.0740740740741,4,2,3,85,0,1
80945,-74.0740740740741,4,2,2,85,0,1
81883,-74.0740740740741,4,2,4,85,0,1
82351,-74.0740740740741,4,2,4,5,0,1
82508,-74.0740740740741,4,2,4,85,0,1
83288,-74.0740740740741,4,2,4,5,0,1
83445,-74.0740740740741,4,2,4,85,0,1
85008,-74.0740740740741,4,2,2,85,0,1
93133,-74.0740740740741,4,2,1,70,0,0
95633,-74.0740740740741,4,2,1,75,0,0
96883,-83.3333333333333,4,2,1,75,0,0
122039,-83.3333333333333,4,2,1,5,0,0
122195,-83.3333333333333,4,2,2,85,0,0
122508,-74.0740740740741,4,2,2,85,0,0
123133,-74.0740740740741,4,2,2,85,0,1
128758,-74.0740740740741,4,2,8,85,0,1
129695,-74.0740740740741,4,2,2,85,0,1
137195,-74.0740740740741,4,2,2,85,0,0
138133,-74.0740740740741,4,2,2,85,0,1
140008,-74.0740740740741,4,2,3,85,0,1
140945,-74.0740740740741,4,2,2,85,0,1
141883,-74.0740740740741,4,2,4,85,0,1
142351,-74.0740740740741,4,2,4,5,0,1
142508,-74.0740740740741,4,2,4,85,0,1
143288,-74.0740740740741,4,2,4,5,0,1
143445,-74.0740740740741,4,2,4,85,0,1
145008,-74.0740740740741,4,2,2,85,0,1
152195,-74.0740740740741,4,2,2,85,0,0
153133,-74.0740740740741,4,2,6,80,0,1
153445,-74.0740740740741,4,2,6,80,0,0
153758,-74.0740740740741,4,2,2,80,0,0
183133,-74.0740740740741,4,2,10,75,0,0
184383,-74.0740740740741,4,2,15,75,0,0
184695,-74.0740740740741,4,2,16,75,0,0
185008,-74.0740740740741,4,2,17,80,0,0
185945,-74.0740740740741,4,2,11,80,0,0
186258,-74.0740740740741,4,2,12,80,0,0
186570,-74.0740740740741,4,2,13,80,0,0
186883,-74.0740740740741,4,2,14,90,0,1
187195,-74.0740740740741,4,2,2,90,0,1
187820,-74.0740740740741,4,2,18,90,0,1
188133,-74.0740740740741,4,2,19,90,0,1
188445,-74.0740740740741,4,2,20,90,0,1
188758,-74.0740740740741,4,2,21,90,0,1
189695,-74.0740740740741,4,2,22,90,0,1
190008,-74.0740740740741,4,2,23,90,0,1
190320,-74.0740740740741,4,2,24,90,0,1
190945,-74.0740740740741,4,2,25,90,0,1
191258,-74.0740740740741,4,2,26,90,0,1
191570,-74.0740740740741,4,2,27,90,0,1
191882,-74.0740740740741,4,2,28,90,0,1
192195,-74.0740740740741,4,2,29,90,0,1
192508,-74.0740740740741,4,2,30,90,0,1
193445,-74.0740740740741,4,2,31,90,0,1
193758,-74.0740740740741,4,2,32,90,0,1
194070,-74.0740740740741,4,2,33,90,0,1
194695,-74.0740740740741,4,2,34,90,0,1
195007,-74.0740740740741,4,2,35,90,0,1
195164,-74.0740740740741,4,2,36,90,0,1
195320,-74.0740740740741,4,2,37,90,0,1
195633,-74.0740740740741,4,2,38,90,0,1
196258,-74.0740740740741,4,2,39,90,0,1
196570,-74.0740740740741,4,2,35,90,0,1
196726,-74.0740740740741,4,2,36,90,0,1
196883,-74.0740740740741,4,2,40,90,0,1
197039,-74.0740740740741,4,2,36,90,0,1
197195,-74.0740740740741,4,2,41,90,0,1
197508,-74.0740740740741,4,2,38,90,0,1
198133,-74.0740740740741,4,2,42,90,0,1
198445,-74.0740740740741,4,2,43,90,0,1
198758,-74.0740740740741,4,2,44,90,0,1
199070,-74.0740740740741,4,2,45,90,0,1
199383,-74.0740740740741,4,2,46,90,0,1
199695,-74.0740740740741,4,2,47,90,0,1
200008,-74.0740740740741,4,2,48,90,0,1
200633,-74.0740740740741,4,2,48,90,0,0
200945,-74.0740740740741,4,2,49,90,0,0
201258,-74.0740740740741,4,2,50,90,0,0
201570,-74.0740740740741,4,2,51,90,0,0
201883,-74.0740740740741,4,2,52,90,0,1
202820,-74.0740740740741,4,2,53,90,0,1
203133,-74.0740740740741,4,2,54,90,0,1
203445,-74.0740740740741,4,2,55,90,0,1
203758,-74.0740740740741,4,2,56,90,0,1
204695,-74.0740740740741,4,2,2,90,0,1
205008,-74.0740740740741,4,2,57,90,0,1
205320,-74.0740740740741,4,2,58,90,0,1
205633,-74.0740740740741,4,2,59,90,0,1
206101,-74.0740740740741,4,2,59,5,0,1
206258,-74.0740740740741,4,2,60,90,0,1
206570,-74.0740740740741,4,2,61,90,0,1
207038,-74.0740740740741,4,2,61,5,0,1
207195,-74.0740740740741,4,2,61,90,0,1
207508,-74.0740740740741,4,2,62,90,0,1
207820,-74.0740740740741,4,2,2,90,0,1
208758,-74.0740740740741,4,2,63,90,0,1
209070,-74.0740740740741,4,2,64,90,0,1
209383,-74.0740740740741,4,2,65,90,0,1
209695,-74.0740740740741,4,2,66,90,0,1
210320,-74.0740740740741,4,2,67,90,0,1
210632,-74.0740740740741,4,2,68,90,0,1
210945,-74.0740740740741,4,2,69,90,0,1
211258,-74.0740740740741,4,2,70,90,0,1
211570,-74.0740740740741,4,2,71,90,0,1
211883,-74.0740740740741,4,2,72,90,0,1
212195,-74.0740740740741,4,2,73,90,0,1
213133,-74.0740740740741,4,2,74,90,0,1
213445,-74.0740740740741,4,2,75,90,0,1
214070,-74.0740740740741,4,2,76,90,0,1
214382,-74.0740740740741,4,2,77,90,0,1
215008,-74.0740740740741,4,2,78,90,0,1
215320,-74.0740740740741,4,2,79,85,0,1
215633,-74.0740740740741,4,2,80,85,0,1
215945,-74.0740740740741,4,2,83,85,0,1
216883,-74.0740740740741,4,2,82,85,0,0

[Colours]
Combo1 : 136,68,68
Combo2 : 255,166,210
Combo3 : 181,181,219
Combo4 : 206,206,206

[HitObjects]
442,306,3148,6,0,L|457:384,2,80,2|2|2,2:0|2:0|2:0,2:0:0:0:
428,219,4085,2,0,L|507:206,2,80,2|2|2,2:0|2:0|2:0,2:0:0:0:
341,233,5023,2,0,L|326:151,2,80,2|2|2,2:0|2:0|2:0,2:0:0:0:
355,320,5960,2,0,L|277:334,2,80,2|2|2,2:0|2:0|2:0,2:0:0:0:
438,350,6898,6,0,P|445:314|429:272,1,80,2|2,2:0|2:0,2:0:0:0:
373,207,7523,1,2,2:0:0:0:
429,139,7835,2,0,P|436:103|420:61,1,80,2|2,2:0|2:0,2:0:0:0:
359,1,8460,1,2,2:0:0:0:
296,63,8773,2,0,P|257:70|218:60,2,80,2|2|2,2:0|2:0|2:0,2:0:0:0:
357,127,9710,2,0,P|364:165|354:204,2,80,2|2|2,2:0|2:0|2:0,2:0:0:0:
276,162,10648,6,0,L|199:175,1,80,2|2,2:0|2:0,2:0:0:0:
247,248,11273,1,2,2:0:0:0:
206,326,11585,2,0,L|127:312,1,80,2|2,2:0|2:0,2:0:0:0:
44,340,12210,1,2,2:0:0:0:
63,254,12523,2,0,L|49:175,1,80,2|2,2:0|2:0,2:0:0:0:
98,101,13148,1,2,2:0:0:0:
168,154,13460,6,0,P|206:164|245:156,2,80,2|2|2,2:0|2:0|2:0,2:0:0:0:
211,77,14398,2,0,P|223:39|252:11,2,80,2|2|2,2:0|2:0|2:0,2:0:0:0:
298,93,15335,2,0,P|324:122|333:161,2,80,2|2|2,2:0|2:0|2:0,2:0:0:0:
256,192,16273,5,2,2:0:0:0:
256,192,17210,6,0,L|294:185,1,40,2|2,2:0|2:0,2:0:0:0:
356,238,17523,2,0,L|394:244,1,40,2|2,2:0|2:0,2:0:0:0:
467,209,17835,5,2,2:0:0:0:
467,209,18133,5,2,1:2:0:0:
467,209,19070,5,10,2:0:0:0:
499,118,19383,1,2,2:0:0:0:
408,87,19695,1,2,1:2:0:0:
376,178,20008,1,2,1:2:0:0:
376,178,20945,5,10,2:0:0:0:
298,121,21258,2,0,L|251:128,1,47.9999985351563,2|0,1:2|2:0,2:0:0:0:
186,176,21570,2,0,L|139:168,1,47.9999985351563,2|0,1:2|2:0,2:0:0:0:
63,119,21883,6,0,P|48:164|59:212,2,95.9999970703126,2|2|2,1:2|2:0|2:0,2:0:0:0:
63,119,22820,1,10,2:0:0:0:
138,58,23133,1,2,2:0:0:0:
216,113,23445,2,0,L|263:104,1,47.9999985351563,2|0,1:2|2:0,2:0:0:0:
328,56,23758,2,0,P|343:101|332:149,2,95.9999970703126,2|0|0,1:2|2:0|2:0,2:0:0:0:
328,56,24695,5,10,2:0:0:0:
417,15,25008,2,0,L|469:24,1,47.9999985351563,2|0,1:2|2:0,2:0:0:0:
511,96,25320,2,0,L|458:105,1,47.9999985351563,2|0,1:2|2:0,2:0:0:0:
407,170,25633,2,0,L|501:186,2,95.9999970703126,2|2|2,1:2|2:0|2:0,2:0:0:0:
407,170,26570,1,8,2:0:0:0:
336,234,26883,5,2,2:0:0:0:
247,198,27195,2,0,L|238:245,1,47.9999985351563,2|0,1:2|2:0,2:0:0:0:
272,321,27508,2,0,P|229:300|181:305,2,95.9999970703126,2|2|2,1:2|2:0|2:0,2:0:0:0:
272,321,28445,1,8,2:0:0:0:
366,358,28758,5,2,1:2:0:0:
394,266,29070,1,2,1:2:0:0:
304,231,29383,2,0,P|293:184|307:139,1,95.9999970703126,2|2,1:2|2:0,2:0:0:0:
324,126,29851,1,2,2:0:0:0:
324,126,30008,1,2,2:0:0:0:
290,36,30320,1,10,2:0:0:0:
200,69,30633,1,2,2:0:0:0:
226,161,30945,2,0,L|173:170,1,47.9999985351563,2|0,1:2|2:0,2:0:0:0:
110,127,31258,2,0,L|57:117,1,47.9999985351563,2|0,1:2|2:0,2:0:0:0:
63,118,32508,5,0,1:0:0:0:
110,127,32664,1,0,1:0:0:0:
129,171,32820,5,0,1:0:0:0:
176,162,32976,1,0,1:0:0:0:
207,122,33133,6,0,L|224:219,2,95.9999970703126,6|2|2,1:2|2:0|2:0,2:0:0:0:
280,60,34070,2,0,L|297:157,2,95.9999970703126,10|2|2,2:0|2:0|1:2,2:0:0:0:
361,7,35008,1,2,1:2:0:0:
361,7,35945,5,10,2:0:0:0:
435,68,36258,2,0,L|426:115,1,47.9999985351563,2|0,1:2|2:0,2:0:0:0:
375,177,36570,2,0,L|383:224,1,47.9999985351563,2|0,1:2|2:0,2:0:0:0:
446,275,36883,2,0,L|428:368,2,95.9999970703126,2|2|2,1:2|2:0|2:0,2:0:0:0:
446,275,37820,1,10,2:0:0:0:
512,205,38133,1,2,2:0:0:0:
460,124,38445,2,0,L|413:132,1,47.9999985351563,2|0,1:2|2:0,2:0:0:0:
338,103,38758,1,2,1:2:0:0:
338,103,39695,5,10,2:0:0:0:
252,59,40008,2,0,L|204:67,1,47.9999985351563,2|0,1:2|2:0,2:0:0:0:
141,116,40320,2,0,L|93:107,1,47.9999985351563,2|0,1:2|2:0,2:0:0:0:
26,63,40633,2,0,B|13:110|13:110|28:154,2,95.9999970703126,2|2|2,1:2|2:0|2:0,2:0:0:0:
26,63,41883,5,2,2:0:0:0:
108,109,42195,2,0,L|155:100,1,47.9999985351563,2|0,1:2|2:0,2:0:0:0:
226,63,42508,2,0,B|239:110|239:110|224:154,2,95.9999970703126,2|2|2,1:2|2:0|2:0,2:0:0:0:
226,63,43758,6,0,L|239:109,1,47.9999985351563,0|0,1:0|2:0,2:0:0:0:
316,134,44070,2,0,L|292:175,1,47.9999985351563,2|0,1:2|2:0,2:0:0:0:
219,238,44383,2,0,B|293:225|293:225|330:243|330:243|407:228,1,191.999994140625,2|2,1:2|2:0,2:0:0:0:
404,228,45320,1,10,2:0:0:0:
454,147,45633,1,2,2:0:0:0:
394,72,45945,2,0,L|347:80,1,47.9999985351563,2|0,1:2|2:0,2:0:0:0:
276,119,46258,2,0,L|181:102,1,95.9999970703126,2|0,1:2|2:0,2:0:0:0:
181,102,47508,5,0,1:0:0:0:
154,194,47820,1,0,1:0:0:0:
62,165,48133,5,6,1:2:0:0:
22,139,48289,1,2,2:0:0:0:
35,93,48445,1,2,2:0:0:0:
83,90,48601,1,2,2:0:0:0:
100,135,48758,1,2,2:0:0:0:
186,93,49070,1,10,2:0:0:0:
186,93,49695,1,0,1:0:0:0:
259,155,50008,6,0,L|354:146,1,95.9999970703126,2|2,1:2|2:0,2:0:0:0:
299,68,50633,1,2,2:0:0:0:
259,155,50945,2,0,L|354:146,1,95.9999970703126,10|2,2:0|1:2,2:0:0:0:
299,68,51570,1,2,1:2:0:0:
423,78,51883,5,2,1:2:0:0:
379,59,52039,1,2,2:0:0:0:
383,11,52195,1,2,2:0:0:0:
429,0,52351,1,2,2:0:0:0:
455,41,52508,1,2,2:0:0:0:
512,118,52820,1,10,2:0:0:0:
512,118,53445,1,0,1:0:0:0:
458,197,53758,6,0,L|364:180,3,95.9999970703126,2|2|2|10,1:2|2:0|2:0|2:0,2:0:0:0:
364,180,55008,2,0,L|410:188,1,47.9999985351563,0|0,1:0|2:0,2:0:0:0:
453,275,55320,2,0,L|406:266,1,47.9999985351563,0|0,1:0|2:0,2:0:0:0:
326,253,55633,6,0,L|309:347,2,95.9999970703126,2|2|2,1:2|2:0|2:0,2:0:0:0:
265,186,56570,1,10,2:0:0:0:
265,186,56883,1,2,2:0:0:0:
112,302,57508,6,0,L|95:204,2,95.9999970703126,2|2|2,1:2|2:0|2:0,2:0:0:0:
211,265,58445,1,10,2:0:0:0:
259,348,58758,2,0,L|310:352,1,47.9999985351563,2|0,1:2|2:0,2:0:0:0:
378,314,59070,2,0,L|429:318,1,47.9999985351563,2|0,1:2|2:0,2:0:0:0:
482,235,59383,6,0,B|370:225|370:225|308:272|308:272|211:264,1,287.999991210938,2|8,1:2|2:0,2:0:0:0:
211,264,60633,6,0,L|305:272,1,95.9999970703126,2|2,2:0|1:2,2:0:0:0:
372,17,61258,6,0,L|135:58,1,239.999992675781,2|0,1:2|2:0,2:0:0:0:
106,65,62195,5,10,1:2:0:0:
166,142,62508,2,0,L|219:132,1,54.0000002059937,2|0,1:2|2:0,2:0:0:0:
141,236,62820,2,0,L|87:226,1,54.0000002059937,2|0,1:2|2:0,2:0:0:0:
0,347,63133,6,0,L|218:308,1,216.000000823975,6|0,1:2|2:0,2:0:0:0:
212,309,64070,5,10,2:0:0:0:
318,384,64383,1,2,2:0:0:0:
321,260,64695,2,0,L|374:269,1,54.0000002059937,2|0,1:2|2:0,2:0:0:0:
471,200,65008,2,0,L|252:161,1,216.000000823975,2|0,1:2|2:0,2:0:0:0:
258,162,65945,5,10,2:0:0:0:
168,84,66258,2,0,L|114:93,1,54.0000002059937,2|0,1:2|2:0,2:0:0:0:
20,189,66570,2,0,L|126:170,1,108.000000411987,2|2,1:2|1:2,2:0:0:0:
126,170,67195,5,2,2:0:0:0:
26,104,67508,1,2,2:0:0:0:
175,0,67820,2,0,L|193:107,1,108.000000411987,10|2,2:0|2:0,2:0:0:0:
290,176,68445,1,2,1:2:0:0:
369,110,68758,2,0,B|318:87|267:141|275:148|233:205|179:186,1,216.000000823975,6|0,1:2|2:0,2:0:0:0:
181,186,69695,5,10,2:0:0:0:
69,131,70008,2,0,L|58:190,1,54.0000002059937,2|0,1:2|2:0,2:0:0:0:
131,288,70320,2,0,L|120:228,1,54.0000002059937,2|0,1:2|2:0,2:0:0:0:
46,266,70633,5,0,1:0:0:0:
46,266,70945,6,0,L|64:372,1,108.000000411987,2|2,2:0|2:0,2:0:0:0:
71,377,71414,1,2,2:0:0:0:
78,384,71570,1,10,2:0:0:0:
176,308,71883,1,2,2:0:0:0:
278,378,72195,2,0,L|331:368,1,54.0000002059937,0|0,1:0|2:0,2:0:0:0:
385,181,72508,6,0,B|365:232|365:232|377:283,1,108.000000411987,2|2,1:2|2:0,2:0:0:0:
385,291,72976,1,2,2:0:0:0:
392,298,73133,2,0,L|333:287,1,54.0000002059937,2|2,2:0|2:0,2:0:0:0:
271,245,73445,1,10,2:0:0:0:
192,348,73758,2,0,L|245:357,1,54.0000002059937,2|0,1:2|2:0,2:0:0:0:
159,266,74070,2,0,L|105:275,1,54.0000002059937,0|0,1:0|2:0,2:0:0:0:
44,384,74383,6,0,L|6:170,1,216.000000823975,2|2,1:2|2:0,2:0:0:0:
6,171,75320,5,10,2:0:0:0:
62,62,75633,1,2,2:0:0:0:
186,181,75945,2,0,L|247:170,1,54.0000002059937,2|0,1:2|2:0,2:0:0:0:
275,99,76258,2,0,L|62:61,1,216.000000823975,2|0,1:2|2:0,2:0:0:0:
62,61,77195,5,10,2:0:0:0:
107,182,77508,2,0,L|97:238,1,54.0000002059937,2|0,1:2|2:0,2:0:0:0:
201,188,77820,2,0,L|191:131,1,54.0000002059937,2|0,1:2|2:0,2:0:0:0:
183,308,78133,6,0,L|395:345,1,216.000000823975,6|0,1:2|2:0,2:0:0:0:
484,266,79070,1,10,2:0:0:0:
371,229,79383,1,2,2:0:0:0:
396,345,79695,1,2,1:2:0:0:
443,180,80008,6,0,B|376:100|271:164|305:194|233:264|157:233,1,324.000001235962,6|8,1:2|2:0,2:0:0:0:
54,178,81258,1,2,1:2:0:0:
59,296,81570,1,2,1:2:0:0:
0,100,81883,6,0,B|70:88|70:88|86:94|86:94|158:82,1,162.000000617981,6|0,1:2|2:0,2:0:0:0:
224,34,82508,1,2,2:0:0:0:
377,109,82820,6,0,B|307:121|307:121|294:132|294:132|222:146,1,162.000000617981,14|0,2:0|2:0,2:0:0:0:
143,165,83445,1,2,1:2:0:0:
121,284,83758,6,0,B|226:265|226:265|315:327|315:327|421:308,1,324.000001235962,6|8,1:2|2:0,2:0:0:0:
362,205,85008,1,2,1:2:0:0:
441,117,85320,1,2,1:2:0:0:
338,33,85633,6,0,L|231:51,1,108.000000411987,6|2,1:2|2:0,2:0:0:0:
338,33,86570,2,0,L|231:51,1,108.000000411987,14|2,2:0|2:0,2:0:0:0:
121,7,87195,1,2,1:2:0:0:
81,119,87508,1,6,1:2:0:0:
191,164,87820,1,2,2:0:0:0:
158,84,88133,1,2,2:0:0:0:
149,240,88445,2,0,P|201:250|251:227,2,108.000000411987,10|0|0,2:0|1:0|1:0,2:0:0:0:
52,171,89383,5,6,1:2:0:0:
0,278,89695,2,0,L|19:391,1,108.000000411987,2|0,2:0|2:0,2:0:0:0:
60,164,90320,5,14,2:0:0:0:
8,271,90632,2,0,L|27:384,1,108.000000411987,2|0,2:0|1:0,2:0:0:0:
67,158,91258,5,6,1:2:0:0:
67,158,92195,5,10,2:0:0:0:
81,29,92508,1,0,1:0:0:0:
186,105,92820,1,2,1:2:0:0:
112,97,93133,5,2,2:0:0:0:
256,192,95633,5,2,1:2:0:0:
337,243,95945,1,10,2:0:0:0:
423,200,96258,5,2,1:2:0:0:
414,247,96414,1,0,1:0:0:0:
453,275,96570,5,2,1:2:0:0:
462,322,96726,1,0,1:0:0:0:
429,357,96883,6,0,P|382:346|337:359,2,95.9999970703126,6|2|2,1:2|2:0|2:0,2:0:0:0:
414,247,97820,1,10,2:0:0:0:
320,266,98133,1,2,2:0:0:0:
265,345,98445,2,0,L|216:336,1,47.9999985351563,2|0,1:2|2:0,2:0:0:0:
151,291,98758,2,0,L|55:307,2,95.9999970703126,2|2|2,1:2|2:0|2:0,2:0:0:0:
151,291,99695,1,8,2:0:0:0:
209,214,100008,2,0,L|200:167,1,47.9999985351563,0|0,1:0|2:0,2:0:0:0:
138,116,100320,2,0,L|121:160,1,47.9999985351563,0|0,1:0|2:0,2:0:0:0:
47,222,100633,6,0,L|30:126,2,95.9999970703126,2|2|2,1:2|2:0|2:0,2:0:0:0:
47,222,101570,1,10,2:0:0:0:
24,318,101883,1,2,2:0:0:0:
114,351,102195,1,2,1:2:0:0:
148,261,102508,6,0,L|243:244,2,95.9999970703126,2|2|2,1:2|2:0|2:0,2:0:0:0:
148,261,103445,1,10,2:0:0:0:
61,233,103758,1,2,1:2:0:0:
91,142,104070,1,2,1:2:0:0:
183,170,104383,6,0,L|278:160,2,95.9999970703126,2|2|2,1:2|2:0|2:0,2:0:0:0:
183,170,105320,1,10,2:0:0:0:
96,142,105633,1,2,2:0:0:0:
126,51,105945,1,2,1:2:0:0:
218,79,106258,6,0,L|313:69,2,95.9999970703126,2|2|2,1:2|2:0|2:0,2:0:0:0:
218,79,107195,1,10,2:0:0:0:
165,160,107508,5,0,1:0:0:0:
235,225,107820,1,0,1:0:0:0:
185,307,108133,5,6,1:2:0:0:
223,336,108289,1,2,2:0:0:0:
248,377,108445,1,2,2:0:0:0:
293,360,108601,1,2,2:0:0:0:
345,365,108758,1,2,2:0:0:0:
345,365,109070,1,10,2:0:0:0:
366,174,109695,1,0,1:0:0:0:
309,275,110008,6,0,L|404:284,1,95.9999970703126,2|2,1:2|2:0,2:0:0:0:
364,197,110633,1,2,2:0:0:0:
309,275,110945,2,0,L|404:284,1,95.9999970703126,10|2,2:0|1:2,2:0:0:0:
470,213,111570,1,2,1:2:0:0:
331,106,111883,5,2,1:2:0:0:
293,135,112039,1,2,2:0:0:0:
268,176,112195,1,2,2:0:0:0:
223,159,112351,1,2,2:0:0:0:
179,168,112508,1,2,2:0:0:0:
179,168,112820,1,10,2:0:0:0:
42,33,113445,1,0,1:0:0:0:
117,94,113758,6,0,P|159:73|207:77,3,95.9999970703126,2|2|2|10,1:2|2:0|2:0|2:0,2:0:0:0:
297,109,115008,2,0,L|343:101,1,47.9999985351563,0|0,1:0|2:0,2:0:0:0:
397,40,115320,2,0,L|444:49,1,47.9999985351563,0|0,1:0|2:0,2:0:0:0:
500,106,115633,6,0,L|483:200,2,95.9999970703126,2|2|2,1:2|2:0|2:0,2:0:0:0:
415,146,116570,1,10,2:0:0:0:
415,146,116883,1,2,2:0:0:0:
415,146,117508,6,0,L|398:240,2,95.9999970703126,2|2|2,1:2|2:0|2:0,2:0:0:0:
467,65,118445,1,10,2:0:0:0:
384,16,118758,2,0,L|333:24,1,47.9999985351563,2|0,1:2|2:0,2:0:0:0:
265,61,119070,2,0,L|214:52,1,47.9999985351563,2|0,1:2|2:0,2:0:0:0:
116,46,119383,6,0,B|182:121|123:189|104:174|50:235|100:308,1,287.999991210938,2|8,1:2|2:0,2:0:0:0:
99,307,120633,6,0,P|82:261|91:213,1,95.9999970703126,2|2,2:0|1:2,2:0:0:0:
281,291,121258,6,0,B|214:261|170:328|186:340|145:404|81:384,1,239.999992675781,2|0,1:2|2:0,2:0:0:0:
61,372,122195,5,10,1:2:0:0:
86,229,122508,2,0,L|96:282,1,54.0000002059937,2|0,1:2|2:0,2:0:0:0:
6,189,122820,2,0,L|16:135,1,54.0000002059937,2|0,1:2|2:0,2:0:0:0:
200,75,123133,6,0,B|137:59|96:95|96:95|68:44|6:46,1,216.000000823975,6|0,1:2|2:0,2:0:0:0:
9,45,124070,5,10,2:0:0:0:
121,0,124383,1,2,2:0:0:0:
200,75,124695,2,0,L|253:66,1,54.0000002059937,2|0,1:2|2:0,2:0:0:0:
326,0,125008,2,0,B|278:46|278:46|325:194,1,216.000000823975,2|0,1:2|2:0,2:0:0:0:
323,189,125945,5,10,2:0:0:0:
428,154,126258,2,0,L|419:208,1,54.0000002059937,2|0,1:2|2:0,2:0:0:0:
492,91,126570,2,0,B|443:65|443:65|389:75,1,108.000000411987,2|2,1:2|1:2,2:0:0:0:
391,74,127195,5,2,2:0:0:0:
295,12,127508,1,2,2:0:0:0:
193,130,127820,2,0,L|86:112,1,108.000000411987,10|2,2:0|2:0,2:0:0:0:
155,29,128445,1,2,1:2:0:0:
193,130,128758,2,0,B|155:344,1,216.000000823975,6|0,1:2|2:0,2:0:0:0:
155,342,129695,5,10,2:0:0:0:
247,283,130008,2,0,L|306:294,1,54.0000002059937,2|0,1:2|2:0,2:0:0:0:
405,359,130320,2,0,L|345:348,1,54.0000002059937,2|0,1:2|2:0,2:0:0:0:
383,274,130633,5,0,1:0:0:0:
383,274,130945,6,0,L|489:292,1,108.000000411987,2|2,2:0|2:0,2:0:0:0:
496,299,131414,1,2,2:0:0:0:
503,306,131570,1,10,2:0:0:0:
463,205,131883,1,2,2:0:0:0:
512,109,132195,2,0,L|459:99,1,54.0000002059937,0|0,1:0|2:0,2:0:0:0:
345,35,132508,6,0,B|365:86|365:86|353:137,1,108.000000411987,2|2,1:2|2:0,2:0:0:0:
345,145,132976,1,2,2:0:0:0:
338,152,133133,2,0,L|397:141,1,54.0000002059937,2|2,2:0|2:0,2:0:0:0:
459,99,133445,1,10,2:0:0:0:
345,35,133758,2,0,L|292:44,1,54.0000002059937,2|0,1:2|2:0,2:0:0:0:
216,100,134070,2,0,L|162:91,1,54.0000002059937,0|0,1:0|2:0,2:0:0:0:
55,0,134383,6,0,P|89:90|38:194,1,216.000000823975,2|2,1:2|2:0,2:0:0:0:
40,192,135320,5,10,2:0:0:0:
0,89,135633,1,2,2:0:0:0:
114,105,135945,2,0,L|175:94,1,54.0000002059937,2|0,1:2|2:0,2:0:0:0:
236,20,136258,2,0,P|201:110|252:214,1,216.000000823975,2|0,1:2|2:0,2:0:0:0:
250,212,137195,5,10,2:0:0:0:
363,169,137508,2,0,L|373:225,1,54.0000002059937,2|0,1:2|2:0,2:0:0:0:
450,281,137820,2,0,L|460:224,1,54.0000002059937,2|0,1:2|2:0,2:0:0:0:
330,91,138133,6,0,L|367:303,1,216.000000823975,6|0,1:2|2:0,2:0:0:0:
367,303,139070,1,10,2:0:0:0:
271,241,139383,1,2,2:0:0:0:
263,359,139695,1,2,1:2:0:0:
407,163,140008,6,0,B|353:201|312:168|321:157|254:106|197:172|212:181|177:240|109:212,1,324.000001235962,6|8,1:2|2:0,2:0:0:0:
10,147,141258,1,2,1:2:0:0:
3,265,141570,1,2,1:2:0:0:
0,54,141883,6,0,B|82:28|70:106|152:76,1,162.000000617981,6|0,1:2|2:0,2:0:0:0:
210,21,142508,1,2,2:0:0:0:
369,101,142820,6,0,B|286:75|298:153|216:123,1,162.000000617981,14|0,2:0|2:0,2:0:0:0:
152,77,143445,1,2,1:2:0:0:
103,231,143758,6,0,B|66:206|24:220|24:220|88:149|149:236|131:244|172:296|227:272,1,324.000001235962,6|8,1:2|2:0,2:0:0:0:
379,349,145008,1,2,1:2:0:0:
266,384,145320,1,2,1:2:0:0:
349,234,145633,6,0,P|388:203|445:205,1,108.000000411987,6|2,1:2|2:0,2:0:0:0:
349,234,146570,2,0,P|388:203|445:205,1,108.000000411987,14|2,2:0|2:0,2:0:0:0:
512,302,147195,1,2,1:2:0:0:
426,384,147508,1,6,1:2:0:0:
322,326,147820,1,2,2:0:0:0:
414,292,148133,1,2,2:0:0:0:
259,268,148445,2,0,P|237:316|247:368,2,108.000000411987,10|0|0,2:0|1:0|1:0,2:0:0:0:
317,164,149383,5,6,1:2:0:0:
210,112,149695,2,0,L|97:131,1,108.000000411987,2|0,2:0|2:0,2:0:0:0:
324,172,150320,5,14,2:0:0:0:
217,120,150632,2,0,L|104:139,1,108.000000411987,2|0,2:0|1:0,2:0:0:0:
330,179,151258,5,6,1:2:0:0:
330,179,152195,5,10,2:0:0:0:
316,50,152508,1,0,1:0:0:0:
211,126,152820,1,2,1:2:0:0:
285,118,153133,5,6,2:0:0:0:
285,118,153758,5,0,1:0:0:0:
388,86,154070,2,0,L|369:193,1,108.000000411987,10|2,2:0|2:0,2:0:0:0:
295,271,154695,1,2,2:0:0:0:
357,359,155008,2,0,P|270:288|162:309,1,216.000000823975,2|2,1:2|2:0,2:0:0:0:
173,301,155945,1,10,2:0:0:0:
86,245,156258,2,0,L|96:187,1,54.0000002059937,0|0,1:0|2:0,2:0:0:0:
156,82,156570,2,0,L|166:139,1,54.0000002059937,0|0,1:0|2:0,2:0:0:0:
97,9,156883,5,2,1:2:0:0:
16,95,157195,1,2,2:0:0:0:
16,95,157351,2,0,B|106:78|80:150|171:134,1,162.000000617981,2|10,2:0|2:0,2:0:0:0:
184,28,158133,1,2,2:0:0:0:
289,51,158445,1,2,2:0:0:0:
263,156,158758,2,0,B|198:119|155:172|162:180|118:232|71:212,1,216.000000823975,2|2,1:2|2:0,2:0:0:0:
72,212,159695,1,10,2:0:0:0:
63,323,160008,2,0,L|116:313,1,54.0000002059937,0|0,1:0|2:0,2:0:0:0:
238,267,160320,2,0,L|184:257,1,54.0000002059937,0|0,1:0|2:0,2:0:0:0:
277,368,160633,6,0,L|384:349,2,108.000000411987,6|2|2,1:2|2:0|1:2,2:0:0:0:
431,277,161570,2,0,L|412:170,2,108.000000411987,10|2|2,2:0|2:0|2:0,2:0:0:0:
344,120,162508,2,0,L|236:138,2,108.000000411987,2|2|2,1:2|2:0|2:0,2:0:0:0:
191,210,163445,2,0,L|209:318,2,108.000000411987,10|2|2,2:0|1:2|1:2,2:0:0:0:
306,241,164383,5,2,1:2:0:0:
276,126,164695,1,2,2:0:0:0:
191,210,165008,1,2,1:2:0:0:
125,111,165320,6,0,P|70:108|26:133,2,108.000000411987,10|2|2,2:0|2:0|2:0,2:0:0:0:
125,111,166258,1,0,1:0:0:0:
221,41,166570,2,0,L|274:49,1,54.0000002059937,0|0,3:0|3:0,2:0:0:0:
337,100,166883,1,0,3:0:0:0:
435,33,167195,5,10,2:0:0:0:
446,69,167351,1,2,2:0:0:0:
490,109,167508,5,2,1:2:0:0:
479,145,167664,1,2,2:0:0:0:
439,189,167820,5,2,1:2:0:0:
450,225,167976,1,2,2:0:0:0:
490,269,168133,6,0,B|391:251|391:251|286:325|286:325|190:308,1,324.000001235962,2|8,1:2|2:0,2:0:0:0:
192,308,169383,5,2,2:0:0:0:
91,367,169695,1,0,1:0:0:0:
17,166,170008,6,0,L|3:218,1,54.0000002059937,10|0,1:2|2:0,2:0:0:0:
162,172,170320,2,0,L|125:132,1,54.0000002059937,8|0,1:2|2:0,2:0:0:0:
81,290,170633,2,0,L|133:271,1,54.0000002059937,8|0,1:2|2:0,2:0:0:0:
85,209,170945,5,12,1:2:0:0:
256,192,183133,5,2,1:2:0:0:
256,192,184070,5,0,1:2:0:0:
274,74,184383,5,2,2:0:0:0:
367,148,184695,1,2,2:0:0:0:
256,192,185008,1,2,1:2:0:0:
256,192,185945,6,0,L|251:245,1,54.0000002059937,10|0,1:2|2:0,2:0:0:0:
202,361,186258,2,0,L|192:307,1,54.0000002059937,2|0,1:2|2:0,2:0:0:0:
96,229,186570,2,0,L|82:281,1,54.0000002059937,2|0,1:2|2:0,2:0:0:0:
64,149,186883,6,0,B|112:137|112:137|208:203|208:203|256:191,1,216.000000823975,6|0,1:2|2:0,2:0:0:0:
256,190,187820,5,10,2:0:0:0:
431,128,188133,1,2,2:0:0:0:
358,12,188445,1,2,1:2:0:0:
372,47,188601,1,0,2:0:0:0:
360,83,188758,2,0,B|309:174|427:196|387:287,1,216.000000823975,2|0,1:2|2:0,2:0:0:0:
388,284,189695,5,10,2:0:0:0:
262,257,190008,2,0,L|316:248,1,54.0000002059937,2|0,1:2|2:0,2:0:0:0:
284,371,190320,2,0,B|173:351,1,108.000000411987,2|0,1:2|1:2,2:0:0:0:
177,352,190945,5,2,2:0:0:0:
74,291,191258,1,2,2:0:0:0:
149,154,191570,2,0,L|167:261,1,108.000000411987,10|2,2:0|2:0,2:0:0:0:
43,164,192195,1,2,1:2:0:0:
87,43,192508,6,0,L|140:52,1,54.0000002059937,6|0,1:2|2:0,2:0:0:0:
202,163,192820,2,0,L|148:153,1,54.0000002059937,0|0,2:0|2:0,2:0:0:0:
252,79,193133,2,0,L|305:88,1,54.0000002059937,0|0,2:0|2:0,2:0:0:0:
386,186,193445,1,10,2:0:0:0:
305,88,193758,2,0,L|252:79,1,54.0000002059937,2|0,2:0|2:0,2:0:0:0:
202,163,194070,2,0,L|148:153,1,54.0000002059937,2|0,1:2|2:0,2:0:0:0:
87,43,194383,5,0,1:0:0:0:
87,43,194695,6,0,L|69:149,1,108.000000411987,2|2,2:0|2:0,2:0:0:0:
62,156,195164,1,2,2:0:0:0:
55,163,195320,1,10,2:0:0:0:
119,263,195633,2,0,L|177:252,1,54.0000002059937,2|0,2:0|2:0,2:0:0:0:
245,175,195945,2,0,L|186:164,1,54.0000002059937,0|0,1:0|2:0,2:0:0:0:
315,233,196258,6,0,P|335:187|325:132,1,108.000000411987,2|2,1:2|2:0,2:0:0:0:
309,117,196726,1,2,2:0:0:0:
290,106,196883,2,0,L|349:95,1,54.0000002059937,2|2,2:0|2:0,2:0:0:0:
413,136,197195,1,10,2:0:0:0:
487,36,197508,2,0,L|496:89,1,54.0000002059937,2|0,1:2|2:0,2:0:0:0:
495,232,197820,2,0,L|486:179,1,54.0000002059937,0|0,1:2|2:0,2:0:0:0:
394,30,198133,6,0,L|413:136,2,108.000000411987,2|2|2,1:2|2:0|2:0,2:0:0:0:
394,30,199070,1,10,2:0:0:0:
295,96,199383,1,2,2:0:0:0:
196,30,199695,2,0,L|135:41,1,54.0000002059937,2|0,1:2|2:0,2:0:0:0:
53,1,200008,2,0,B|101:39|101:39|71:194,1,216.000000823975,2|0,1:2|2:0,2:0:0:0:
72,190,200945,5,10,2:0:0:0:
10,291,201258,2,0,L|66:281,1,54.0000002059937,2|0,1:2|2:0,2:0:0:0:
170,363,201570,2,0,L|113:353,1,54.0000002059937,2|0,1:2|2:0,2:0:0:0:
196,224,201883,6,0,B|311:204|282:313|392:296,1,216.000000823975,6|0,1:2|2:0,2:0:0:0:
386,296,202820,5,10,2:0:0:0:
418,184,203133,1,2,2:0:0:0:
505,264,203445,1,2,1:2:0:0:
452,53,203758,6,0,B|455:91|485:123|485:123|427:70|344:108|365:115|317:166|258:137,1,324.000001235962,6|8,1:2|2:0,2:0:0:0:
159,71,205008,1,2,1:2:0:0:
263,15,205320,1,2,1:2:0:0:
72,56,205633,6,0,B|43:216,1,162.000000617981,6|0,1:2|2:0,2:0:0:0:
72,291,206258,1,2,2:0:0:0:
159,71,206570,6,0,B|130:231,1,162.000000617981,14|0,2:0|2:0,2:0:0:0:
163,304,207195,1,2,1:2:0:0:
233,116,207508,6,0,L|213:224,3,108.000000411987,6|2|2|8,1:2|2:0|2:0|2:0,2:0:0:0:
293,311,208758,1,2,1:2:0:0:
393,248,209070,1,2,1:2:0:0:
506,360,209383,6,0,P|453:362|411:330,1,108.000000411987,6|2,1:2|2:0,2:0:0:0:
506,360,210320,6,0,P|453:362|411:330,1,108.000000411987,14|2,2:0|2:0,2:0:0:0:
486,238,210945,1,2,1:2:0:0:
420,139,211258,2,0,L|364:148,1,54.0000002059937,6|0,1:2|2:0,2:0:0:0:
255,224,211570,2,0,L|310:233,1,54.0000002059937,2|0,2:0|2:0,2:0:0:0:
259,106,211883,2,0,L|203:115,1,54.0000002059937,2|0,2:0|2:0,2:0:0:0:
135,171,212195,2,0,P|115:121|129:69,2,108.000000411987,10|0|0,2:0|1:0|1:0,2:0:0:0:
135,290,213133,5,6,1:2:0:0:
242,238,213445,2,0,L|355:257,1,108.000000411987,2|0,2:0|2:0,2:0:0:0:
128,298,214070,5,14,2:0:0:0:
235,246,214382,2,0,L|348:265,1,108.000000411987,2|0,2:0|1:0,2:0:0:0:
122,305,215008,6,0,L|9:324,2,108.000000411987,6|2|2,1:2|2:0|2:0,2:0:0:0:
122,305,215945,5,10,2:0:0:0:
136,176,216258,1,0,1:0:0:0:
241,252,216570,1,2,1:2:0:0:
167,244,216883,5,2,2:0:0:0:
