osu file format v14

[General]
AudioFilename: audioYour Name220BPM.mp3
AudioLeadIn: 0
PreviewTime: -1
Countdown: 0
SampleSet: Normal
StackLeniency: 0.2
Mode: 0
LetterboxInBreaks: 0
WidescreenStoryboard: 1

[Editor]
DistanceSpacing: 1.7
BeatDivisor: 4
GridSize: 32
TimelineZoom: 2.6

[Metadata]
Title:Zen Zen Zense
TitleUnicode:Zen Zen Zense
Artist:Girl
ArtistUnicode:Girl
Creator:JalterThighs
Version:Eternal One Two Love
Source:Your name
Tags:
BeatmapID:1892169
BeatmapSetID:569940

[Difficulty]
HPDrainRate:4
CircleSize:3
OverallDifficulty:7.5
ApproachRate:9.8
SliderMultiplier:2.2
SliderTickRate:1

[Events]
//Background and Video events
0,0,"Joan.of.Arc.(Fate.Apocrypha).full.2089115.jpg",0,0
//Break Periods
//Storyboard Layer 0 (Background)
//Storyboard Layer 1 (Fail)
//Storyboard Layer 2 (Pass)
//Storyboard Layer 3 (Foreground)
//Storyboard Layer 4 (Overlay)
//Storyboard Sound Samples

[TimingPoints]
0,272.7273,4,1,0,100,1,0
1369,-83.33334,4,1,0,100,0,0
9000,-83.33334,4,1,0,100,0,0
10090,-90.9090909090909,4,1,0,100,0,0
49090,-133.333333333333,4,1,0,100,0,0
59999,-100,4,1,0,100,0,1
64363,272.7273,4,1,0,100,1,1
90817,-100,4,1,0,100,0,0

[HitObjects]
92,98,60272,5,0,0:0:0:0:
257,201,60409,1,0,0:0:0:0:
134,28,60545,5,0,0:0:0:0:
279,239,60681,1,0,0:0:0:0:
65,215,60818,5,0,0:0:0:0:
331,114,60954,1,0,0:0:0:0:
215,95,61090,5,0,0:0:0:0:
225,308,61227,1,0,0:0:0:0:
353,214,61363,5,0,0:0:0:0:
76,147,61500,1,0,0:0:0:0:
406,73,61636,5,0,0:0:0:0:
168,213,61772,1,0,0:0:0:0:
292,252,61909,5,0,0:0:0:0:
149,26,62045,1,0,0:0:0:0:
386,211,62181,6,0,P|411:158|374:100,1,110
86,69,62454,2,0,P|91:146|127:167,1,110
395,55,62727,5,0,0:0:0:0:
179,201,62863,1,0,0:0:0:0:
411,169,63000,5,0,0:0:0:0:
268,250,63136,1,0,0:0:0:0:
421,279,63272,5,0,0:0:0:0:
236,137,63409,1,0,0:0:0:0:
376,93,63545,5,0,0:0:0:0:
267,326,63681,1,0,0:0:0:0:
56,197,63818,6,0,P|96:265|138:280,1,110
358,147,64090,2,0,P|406:211|379:245,1,110
162,28,64363,5,0,0:0:0:0:
265,193,64500,1,0,0:0:0:0:
92,70,64636,5,0,0:0:0:0:
303,215,64772,1,0,0:0:0:0:
279,1,64909,5,0,0:0:0:0:
178,267,65045,1,0,0:0:0:0:
159,151,65181,5,0,0:0:0:0:
372,161,65318,1,0,0:0:0:0:
278,289,65454,5,0,0:0:0:0:
211,12,65591,1,0,0:0:0:0:
137,342,65727,5,0,0:0:0:0:
277,104,65863,1,0,0:0:0:0:
316,228,66000,5,0,0:0:0:0:
74,207,66135,1,0,0:0:0:0:
380,62,66272,6,0,P|418:121|407:170,1,110
152,52,66544,2,0,P|105:110|146:163,1,110
361,274,66817,2,0,P|289:311|235:288,1,110
337,52,67090,2,0,P|266:46|256:91,1,110
446,292,67363,2,0,P|447:209|406:207,1,110
211,46,67635,2,0,P|141:79|126:146,1,110
285,267,67908,2,0,P|341:207|324:168,1,110
326,88,68181,1,0,0:0:0:0:
272,90,68249,1,0,0:0:0:0:
233,126,68317,1,0,0:0:0:0:
144,261,68453,5,0,0:0:0:0:
197,269,68521,1,0,0:0:0:0:
251,264,68589,1,0,0:0:0:0:
394,209,68726,5,0,0:0:0:0:
166,64,68863,1,0,0:0:0:0:
439,148,68999,5,0,0:0:0:0:
194,28,69135,1,0,0:0:0:0:
277,205,69272,5,0,0:0:0:0:
426,35,69408,1,0,0:0:0:0:
233,137,69544,5,0,0:0:0:0:
432,111,69681,1,0,0:0:0:0:
256,63,69817,5,0,0:0:0:0:
410,204,69953,1,0,0:0:0:0:
128,68,70090,5,0,0:0:0:0:
255,300,70226,1,0,0:0:0:0:
51,203,70363,5,0,0:0:0:0:
349,149,70499,1,0,0:0:0:0:
237,57,70635,5,0,0:0:0:0:
341,308,70772,1,0,0:0:0:0:
149,193,70908,5,0,0:0:0:0:
464,48,71044,1,0,0:0:0:0:
14,345,71181,5,0,0:0:0:0:
491,116,71317,1,0,0:0:0:0:
311,24,71453,5,0,0:0:0:0:
421,328,71590,1,0,0:0:0:0:
459,198,71726,5,0,0:0:0:0:
187,55,71863,1,0,0:0:0:0:
202,324,71999,5,0,0:0:0:0:
452,48,72135,1,0,0:0:0:0:
125,243,72272,5,0,0:0:0:0:
465,291,72408,1,0,0:0:0:0:
249,31,72544,5,0,0:0:0:0:
350,348,72681,1,0,0:0:0:0:
72,146,72817,6,0,P|125:77|152:70,1,110
178,290,73090,2,0,P|252:282|272:248,1,110
285,47,73363,2,0,P|336:88|321:133,1,110
93,247,73635,2,0,P|60:191|114:148,1,110
314,279,73908,5,0,0:0:0:0:
101,70,74044,1,0,0:0:0:0:
465,211,74181,5,0,0:0:0:0:
17,192,74317,1,0,0:0:0:0:
458,58,74453,5,0,0:0:0:0:
122,308,74590,1,0,0:0:0:0:
292,16,74726,5,0,0:0:0:0:
354,344,74863,1,0,0:0:0:0:
136,82,74999,5,0,0:0:0:0:
441,202,75135,1,0,0:0:0:0:
123,167,75272,5,0,0:0:0:0:
450,115,75408,1,0,0:0:0:0:
188,230,75544,5,0,0:0:0:0:
435,35,75681,1,0,0:0:0:0:
390,289,75817,5,0,0:0:0:0:
151,60,75953,1,0,0:0:0:0:
107,313,76090,5,0,0:0:0:0:
321,170,76226,1,0,0:0:0:0:
107,171,76363,5,0,0:0:0:0:
303,333,76499,1,0,0:0:0:0:
233,77,76635,5,0,0:0:0:0:
217,325,76772,1,0,0:0:0:0:
346,263,76908,5,0,0:0:0:0:
168,87,77044,1,0,0:0:0:0:
360,104,77181,5,0,0:0:0:0:
153,248,77317,1,0,0:0:0:0:
86,151,77453,5,0,0:0:0:0:
423,179,77590,1,0,0:0:0:0:
