osu file format v14

[General]
AudioFilename: audio.mp3
AudioLeadIn: 0
PreviewTime: 40308
Countdown: 1
SampleSet: Normal
StackLeniency: 0.7
Mode: 0
LetterboxInBreaks: 0
WidescreenStoryboard: 0

[Editor]
Bookmarks: 2830,28584,40308,49772,51749,60406,74747,89069,103452
DistanceSpacing: 1.5
BeatDivisor: 4
GridSize: 32
TimelineZoom: 2.064166

[Metadata]
Title:San na min perase mia mera
TitleUnicode:Σαν να μην πέρασε μια μέρα
Artist:Giorgos Dimitriadis
ArtistUnicode:Γιώργος Δημητριάδης
Creator:Genjuro
Version:As if no day has passed
Source:
Tags:greek
BeatmapID:1716173
BeatmapSetID:818480

[Difficulty]
HPDrainRate:6
CircleSize:4
OverallDifficulty:8.7
ApproachRate:9.2
SliderMultiplier:3
SliderTickRate:1

[Events]
//Background and Video events
0,0,"background.jpg",0,0
//Break Periods
//Storyboard Layer 0 (Background)
//Storyboard Layer 1 (Fail)
//Storyboard Layer 2 (Pass)
//Storyboard Layer 3 (Foreground)
//Storyboard Sound Samples

[TimingPoints]
0,714.285714285714,4,2,1,70,1,0
2830,714.285714285714,4,2,1,70,1,0
14272,714.285714285714,4,2,1,70,1,0
22867,714.285714285714,4,2,1,70,1,0
22867,-142.857142857143,4,2,1,70,0,0
25724,-100,4,2,1,70,0,0
28584,736.196319018405,4,2,1,70,1,0
28584,-142.857142857143,4,2,1,40,0,0
34485,736.196319018405,4,2,1,70,1,0
34485,-142.857142857143,4,2,1,70,0,0
38914,710.059171597633,4,2,1,70,1,0
38914,-142.857142857143,4,2,1,70,0,0
40298,714.285714285714,4,1,1,90,1,1
40298,-71.4285714285714,4,1,1,90,0,1
49772,-83.3333333333333,4,1,1,90,0,0
51749,714.285714285714,4,1,1,90,1,1
51749,-71.4285714285714,4,1,1,90,0,1
54633,722.89156626506,4,1,1,90,1,1
54633,-71.4285714285714,4,1,1,90,0,1
57524,714.285714285714,4,1,1,90,1,1
57524,-71.4285714285714,4,1,1,90,0,1
60406,714.285714285714,4,1,1,90,1,0
60406,-100,4,1,1,75,0,0
63291,714.285714285714,4,1,1,75,1,0
66148,-83.3333333333333,4,1,1,75,0,0
69023,714.285714285714,4,1,1,75,1,0
69023,-90.9090909090909,4,1,1,75,0,0
71880,-76.9230769230769,4,1,1,75,0,0
74747,714.285714285714,4,1,1,80,1,0
74747,-76.9230769230769,4,1,1,80,0,0
86195,718.562874251497,4,1,1,80,1,0
86195,-76.9230769230769,4,1,1,80,0,0
88350,-76.9230769230769,4,1,1,50,0,0
89069,-100,4,1,1,60,0,1
94835,718.562874251497,4,1,1,60,1,1
103452,-100,4,1,1,60,0,0

[HitObjects]
80,186,2830,6,0,P|155:177|253:186,1,150,0|8,0:0|0:0,0:0:0:0:
319,233,3365,1,0,0:0:0:0:
453,331,3544,2,0,P|416:326|380:318,1,75
417,98,3901,2,0,P|412:135|404:172,1,75,8|0,0:0|0:0,0:0:0:0:
183,133,4258,2,0,P|220:138|256:146,1,75
319,233,4615,5,8,0:0:0:0:
233,294,4794,1,0,0:0:0:0:
233,294,4883,1,0,0:0:0:0:
233,294,4972,1,0,0:0:0:0:
319,233,5151,1,0,0:0:0:0:
154,223,5329,2,0,P|116:227|80:235,1,75,8|0,0:0|0:0,0:0:0:0:
233,294,5687,6,0,P|237:219|228:144,1,150,0|8,0:0|0:0,0:0:0:0:
145,81,6222,1,0,0:0:0:0:
3,154,6401,2,0,P|40:159|78:162,1,75
315,38,6758,2,0,P|278:36|241:38,1,75,8|0,0:0|0:0,0:0:0:0:
145,81,7115,5,0,0:0:0:0:
280,130,7294,1,0,0:0:0:0:
280,130,7383,1,0,0:0:0:0:
280,130,7472,1,8,0:0:0:0:
192,188,7651,1,0,0:0:0:0:
372,94,7829,2,0,P|373:131|371:168,1,75
295,311,8187,2,0,P|292:273|294:236,1,75,8|0,0:0|0:0,0:0:0:0:
472,157,8544,6,0,P|457:222|388:272,1,150,0|8,0:0|0:0,0:0:0:0:
294,236,9079,1,0,0:0:0:0:
134,172,9258,2,0,P|171:169|208:171,1,75
212,376,9615,2,0,P|210:339|212:302,1,75,8|0,0:0|0:0,0:0:0:0:
381,102,9972,2,0,P|383:139|381:177,1,75
294,236,10329,5,8,0:0:0:0:
391,274,10508,1,0,0:0:0:0:
391,274,10597,1,0,0:0:0:0:
391,274,10687,1,0,0:0:0:0:
294,236,10865,1,0,0:0:0:0:
481,247,11044,2,0,P|482:284|480:321,1,75,8|0,0:0|0:0,0:0:0:0:
212,301,11401,6,0,P|192:237|227:159,1,150,0|8,0:0|0:0,0:0:0:0:
326,139,11937,1,0,0:0:0:0:
501,166,12115,2,0,P|464:168|427:166,1,75
177,62,12472,2,0,P|214:60|252:63,1,75,8|0,0:0|0:0,0:0:0:0:
326,139,12829,5,0,0:0:0:0:
220,150,13008,1,0,0:0:0:0:
220,150,13097,1,0,0:0:0:0:
220,150,13187,1,8,0:0:0:0:
290,227,13365,1,0,0:0:0:0:
122,102,13544,2,0,P|119:139|121:176,1,75
199,320,13901,2,0,P|201:283|199:246,1,75,8|0,0:0|0:0,0:0:0:0:
275,97,14272,6,0,P|270:171|279:246,1,150,0|8,0:0|0:0,0:0:0:0:
361,279,14807,1,0,0:0:0:0:
203,244,14986,2,0,P|166:242|129:244,1,75
37,381,15343,2,0,P|58:350|75:317,1,75,8|0,0:0|0:0,0:0:0:0:
0,169,15700,2,0,P|17:202|38:234,1,75
161,323,16057,5,8,0:0:0:0:
126,223,16236,1,0,0:0:0:0:
126,223,16325,1,0,0:0:0:0:
126,223,16414,1,0,0:0:0:0:
161,323,16593,1,0,0:0:0:0:
338,212,16772,2,0,P|375:209|412:211,1,75,8|0,0:0|0:0,0:0:0:0:
240,274,17129,6,0,P|237:200|248:125,1,150,0|8,0:0|0:0,0:0:0:0:
346,87,17664,1,0,0:0:0:0:
512,130,17843,2,0,P|475:135|438:137,1,75
172,56,18200,2,0,P|209:51|247:50,1,75,8|0,0:0|0:0,0:0:0:0:
346,87,18557,5,0,0:0:0:0:
228,142,18736,1,0,0:0:0:0:
228,142,18825,1,0,0:0:0:0:
228,142,18914,1,8,0:0:0:0:
325,181,19093,1,0,0:0:0:0:
129,106,19272,2,0,P|129:143|135:180,1,75
225,316,19629,2,0,P|224:279|219:242,1,75,8|0,0:0|0:0,0:0:0:0:
35,167,19986,6,0,P|48:231|119:282,1,150,0|8,0:0|0:0,0:0:0:0:
219,242,20521,1,0,0:0:0:0:
332,107,20700,2,0,P|300:127|271:150,1,75
324,350,21057,2,0,P|323:313|318:276,1,75,8|0,0:0|0:0,0:0:0:0:
151,209,21414,2,0,P|183:226|218:241,1,75
342,197,21771,5,8,0:0:0:0:
225,155,21950,1,0,0:0:0:0:
225,155,22039,1,0,0:0:0:0:
225,155,22129,1,0,0:0:0:0:
342,197,22307,1,0,0:0:0:0:
251,66,22486,2,0,P|213:66|176:72,1,75,8|0,0:0|0:0,0:0:0:0:
60,211,22867,6,0,P|106:187|135:144,1,104.999996795654,0|8,0:0|0:0,0:0:0:0:
35,31,23402,2,0,P|32:82|55:129,1,104.999996795654
184,213,23938,2,0,P|203:234|219:262,1,52.4999983978272,8|0,0:0|0:0,0:0:0:0:
71,354,24295,6,0,P|96:312|148:275,1,104.999996795654,0|8,0:0|0:0,0:0:0:0:
315,276,24831,2,0,P|266:275|208:248,1,104.999996795654
158,148,25367,2,0,P|163:175|163:207,1,52.4999983978272,8|0,0:0|0:0,0:0:0:0:
51,227,25724,5,0,0:0:0:0:
249,182,25902,1,0,0:0:0:0:
249,182,25992,1,0,0:0:0:0:
249,182,26081,1,8,0:0:0:0:
84,108,26259,1,0,0:0:0:0:
179,323,26438,6,0,P|180:283|175:237,1,75
246,107,26795,2,0,P|245:147|250:193,1,75,8|0,0:0|0:0,0:0:0:0:
342,228,27152,5,0,0:0:0:0:
166,168,27331,1,0,0:0:0:0:
166,168,27420,1,0,0:0:0:0:
166,168,27509,1,8,0:0:0:0:
384,91,27688,1,0,0:0:0:0:
193,247,27867,5,2,0:0:0:0:
321,29,28045,1,2,0:0:0:0:
314,308,28224,5,8,0:0:0:0:
208,78,28402,1,0,0:0:0:0:
163,332,28584,6,0,B|75:356|91:308|3:332,2,157.499995193482
277,240,30056,1,0,0:0:0:0:
277,240,30240,2,0,P|304:234|361:233,1,52.4999983978272
495,286,30608,2,0,P|442:296|393:284,1,104.999996795654
328,119,31160,1,8,0:0:0:0:
215,193,31528,6,0,B|297:170|281:218|369:194,2,157.499995193482
170,349,33001,1,0,0:0:0:0:
170,349,33185,2,0,P|167:322|161:297,1,52.4999983978272
108,145,33553,2,0,P|96:195|107:247,1,104.999996795654
313,305,34105,1,8,0:0:0:0:
77,346,34485,6,0,P|154:352|218:269,2,157.499995193482
243,209,35957,1,0,0:0:0:0:
243,209,36141,2,0,P|270:197|324:187,1,52.4999983978272
462,215,36509,2,0,P|411:226|360:216,1,104.999996795654
280,68,37061,1,8,0:0:0:0:
188,94,37429,6,0,L|357:101,2,157.499995193482
168,295,38914,6,0,P|172:260|160:201,1,69.9999978637696,2|0,0:0|0:0,0:0:0:0:
56,151,39269,2,0,P|79:168|113:175,1,52.4999983978272,8|0,0:0|0:0,0:0:0:0:
178,147,39624,1,0,0:0:0:0:
178,147,39801,1,0,0:0:0:0:
44,340,39979,1,8,0:0:0:0:
135,220,40298,6,0,B|175:236|215:220|215:220|247:236|247:236|287:220|343:236,1,209.999993591309,0|8,0:0|0:0,0:0:0:0:
431,287,40833,1,0,0:0:0:0:
223,323,41012,2,0,P|210:269|219:210,1,104.999996795654
264,53,41369,2,0,P|269:104|256:155,1,104.999996795654,8|0,0:0|0:0,0:0:0:0:
50,164,41726,5,0,0:0:0:0:
297,269,41905,1,0,0:0:0:0:
297,269,41994,1,0,0:0:0:0:
297,269,42083,1,8,0:0:0:0:
80,322,42262,1,0,0:0:0:0:
252,180,42440,2,0,P|303:175|354:188,1,104.999996795654
511,264,42798,2,0,P|460:269|409:256,1,104.999996795654,8|0,0:0|0:0,0:0:0:0:
252,180,43155,6,0,B|141:151|141:215|45:183,1,209.999993591309,0|8,0:0|0:0,0:0:0:0:
46,184,43690,2,0,P|93:209|142:266,1,104.999996795654
98,335,44048,1,0,0:0:0:0:
159,70,44226,1,8,0:0:0:0:
335,210,44405,1,0,0:0:0:0:
46,184,44583,6,0,P|98:184|148:168,1,104.999996795654
335,109,44940,2,0,P|282:108|232:124,1,104.999996795654,8|0,0:0|0:0,0:0:0:0:
247,323,45298,1,0,0:0:0:0:
247,323,45476,2,0,P|247:270|231:220,1,104.999996795654,0|8,0:0|0:0,0:0:0:0:
159,70,45833,1,0,0:0:0:0:
231,220,46012,6,0,L|476:217,1,209.999993591309,0|8,0:0|0:0,0:0:0:0:
440,217,46548,2,0,P|398:184|359:119,1,104.999996795654
414,59,46905,1,0,0:0:0:0:
377,318,47083,1,8,0:0:0:0:
377,318,47262,1,0,0:0:0:0:
237,169,47440,6,0,P|185:171|130:195,1,104.999996795654
17,294,47798,2,0,P|69:291|117:272,1,104.999996795654,8|0,0:0|0:0,0:0:0:0:
177,74,48155,1,0,0:0:0:0:
237,169,48333,2,0,P|287:180|339:174,1,104.999996795654,0|8,0:0|0:0,0:0:0:0:
466,94,48690,1,0,0:0:0:0:
466,94,48869,6,0,B|482:134|466:174|466:174|482:206|482:206|466:246|482:302,1,209.999993591309,0|8,0:0|0:0,0:0:0:0:
398,214,49405,2,0,P|370:170|329:138,1,104.999996795654
146,136,49762,1,0,0:0:0:0:
146,136,49940,6,0,P|191:132|243:97,1,89.9999972534181,8|0,0:0|0:0,0:0:0:0:
376,34,50298,2,0,P|331:38|279:73,1,89.9999972534181
333,230,50655,2,0,P|329:185|294:133,1,89.9999972534181,8|0,0:0|0:0,0:0:0:0:
169,57,51012,1,0,0:0:0:0:
169,57,51190,1,0,0:0:0:0:
307,146,51369,2,0,P|352:149|409:124,1,89.9999972534181,8|0,0:0|0:0,0:0:0:0:
477,52,51749,6,0,B|460:131|489:209|489:209|468:198|434:198,1,209.999993591309,0|8,0:0|0:0,0:0:0:0:
307,146,52284,2,0,P|256:159|214:190,1,104.999996795654
180,343,52641,5,0,0:0:0:0:
134,89,52820,1,8,0:0:0:0:
302,237,52999,1,0,0:0:0:0:
20,191,53177,5,0,0:0:0:0:
295,74,53356,1,0,0:0:0:0:
295,74,53445,1,0,0:0:0:0:
295,74,53534,1,8,0:0:0:0:
188,210,53713,1,0,0:0:0:0:
481,199,53891,5,0,0:0:0:0:
206,38,54070,1,0,0:0:0:0:
479,112,54249,5,8,0:0:0:0:
262,246,54427,1,0,0:0:0:0:
402,68,54633,6,0,B|311:61|248:119|248:119|277:127|297:151,1,209.999993591309,0|8,0:0|0:0,0:0:0:0:
459,184,55175,2,0,P|413:158|362:149,1,104.999996795654
104,227,55536,5,0,0:0:0:0:
382,232,55717,1,8,0:0:0:0:
165,114,55898,1,0,0:0:0:0:
237,375,56078,5,0,0:0:0:0:
311,133,56259,1,0,0:0:0:0:
311,133,56349,1,0,0:0:0:0:
311,133,56440,1,8,0:0:0:0:
99,318,56620,1,0,0:0:0:0:
382,232,56801,5,0,0:0:0:0:
114,68,56982,1,0,0:0:0:0:
398,109,57163,5,8,0:0:0:0:
180,243,57343,1,0,0:0:0:0:
382,232,57524,6,0,B|403:291|369:339|369:339|323:329|262:351,1,209.999993591309,0|8,0:0|0:0,0:0:0:0:
310,190,58059,2,0,P|353:157|412:154,1,104.999996795654
497,178,58420,5,0,0:0:0:0:
255,37,58598,1,8,0:0:0:0:
382,232,58777,1,0,0:0:0:0:
403,0,58955,5,0,0:0:0:0:
151,137,59134,1,0,0:0:0:0:
151,137,59223,1,0,0:0:0:0:
151,137,59312,1,8,0:0:0:0:
402,151,59491,1,0,0:0:0:0:
171,32,59670,5,0,0:0:0:0:
257,311,59848,1,0,0:0:0:0:
281,24,60027,5,8,0:0:0:0:
151,220,60205,1,0,0:0:0:0:
402,151,60406,6,0,P|460:201|453:288,1,150,0|8,0:0|0:0,0:0:0:0:
380,235,60941,2,0,P|322:185|329:98,1,150
400,79,61477,2,0,P|410:117|398:157,1,75,8|0,0:0|0:0,0:0:0:0:
156,185,61834,6,0,P|98:235|105:322,1,150,0|8,0:0|0:0,0:0:0:0:
178,269,62370,2,0,P|236:219|229:132,1,150
158,113,62906,2,0,P|148:151|160:191,1,75,8|0,0:0|0:0,0:0:0:0:
360,203,63291,6,0,B|473:215|473:215|437:241,1,150,0|8,0:0|0:0,0:0:0:0:
378,286,63826,1,0,0:0:0:0:
386,124,64005,2,0,P|343:121|303:143,1,75
206,217,64362,2,0,P|249:220|289:198,1,75,8|0,0:0|0:0,0:0:0:0:
337,45,64719,5,0,0:0:0:0:
365,206,64898,1,0,0:0:0:0:
365,206,64987,1,0,0:0:0:0:
365,206,65076,1,8,0:0:0:0:
455,115,65255,1,0,0:0:0:0:
284,173,65433,2,0,P|281:215|303:256,1,75
422,310,65791,1,8,0:0:0:0:
422,310,65969,1,0,0:0:0:0:
208,232,66148,6,0,B|137:234|84:276|84:276|21:269,1,179.999994506836,0|8,0:0|0:0,0:0:0:0:
60,188,66683,1,0,0:0:0:0:
274,170,66862,2,0,P|291:209|291:281,1,89.9999972534181
230,337,67219,1,8,0:0:0:0:
387,200,67398,1,0,0:0:0:0:
387,200,67487,1,0,0:0:0:0:
387,200,67576,1,0,0:0:0:0:
208,232,67755,1,0,0:0:0:0:
472,290,67933,5,8,0:0:0:0:
265,108,68112,1,0,0:0:0:0:
263,299,68291,5,0,0:0:0:0:
363,95,68470,1,0,0:0:0:0:
395,348,68648,5,8,0:0:0:0:
395,348,68826,1,0,0:0:0:0:
288,192,69023,6,0,B|201:169|217:217|125:193,1,165.000005035401,0|8,0:0|0:0,0:0:0:0:
173,120,69559,1,0,0:0:0:0:
246,260,69737,2,0,P|254:299|248:352,1,82.5000025177003
168,201,70094,2,0,P|164:160|172:119,1,82.5000025177003,8|0,0:0|0:0,0:0:0:0:
270,42,70451,5,0,0:0:0:0:
78,161,70630,1,0,0:0:0:0:
78,161,70719,1,0,0:0:0:0:
78,161,70809,1,8,0:0:0:0:
249,163,70987,1,0,0:0:0:0:
114,243,71166,2,0,P|73:247|32:239,1,82.5000025177003
116,56,71523,1,8,0:0:0:0:
116,56,71701,1,0,0:0:0:0:
179,186,71880,6,0,B|211:245|181:296|181:296|188:345|188:345|209:310,1,194.999991073609,0|8,0:0|0:0,0:0:0:0:
114,243,72416,1,0,0:0:0:0:
379,215,72594,5,0,0:0:0:0:
107,332,72773,1,0,0:0:0:0:
385,321,72951,5,8,0:0:0:0:
186,134,73130,1,0,0:0:0:0:
186,134,73219,1,0,0:0:0:0:
186,134,73308,5,0,0:0:0:0:
203,319,73487,1,0,0:0:0:0:
343,71,73665,5,8,0:0:0:0:
102,189,73844,1,0,0:0:0:0:
414,176,74023,5,0,0:0:0:0:
211,40,74201,1,0,0:0:0:0:
317,321,74380,5,8,0:0:0:0:
356,250,74747,6,0,B|302:232|262:265|262:265|211:266|179:222,1,194.999991073609,0|8,0:0|0:0,0:0:0:0:
190,127,75282,1,0,0:0:0:0:
150,309,75461,2,0,P|113:338|57:342,1,97.4999955368044
144,128,75818,2,0,P|181:99|237:95,1,97.4999955368044,8|0,0:0|0:0,0:0:0:0:
431,154,76175,5,0,0:0:0:0:
216,176,76354,1,0,0:0:0:0:
216,176,76443,1,0,0:0:0:0:
216,176,76532,1,8,0:0:0:0:
355,285,76711,1,0,0:0:0:0:
320,34,76889,5,0,0:0:0:0:
211,295,77068,1,0,0:0:0:0:
474,169,77247,5,8,0:0:0:0:
141,116,77425,1,0,0:0:0:0:
141,116,77514,1,0,0:0:0:0:
141,116,77604,2,0,P|183:130|246:121,1,97.4999955368044
417,76,77961,2,0,P|375:62|312:71,1,97.4999955368044,8|0,0:0|0:0,0:0:0:0:
148,268,78318,5,0,0:0:0:0:
197,47,78497,1,0,0:0:0:0:
289,303,78675,5,8,0:0:0:0:
64,174,78854,1,0,0:0:0:0:
64,174,78943,1,0,0:0:0:0:
64,174,79032,5,0,0:0:0:0:
247,131,79211,1,0,0:0:0:0:
110,329,79389,5,8,0:0:0:0:
142,61,79568,1,0,0:0:0:0:
267,301,79747,5,0,0:0:0:0:
57,187,79925,1,0,0:0:0:0:
308,186,80104,2,0,L|430:182,1,97.4999955368044,8|0,0:0|0:0,0:0:0:0:
443,143,80372,1,0,0:0:0:0:
420,154,80461,6,0,B|389:225|422:304|422:304|426:278|443:248,1,194.999991073609,0|8,0:0|0:0,0:0:0:0:
485,209,80997,1,0,0:0:0:0:
308,186,81175,2,0,P|262:199|220:233,1,97.4999955368044
118,347,81532,2,0,P|164:334|206:300,1,97.4999955368044,8|0,0:0|0:0,0:0:0:0:
230,123,81889,5,0,0:0:0:0:
307,277,82068,1,0,0:0:0:0:
307,277,82157,1,0,0:0:0:0:
307,277,82247,1,8,0:0:0:0:
139,235,82425,1,0,0:0:0:0:
435,150,82604,5,0,0:0:0:0:
270,362,82782,1,0,0:0:0:0:
282,38,82961,5,8,0:0:0:0:
393,233,83139,1,0,0:0:0:0:
183,161,83318,2,0,P|134:154|82:168,1,97.4999955368044
297,237,83675,2,0,P|346:244|398:230,1,97.4999955368044,8|0,0:0|0:0,0:0:0:0:
472,134,84032,5,0,0:0:0:0:
320,342,84211,1,0,0:0:0:0:
308,67,84389,5,8,0:0:0:0:
479,258,84568,1,0,0:0:0:0:
479,258,84657,1,0,0:0:0:0:
479,258,84747,5,0,0:0:0:0:
187,223,84925,1,0,0:0:0:0:
423,351,85104,5,8,0:0:0:0:
377,107,85282,1,0,0:0:0:0:
229,323,85461,5,0,0:0:0:0:
482,175,85639,1,0,0:0:0:0:
243,190,85818,6,0,L|130:176,1,97.4999955368044,8|0,0:0|0:0,0:0:0:0:
130,76,86195,6,0,B|153:139|135:232|135:232|120:209|90:199,1,194.999991073609,0|8,0:0|0:0,0:0:0:0:
56,138,86733,1,0,0:0:0:0:
258,157,86913,2,0,P|306:160|364:177,1,97.4999955368044
482,270,87272,2,0,P|433:266|376:250,1,97.4999955368044,8|0,0:0|0:0,0:0:0:0:
322,78,87632,5,0,0:0:0:0:
258,324,87811,1,0,0:0:0:0:
258,324,87901,1,0,0:0:0:0:
258,324,87991,5,8,0:0:0:0:
450,185,88171,1,0,0:0:0:0:
216,137,88350,5,2,0:0:0:0:
474,178,88530,1,0,0:0:0:0:
160,313,88709,5,2,0:0:0:0:
498,171,88889,1,0,0:0:0:0:
176,38,89069,5,6,0:0:0:0:
296,352,89248,1,0,0:0:0:0:
413,31,89428,5,2,0:0:0:0:
99,151,89607,1,0,0:0:0:0:
419,167,89787,5,2,0:0:0:0:
148,24,89967,1,0,0:0:0:0:
391,39,90147,5,2,0:0:0:0:
127,139,90326,1,0,0:0:0:0:
443,168,90506,5,2,0:0:0:0:
252,77,90686,1,0,0:0:0:0:
334,265,90865,5,2,0:0:0:0:
425,74,91045,1,0,0:0:0:0:
449,265,91224,5,2,0:0:0:0:
258,174,91404,1,0,0:0:0:0:
340,349,91584,5,2,0:0:0:0:
414,192,91764,1,0,0:0:0:0:
75,282,91943,5,6,0:0:0:0:
432,354,92123,1,0,0:0:0:0:
194,37,92302,5,2,0:0:0:0:
128,361,92482,1,0,0:0:0:0:
411,130,92662,5,2,0:0:0:0:
87,64,92842,1,0,0:0:0:0:
332,42,93021,5,2,0:0:0:0:
41,165,93201,1,0,0:0:0:0:
404,259,93380,5,2,0:0:0:0:
213,21,93560,1,0,0:0:0:0:
227,325,93739,5,2,0:0:0:0:
465,134,93919,1,0,0:0:0:0:
140,125,94099,5,2,0:0:0:0:
427,241,94278,1,0,0:0:0:0:
84,232,94458,5,2,0:0:0:0:
338,73,94637,1,0,0:0:0:0:
75,71,94835,5,6,0:0:0:0:
339,211,95014,1,0,0:0:0:0:
62,243,95195,5,2,0:0:0:0:
316,84,95374,1,0,0:0:0:0:
62,43,95554,5,2,0:0:0:0:
182,236,95733,1,0,0:0:0:0:
311,42,95913,5,2,0:0:0:0:
118,162,96092,1,0,0:0:0:0:
419,162,96272,5,2,0:0:0:0:
228,71,96452,1,0,0:0:0:0:
310,259,96631,5,2,0:0:0:0:
401,68,96811,1,0,0:0:0:0:
425,259,96990,5,2,0:0:0:0:
234,168,97170,1,0,0:0:0:0:
316,343,97350,5,2,0:0:0:0:
390,186,97530,1,0,0:0:0:0:
36,344,97710,5,6,0:0:0:0:
187,24,97889,1,0,0:0:0:0:
418,201,98069,5,2,0:0:0:0:
98,50,98248,1,0,0:0:0:0:
463,57,98428,5,2,0:0:0:0:
143,208,98607,1,0,0:0:0:0:
341,330,98787,5,2,0:0:0:0:
213,59,98966,1,0,0:0:0:0:
481,146,99147,5,2,0:0:0:0:
171,336,99326,1,0,0:0:0:0:
303,29,99506,5,2,0:0:0:0:
477,314,99685,1,0,0:0:0:0:
145,218,99865,5,2,0:0:0:0:
473,133,100045,1,0,0:0:0:0:
172,83,100224,5,2,0:0:0:0:
400,261,100404,1,0,0:0:0:0:
121,218,100584,5,6,0:0:0:0:
449,133,100764,1,0,0:0:0:0:
158,73,100943,5,2,0:0:0:0:
372,240,101123,1,0,0:0:0:0:
133,249,101302,5,2,0:0:0:0:
268,75,101482,1,0,0:0:0:0:
281,326,101662,5,2,0:0:0:0:
146,152,101842,1,0,0:0:0:0:
324,188,102021,5,2,0:0:0:0:
189,362,102201,1,0,0:0:0:0:
233,143,102380,5,2,0:0:0:0:
390,296,102560,1,0,0:0:0:0:
103,236,102739,5,2,0:0:0:0:
360,167,102919,1,0,0:0:0:0:
159,88,103099,5,2,0:0:0:0:
216,303,103279,1,0,0:0:0:0:
379,50,103458,5,6,0:0:0:0:
