osu file format v14

[General]
AudioFilename: audio.mp3
AudioLeadIn: 0
PreviewTime: -1
Countdown: 1
SampleSet: None
StackLeniency: 0.7
Mode: 0
LetterboxInBreaks: 0
WidescreenStoryboard: 0

[Editor]
DistanceSpacing: 0.8
BeatDivisor: 4
GridSize: 4
TimelineZoom: 1.4

[Metadata]
Title:Shin Hakkenden (Speed Up Ver.)
TitleUnicode:Shin Hakkenden (Speed Up Ver.)
Artist:Giorgio Vanni
ArtistUnicode:Giorgio Vanni
Creator:- Croma -
Version:Appuntamento col destino
Source:Shin Hakkenden
Tags:shin , hakkenden , croma , 2017 , giorgio , vanni , ita , italia , italy , dance , pop , impossible , insane , jump , stream , extreme , 7 stars
BeatmapID:1281223
BeatmapSetID:606489

[Difficulty]
HPDrainRate:4.5
CircleSize:4.2
OverallDifficulty:9
ApproachRate:9.6
SliderMultiplier:1.9
SliderTickRate:1

[Events]
//Background and Video events
0,0,"cavallino.jpg",0,0
//Break Periods
//Storyboard Layer 0 (Background)
//Storyboard Layer 1 (Fail)
//Storyboard Layer 2 (Pass)
//Storyboard Layer 3 (Foreground)
//Storyboard Sound Samples

[TimingPoints]
2030,312.989045383412,4,3,0,75,1,0
12358,-66.6666666666667,4,3,0,75,0,0
22061,-80,4,3,0,75,0,0
42092,-66.6666666666667,4,3,0,75,0,0
47100,-66.6666666666667,4,3,0,75,0,1
67131,-80,4,3,0,75,0,0
77147,-66.6666666666667,4,3,0,75,0,0
82155,-66.6666666666667,4,3,0,75,0,1
102186,-66.6666666666667,4,3,0,75,0,0
112202,-66.6666666666667,4,3,0,75,0,1
122217,-66.6666666666667,4,3,0,75,0,0
132233,-200,4,3,0,75,0,0

[Colours]
Combo1 : 196,119,182
Combo2 : 220,24,73
Combo3 : 106,197,223
Combo4 : 56,241,70

[HitObjects]
84,224,2030,6,0,B|84:256|84:256|108:300|108:300|108:332,1,95,8|0,0:0|0:0,0:0:0:0:
192,224,2343,1,0,0:0:0:0:
192,224,2499,1,0,0:0:0:0:
428,160,3282,6,0,B|428:128|428:128|404:84|404:84|404:52,1,95,8|0,0:0|0:0,0:0:0:0:
320,160,3594,1,0,0:0:0:0:
320,160,3750,1,0,0:0:0:0:
124,92,4064,5,8,0:0:0:0:
124,92,4221,1,8,0:0:0:0:
124,296,4534,5,0,2:0:0:0:
152,284,4612,1,0,2:0:0:0:
180,292,4690,1,0,2:0:0:0:
204,308,4769,1,0,2:0:0:0:
232,304,4847,2,0,B|256:320|316:256|332:292,1,95
256,44,5316,5,0,2:0:0:0:
256,144,5473,1,0,2:0:0:0:
404,352,5786,5,0,2:0:0:0:
420,328,5864,1,0,2:0:0:0:
428,300,5942,1,0,2:0:0:0:
428,272,6020,1,0,2:0:0:0:
420,244,6099,2,0,B|384:232|432:160|404:132,1,95
88,196,6568,5,0,0:0:0:0:
224,100,6725,1,0,0:0:0:0:
464,320,7038,5,4,0:2:0:0:
196,320,7351,1,0,0:0:0:0:
224,320,7429,1,0,0:0:0:0:
252,320,7507,1,0,0:0:0:0:
408,220,7664,2,0,B|416:192|416:192|344:192,1,95
160,192,7977,5,0,0:0:0:0:
132,192,8055,1,0,0:0:0:0:
104,192,8133,2,0,B|92:152|92:152|164:152,1,95
344,40,8602,1,0,0:0:0:0:
432,216,8916,5,0,0:0:0:0:
432,216,9072,1,0,0:0:0:0:
432,352,9229,1,0,0:0:0:0:
232,228,9542,5,0,0:0:0:0:
208,212,9620,1,0,0:0:0:0:
180,204,9698,1,0,0:0:0:0:
152,204,9776,1,0,0:0:0:0:
128,216,9855,1,0,0:0:0:0:
96,244,9933,1,0,0:0:0:0:
88,284,10011,1,0,0:0:0:0:
104,324,10089,1,0,0:0:0:0:
144,344,10168,5,0,0:0:0:0:
184,332,10246,1,0,0:0:0:0:
196,292,10324,1,0,0:0:0:0:
176,240,10402,1,0,0:0:0:0:
144,192,10481,1,0,0:0:0:0:
100,156,10559,1,0,0:0:0:0:
84,100,10637,1,0,0:0:0:0:
100,44,10715,1,0,0:0:0:0:
208,52,10793,5,4,2:0:0:0:
212,84,10871,1,0,0:0:0:0:
232,104,10949,1,2,0:0:0:0:
252,124,11028,1,0,0:0:0:0:
272,144,11106,1,2,0:0:0:0:
260,184,11185,5,0,0:0:0:0:
272,220,11262,1,2,0:0:0:0:
268,256,11341,1,0,0:0:0:0:
272,292,11419,1,2,0:0:0:0:
300,328,11498,1,0,0:0:0:0:
344,348,11575,1,2,0:0:0:0:
392,344,11654,5,0,0:0:0:0:
440,312,11732,1,2,0:0:0:0:
464,260,11811,1,0,0:0:0:0:
452,196,11889,1,2,0:0:0:0:
416,140,11967,1,0,0:0:0:0:
360,104,12046,2,0,P|296:76|260:80,1,95,4|0,2:0|0:0,0:0:0:0:
40,208,12358,6,0,B|88:224|28:288|64:272|44:304|108:240|136:320,1,142.500005435944,8|0,0:0|0:0,0:0:0:0:
340,212,12671,1,0,0:0:0:0:
168,240,12828,1,0,0:0:0:0:
264,80,12984,1,0,0:0:0:0:
320,288,13141,1,0,0:0:0:0:
48,116,13297,1,0,0:0:0:0:
304,16,13454,6,0,B|336:32|340:56|340:84|368:64|396:56|432:76,1,142.500005435944,8|0,0:0|0:0,0:0:0:0:
192,224,13767,2,0,P|192:312|136:340,1,142.500005435944,8|0,0:0|0:0,0:0:0:0:
376,148,14080,1,8,0:0:0:0:
372,192,14158,1,0,0:0:0:0:
384,232,14236,2,0,B|428:324|468:252|416:380|356:276,1,142.500005435944,0|8,0:0|0:0,0:0:0:0:
88,216,14549,1,0,0:0:0:0:
284,72,14706,1,0,0:0:0:0:
52,72,14862,6,0,B|84:56|56:180|208:120|124:92|152:196,1,142.500005435944,8|0,0:0|0:0,0:0:0:0:
208,344,15175,1,0,0:0:0:0:
252,188,15332,1,0,0:0:0:0:
320,280,15488,1,0,0:0:0:0:
384,64,15645,5,2,0:0:0:0:
136,112,15801,1,2,0:0:0:0:
472,160,15958,2,0,B|460:192|392:192|392:216|460:212|476:276,2,142.500005435944,2|0|2,0:0|0:0|0:0,0:0:0:0:
256,28,16427,5,2,0:0:0:0:
348,180,16583,1,2,0:0:0:0:
36,320,16740,1,0,0:0:0:0:
136,112,16896,1,2,0:0:0:0:
156,164,16975,1,0,0:0:0:0:
156,220,17053,2,0,B|104:240|208:316|144:348,1,142.500005435944,4|0,2:0|0:0,0:0:0:0:
464,228,17366,6,0,B|404:248|480:316|464:340|384:316|372:272,1,142.500005435944,8|0,0:0|0:0,0:0:0:0:
212,52,17679,1,0,0:0:0:0:
376,132,17835,1,0,0:0:0:0:
112,132,17992,1,0,0:0:0:0:
344,352,18148,1,0,0:0:0:0:
432,80,18305,1,0,0:0:0:0:
264,36,18461,6,0,B|240:88|200:0|168:56|348:120|172:136,1,142.500005435944,8|0,0:0|0:0,0:0:0:0:
72,352,18774,2,0,B|140:284|56:284|116:244|200:332,1,142.500005435944,8|0,0:0|0:0,0:0:0:0:
416,316,19087,1,8,0:0:0:0:
444,280,19166,1,0,0:0:0:0:
440,236,19244,2,0,B|372:216|488:172|484:140|360:152,1,142.500005435944,0|8,0:0|0:0,0:0:0:0:
84,176,19557,1,0,0:0:0:0:
352,112,19713,1,0,0:0:0:0:
124,16,19870,2,0,B|212:76|196:12|80:84|180:148|192:164,1,142.500005435944,8|0,0:0|0:0,0:0:0:0:
332,200,20183,5,0,0:0:0:0:
84,260,20339,1,0,0:0:0:0:
184,344,20496,1,0,0:0:0:0:
264,60,20652,1,2,0:0:0:0:
300,84,20731,1,2,0:0:0:0:
344,76,20809,2,0,B|416:92|376:64|424:8|452:104,1,142.500005435944,4|2,2:0|0:0,0:0:0:0:
272,352,21122,2,0,B|224:312|312:356|300:296|368:312|256:228,1,142.500005435944,2|0,0:0|0:0,0:0:0:0:
48,172,21435,5,2,0:0:0:0:
236,28,21591,1,2,0:0:0:0:
460,340,21748,1,0,1:0:0:0:
148,316,21904,1,0,1:0:0:0:
436,60,22061,2,0,B|424:116|336:84|468:168|376:160,1,118.75,4|0,1:0|0:0,0:0:0:0:
252,152,22374,5,0,0:0:0:0:
421,249,22530,1,0,0:0:0:0:
251,347,22687,1,0,0:0:0:0:
156,44,22843,1,0,0:0:0:0:
156,44,22922,1,0,0:0:0:0:
156,44,23000,1,0,0:0:0:0:
78,281,23156,1,0,0:0:0:0:
322,229,23313,1,0,0:0:0:0:
364,56,23469,6,0,B|364:20|308:52|276:0,1,59.375,0|0,0:0|2:0,0:0:0:0:
484,160,23626,2,0,B|484:204|428:204|436:216|460:212|508:236|428:276,1,118.75
124,312,23939,1,0,0:0:0:0:
380,268,24095,1,0,0:0:0:0:
216,40,24252,1,0,0:0:0:0:
200,72,24330,1,0,0:0:0:0:
200,108,24408,2,0,B|184:176|260:156|248:256|184:212,1,118.75
328,96,24721,5,0,0:0:0:0:
56,200,24878,1,0,0:0:0:0:
280,364,25034,2,0,B|268:384|224:332|184:352|188:368,1,59.375,0|0,0:0|2:0,0:0:0:0:
400,248,25191,2,0,B|420:272|460:268|472:228|476:344|432:320,1,118.75
160,236,25504,1,0,0:0:0:0:
484,124,25660,1,0,0:0:0:0:
484,124,25738,1,0,0:0:0:0:
484,124,25817,1,0,0:0:0:0:
344,32,25973,5,0,0:0:0:0:
52,168,26130,1,0,0:0:0:0:
188,308,26286,1,0,0:0:0:0:
188,36,26443,1,0,0:0:0:0:
220,52,26521,1,0,0:0:0:0:
240,80,26599,2,0,B|244:148|316:104|356:136|256:168,1,118.75
244,332,26912,5,0,0:0:0:0:
384,92,27069,1,0,0:0:0:0:
404,368,27225,1,0,0:0:0:0:
188,136,27382,1,0,0:0:0:0:
480,276,27538,2,0,B|472:308|416:196|348:212|408:300,1,118.75
52,208,27851,1,0,0:0:0:0:
336,316,28008,1,0,0:0:0:0:
416,124,28164,1,0,0:0:0:0:
444,100,28242,1,0,0:0:0:0:
460,68,28321,2,0,B|416:28|416:80|364:76|384:16|352:24,1,118.75
80,56,28634,5,0,0:0:0:0:
304,196,28790,1,0,0:0:0:0:
156,344,28947,1,0,0:0:0:0:
184,56,29103,1,0,0:0:0:0:
184,56,29181,1,0,0:0:0:0:
184,56,29260,1,0,0:0:0:0:
392,132,29416,1,0,0:0:0:0:
88,256,29573,2,0,B|152:248|148:216|76:208|192:232|180:276,1,118.75
348,372,29886,6,0,P|412:336|412:284,1,118.75,8|0,0:0|0:0,0:0:0:0:
292,248,30199,1,0,0:0:0:0:
440,120,30355,1,0,0:0:0:0:
272,356,30512,1,0,0:0:0:0:
204,56,30668,1,0,0:0:0:0:
432,112,30824,1,0,0:0:0:0:
191,235,30981,6,0,B|255:259|231:183|283:199|259:279|343:247,1,118.75,8|0,0:0|0:0,0:0:0:0:
144,112,31294,1,8,0:0:0:0:
112,96,31372,1,0,0:0:0:0:
76,96,31450,2,0,B|76:128|-20:112|16:164|-8:164,1,59.375
112,336,31607,2,0,L|100:268,1,59.375,8|0,0:0|0:0,0:0:0:0:
244,188,31763,2,0,L|256:116,1,59.375
332,32,31920,1,8,0:0:0:0:
380,56,31998,1,0,0:0:0:0:
400,104,32076,1,4,2:0:0:0:
264,300,32233,5,0,0:0:0:0:
472,160,32389,1,0,0:0:0:0:
408,336,32546,1,0,0:0:0:0:
304,24,32702,1,0,0:0:0:0:
304,24,32781,1,0,0:0:0:0:
304,24,32859,1,0,0:0:0:0:
104,184,33015,1,0,0:0:0:0:
416,52,33172,2,0,B|376:72|344:72|344:100|420:116|388:140|344:144,1,118.75
232,116,33485,5,0,0:0:0:0:
484,244,33641,1,0,0:0:0:0:
456,264,33720,1,0,0:0:0:0:
420,260,33798,1,0,0:0:0:0:
228,328,33954,1,0,0:0:0:0:
472,136,34111,1,0,0:0:0:0:
176,32,34267,2,0,P|120:76|120:128,1,118.75
300,356,34580,6,0,P|284:284|240:256,1,118.75
40,316,34893,1,0,0:0:0:0:
264,132,35050,1,0,0:0:0:0:
264,132,35128,1,0,0:0:0:0:
264,132,35206,1,0,0:0:0:0:
104,68,35363,1,0,0:0:0:0:
480,164,35519,2,0,B|460:184|436:152|440:96|420:152|384:188|356:164,1,118.75
136,228,35832,1,0,0:0:0:0:
288,300,35989,5,0,0:0:0:0:
96,120,36145,1,0,0:0:0:0:
352,64,36302,1,0,0:0:0:0:
456,272,36458,5,0,0:0:0:0:
152,356,36615,1,0,0:0:0:0:
212,44,36771,1,0,0:0:0:0:
240,76,36850,1,0,0:0:0:0:
232,116,36928,1,0,0:0:0:0:
220,328,37084,2,0,B|244:348|252:364|268:364|268:256|356:308,1,118.75
480,212,37397,1,0,0:0:0:0:
384,64,37554,1,0,0:0:0:0:
464,336,37710,1,0,0:0:0:0:
132,292,37867,5,0,0:0:0:0:
336,228,38023,1,0,0:0:0:0:
132,152,38180,1,0,0:0:0:0:
336,84,38336,1,0,0:0:0:0:
196,16,38493,6,0,B|168:32|240:100|232:136|164:124,1,118.75
48,296,38806,1,0,0:0:0:0:
80,324,38884,1,0,0:0:0:0:
120,336,38962,2,0,B|168:360|152:312|172:248|240:320|248:268,1,118.75
492,296,39275,1,0,0:0:0:0:
216,172,39432,1,0,0:0:0:0:
504,152,39588,1,0,0:0:0:0:
228,8,39745,1,0,0:0:0:0:
60,120,39901,6,0,B|100:168|128:148|132:108|136:188|140:216,1,118.75,8|0,0:0|0:0,0:0:0:0:
364,256,40214,1,0,0:0:0:0:
244,352,40371,1,0,0:0:0:0:
348,52,40527,1,0,0:0:0:0:
496,332,40684,1,0,0:0:0:0:
292,260,40840,5,0,0:0:0:0:
264,236,40918,1,0,0:0:0:0:
228,240,40997,1,0,0:0:0:0:
208,268,41075,1,8,0:0:0:0:
188,312,41153,5,0,0:0:0:0:
144,332,41231,1,0,0:0:0:0:
100,312,41310,1,0,0:0:0:0:
64,268,41388,1,0,0:0:0:0:
56,208,41466,1,8,0:0:0:0:
68,148,41544,1,0,0:0:0:0:
96,96,41623,1,8,0:0:0:0:
144,60,41701,1,0,0:0:0:0:
204,52,41779,5,8,0:0:0:0:
268,60,41857,1,0,0:0:0:0:
328,84,41936,1,0,0:0:0:0:
372,132,42014,1,0,0:0:0:0:
396,196,42092,2,0,P|384:272|368:292,1,71.2500027179719,4|0,2:0|0:0,0:0:0:0:
96,96,42249,2,0,L|176:140,1,71.2500027179719
288,352,42405,6,0,P|312:276|308:256,1,71.2500027179719,2|0,0:0|0:0,0:0:0:0:
48,228,42562,2,0,P|124:252|144:248,1,71.2500027179719,2|0,0:0|0:0,0:0:0:0:
256,24,42718,2,0,P|232:100|236:120,1,71.2500027179719,2|0,0:0|0:0,0:0:0:0:
452,192,42875,2,0,P|376:168|356:172,1,71.2500027179719,2|0,0:0|0:0,0:0:0:0:
156,196,43031,5,2,0:0:0:0:
192,232,43109,1,0,0:0:0:0:
240,248,43188,2,0,P|316:216|324:200,1,71.2500027179719
196,24,43344,6,0,L|228:108,1,71.2500027179719
308,360,43501,2,0,P|376:304|376:280,1,71.2500027179719
492,184,43657,2,0,P|408:144|392:144,1,71.2500027179719
68,108,43814,2,0,B|72:148|100:104|144:124|172:124|160:136,1,71.2500027179719
351,51,43970,1,2,0:0:0:0:
403,91,44048,1,0,0:0:0:0:
431,147,44127,1,2,0:0:0:0:
232,384,44283,1,4,2:0:0:0:
32,268,44440,2,0,B|88:332|80:280|100:196|156:236,1,142.500005435944,4|0,2:0|0:0,0:0:0:0:
440,288,44753,5,0,0:0:0:0:
240,216,44909,1,0,0:0:0:0:
504,136,45065,1,0,0:0:0:0:
504,136,45144,1,0,0:0:0:0:
504,136,45222,1,0,0:0:0:0:
148,16,45378,1,0,0:0:0:0:
400,28,45535,2,0,B|396:44|304:24|344:96|432:148|288:112,1,142.500005435944
80,228,45848,2,0,B|64:308|104:264|144:260|180:276|132:352,1,142.500005435944
176,356,46083,5,0,0:0:0:0:
220,380,46161,1,0,0:0:0:0:
268,376,46239,1,0,0:0:0:0:
308,348,46317,1,0,0:0:0:0:
352,300,46396,1,0,0:0:0:0:
356,236,46474,1,0,0:0:0:0:
388,180,46552,1,0,0:0:0:0:
444,148,46630,6,0,B|484:128|476:184|520:176|516:208,1,71.2500027179719,2|0,0:0|0:0,0:0:0:0:
284,313,46787,2,0,P|324:313|355:296,1,71.2500027179719,2|0,0:0|0:0,0:0:0:0:
72,268,46943,2,0,P|44:228|60:168,1,71.2500027179719,2|0,0:0|0:0,0:0:0:0:
256,32,47100,5,4,1:0:0:0:
488,232,47256,1,0,0:0:0:0:
360,344,47413,1,0,0:0:0:0:
440,32,47569,1,0,0:0:0:0:
68,96,47726,1,0,0:0:0:0:
360,124,47882,1,0,0:0:0:0:
360,124,47961,1,0,0:0:0:0:
360,124,48039,1,0,0:0:0:0:
76,344,48195,1,0,0:0:0:0:
376,344,48352,6,0,B|288:336|296:288|444:260|320:248|352:272,1,142.500005435944
52,196,48665,1,0,0:0:0:0:
232,24,48821,2,0,B|280:20|264:64|264:96|288:80|320:24|352:68,1,142.500005435944
344,264,49134,1,0,0:0:0:0:
396,288,49213,1,0,0:0:0:0:
452,288,49291,2,0,B|520:312|388:224|544:176|504:232|404:176,1,142.500005435944
40,316,49604,2,0,B|92:384|80:232|172:280,1,142.500005435944
408,307,49917,2,0,P|464:231|424:175,1,142.500005435944
276,32,50230,5,2,0:0:0:0:
36,168,50386,1,2,0:0:0:0:
244,348,50543,1,2,0:0:0:0:
444,144,50699,1,2,0:0:0:0:
132,44,50856,1,2,0:0:0:0:
116,100,50934,1,2,0:0:0:0:
136,152,51012,6,0,B|140:208|216:176|204:264|140:260|124:236,1,142.500005435944,0|2,2:0|0:0,0:0:0:0:
372,332,51325,1,2,0:0:0:0:
208,44,51482,2,0,P|236:128|248:136,1,71.2500027179719,2|0,2:0|0:0,0:0:0:0:
488,236,51638,2,0,P|460:152|448:144,1,71.2500027179719,2|0,2:0|0:0,0:0:0:0:
336,24,51795,2,0,B|320:64|264:108|324:88|344:104|316:156,1,142.500005435944,4|0,2:0|2:0,0:0:0:0:
144,356,52108,1,0,0:0:0:0:
420,212,52264,2,0,P|448:272|384:316,1,142.500005435944
28,172,52577,2,0,B|64:192|108:136|112:168|92:216|176:208,1,142.500005435944
400,316,52890,5,0,0:0:0:0:
436,36,53047,1,0,0:0:0:0:
388,64,53125,1,0,0:0:0:0:
364,120,53203,1,0,0:0:0:0:
400,316,53360,1,0,0:0:0:0:
468,128,53516,1,0,0:0:0:0:
128,280,53673,2,0,P|72:252|72:136,1,142.500005435944
144,12,53986,5,0,0:0:0:0:
144,12,54064,1,0,0:0:0:0:
144,12,54142,1,0,0:0:0:0:
380,72,54299,1,0,0:0:0:0:
152,124,54455,1,0,0:0:0:0:
488,280,54612,2,0,B|472:316|408:248|416:316|496:360|432:380|376:336,1,142.500005435944
48,216,54925,5,2,0:0:0:0:
228,308,55081,1,2,0:0:0:0:
232,24,55238,1,2,0:0:0:0:
292,352,55394,1,2,0:0:0:0:
332,312,55472,1,0,0:0:0:0:
344,256,55551,2,0,P|332:172|320:152,1,71.2500027179719,2|2,0:0|0:0,0:0:0:0:
124,200,55707,2,0,P|208:188|228:176,1,71.2500027179719,2|2,0:0|0:0,0:0:0:0:
336,44,55864,2,0,P|408:64|456:120,1,142.500005435944,2|4,0:0|2:0,0:0:0:0:
448,168,56098,5,0,0:0:0:0:
420,216,56177,1,0,0:0:0:0:
432,272,56255,1,0,0:0:0:0:
464,316,56333,1,0,0:0:0:0:
436,364,56411,1,0,0:0:0:0:
380,384,56490,1,0,0:0:0:0:
312,368,56568,1,2,0:0:0:0:
256,328,56646,1,2,0:0:0:0:
212,272,56724,1,2,0:0:0:0:
192,204,56803,1,2,0:0:0:0:
192,132,56881,6,8,P|172:96|120:68,1,71.2500027179719
308,36,57037,2,0,P|348:16|396:16,1,71.2500027179719,8|4,0:0|1:0,0:0:0:0:
64,212,57272,5,0,0:0:0:0:
488,104,57429,1,0,0:0:0:0:
296,352,57585,1,0,0:0:0:0:
384,84,57742,1,0,0:0:0:0:
344,316,57898,1,0,0:0:0:0:
232,32,58055,1,0,0:0:0:0:
128,176,58211,5,0,0:0:0:0:
152,228,58289,1,0,0:0:0:0:
200,260,58368,2,0,B|272:296|208:164|276:260|328:248,1,142.500005435944,0|2,0:0|0:0,0:0:0:0:
496,204,58681,1,2,0:0:0:0:
392,28,58837,1,2,0:0:0:0:
272,336,58994,1,2,0:0:0:0:
216,352,59072,1,0,0:0:0:0:
160,348,59150,2,0,B|88:328|152:300|176:248|60:196,1,142.500005435944
112,36,59463,2,0,P|204:36|232:104,1,142.500005435944
344,292,59776,5,0,0:0:0:0:
492,152,59932,1,0,0:0:0:0:
492,152,60011,1,0,0:0:0:0:
492,152,60089,1,0,0:0:0:0:
176,272,60245,1,0,0:0:0:0:
368,28,60402,2,0,B|392:108|308:128|360:176|376:160,1,142.500005435944
484,348,60715,1,2,0:0:0:0:
192,320,60871,1,2,0:0:0:0:
496,208,61028,5,2,0:0:0:0:
128,280,61184,1,2,0:0:0:0:
48,132,61341,5,2,0:0:0:0:
400,228,61497,1,2,0:0:0:0:
460,72,61654,5,2,2:0:0:0:
460,72,61732,1,2,2:0:0:0:
460,72,61810,1,2,2:0:0:0:
124,112,61967,2,0,B|132:160|192:124|156:48|208:40|228:72,1,142.500005435944,4|0,2:0|0:0,0:0:0:0:
456,172,62280,5,0,0:0:0:0:
456,172,62358,1,0,0:0:0:0:
456,172,62436,1,0,0:0:0:0:
340,344,62593,1,0,0:0:0:0:
36,268,62749,1,0,0:0:0:0:
304,132,62906,2,0,B|304:168|188:164|304:228|280:268|212:232,1,142.500005435944
52,76,63219,1,0,0:0:0:0:
356,32,63375,2,0,P|436:96|436:168,1,142.500005435944
396,356,63688,2,0,B|352:376|320:264|296:380|260:344,1,142.500005435944
112,128,64001,5,0,0:0:0:0:
80,176,64080,1,0,0:0:0:0:
76,232,64158,1,0,0:0:0:0:
312,220,64314,1,0,0:0:0:0:
40,116,64471,1,0,0:0:0:0:
424,40,64627,2,0,B|380:40|368:88|388:128|348:132|308:88,1,142.500005435944
156,68,64940,5,0,0:0:0:0:
260,272,65097,1,0,0:0:0:0:
212,52,65253,1,0,0:0:0:0:
168,360,65410,1,0,0:0:0:0:
168,360,65488,1,0,0:0:0:0:
168,360,65566,1,0,0:0:0:0:
392,300,65723,2,0,P|364:224|292:212,1,142.500005435944
24,272,66036,1,0,0:0:0:0:
168,40,66192,2,0,B|160:116|256:88|272:68|304:112,1,142.500005435944
328,116,66427,5,0,0:0:0:0:
364,160,66505,1,0,0:0:0:0:
376,216,66583,1,0,0:0:0:0:
348,268,66662,1,0,0:0:0:0:
292,256,66740,1,0,0:0:0:0:
248,288,66818,1,0,0:0:0:0:
192,276,66896,1,0,0:0:0:0:
152,236,66975,1,0,0:0:0:0:
104,208,67053,1,0,0:0:0:0:
48,216,67131,1,4,1:0:0:0:
248,176,67288,5,0,0:0:0:0:
48,40,67444,2,0,B|96:88|132:56|148:36|184:80,1,118.75,8|0,0:0|0:0,0:0:0:0:
432,40,67757,1,0,0:0:0:0:
292,284,67914,1,0,0:0:0:0:
332,72,68070,1,0,0:0:0:0:
476,348,68227,1,0,0:0:0:0:
476,348,68305,1,0,0:0:0:0:
476,348,68383,1,0,0:0:0:0:
468,136,68540,6,0,B|396:156|436:216|352:208|340:176,1,118.75,8|0,0:0|0:0,0:0:0:0:
152,72,68853,2,0,B|72:64|56:24|72:96|112:112,1,118.75,8|0,0:0|0:0,0:0:0:0:
268,224,69166,1,8,0:0:0:0:
284,268,69244,1,0,0:0:0:0:
276,316,69322,2,0,B|228:352|208:272|168:248|132:308,1,118.75,0|8,0:0|0:0,0:0:0:0:
304,20,69635,1,0,0:0:0:0:
76,236,69792,1,0,0:0:0:0:
380,176,69948,2,0,B|444:164|424:100|480:168|464:240,1,118.75,8|0,0:0|0:0,0:0:0:0:
428,308,70261,5,0,0:0:0:0:
248,360,70418,1,0,0:0:0:0:
384,84,70574,1,0,0:0:0:0:
88,24,70731,1,2,0:0:0:0:
120,60,70809,1,2,0:0:0:0:
168,64,70887,2,0,B|232:72|216:4|288:24|264:72|232:92,1,118.75,2|0,0:0|0:0,0:0:0:0:
188,344,71200,2,0,B|232:296|224:280|144:268|276:304,1,118.75,2|0,0:0|0:0,0:0:0:0:
484,144,71513,5,2,0:0:0:0:
364,300,71670,1,2,0:0:0:0:
32,264,71826,1,6,0:2:0:0:
76,244,71904,1,0,0:0:0:0:
112,212,71983,1,2,0:0:0:0:
140,172,72061,1,0,0:0:0:0:
176,144,72139,1,4,2:0:0:0:
388,40,72296,1,0,0:0:0:0:
464,216,72452,6,0,B|392:232|436:272|448:288|368:280,1,118.75,8|0,0:0|0:0,0:0:0:0:
104,144,72765,1,0,0:0:0:0:
264,356,72922,1,0,0:0:0:0:
288,44,73078,1,0,0:0:0:0:
288,44,73156,1,0,0:0:0:0:
288,44,73235,1,0,0:0:0:0:
208,308,73391,1,0,0:0:0:0:
64,96,73547,6,0,B|96:132|116:44|140:44|160:76|172:100,1,118.75,8|0,0:0|0:0,0:0:0:0:
476,232,73860,2,0,B|428:232|508:328|412:264|412:312,1,118.75,8|0,0:0|0:0,0:0:0:0:
88,320,74173,1,8,0:0:0:0:
100,272,74252,1,0,0:0:0:0:
132,236,74330,2,0,B|160:240|216:224|144:160|236:160,1,118.75,0|8,0:0|0:0,0:0:0:0:
472,152,74643,1,0,0:0:0:0:
256,16,74799,1,0,0:0:0:0:
424,348,74956,2,0,B|404:288|468:312|448:252|368:244|368:296,1,118.75,8|0,0:0|0:0,0:0:0:0:
272,312,75269,5,0,0:0:0:0:
408,144,75425,1,0,0:0:0:0:
328,356,75582,1,0,0:0:0:0:
124,80,75738,1,2,0:0:0:0:
152,120,75817,1,2,0:0:0:0:
148,168,75895,2,0,B|160:188|36:236|144:248|144:288,1,118.75,2|0,0:0|0:0,0:0:0:0:
400,96,76208,2,0,B|472:64|372:24|480:128,1,118.75,2|0,0:0|0:0,0:0:0:0:
500,304,76521,5,2,0:0:0:0:
264,364,76677,1,2,0:0:0:0:
56,144,76834,1,2,0:0:0:0:
92,104,76912,1,0,0:0:0:0:
108,52,76990,1,2,0:0:0:0:
152,24,77069,1,0,0:0:0:0:
200,52,77147,2,0,P|252:120|244:164,1,71.2500027179719,4|0,1:0|0:0,0:0:0:0:
156,252,77303,2,0,P|175:281|205:299,1,71.2500027179719,4|0,1:0|0:0,0:0:0:0:
424,56,77460,6,0,L|328:116,1,71.2500027179719,2|0,0:0|0:0,0:0:0:0:
424,328,77616,2,0,L|328:268,1,71.2500027179719,2|0,0:0|0:0,0:0:0:0:
88,56,77773,2,0,L|148:93,1,71.2500027179719,2|0,0:0|0:0,0:0:0:0:
88,328,77929,2,0,L|148:290,1,71.2500027179719,2|0,0:0|0:0,0:0:0:0:
216,196,78086,5,2,0:0:0:0:
268,216,78164,1,0,0:0:0:0:
320,192,78242,2,0,P|404:168|432:176,1,71.2500027179719,2|0,0:0|0:0,0:0:0:0:
268,328,78399,2,0,P|184:352|156:344,1,71.2500027179719,2|0,0:0|0:0,0:0:0:0:
280,96,78555,1,2,0:0:0:0:
224,108,78634,1,0,0:0:0:0:
180,144,78712,2,0,B|160:144|180:228|96:192,1,71.2500027179719,2|0,0:0|0:0,0:0:0:0:
40,56,78868,2,0,P|116:32|152:36,1,71.2500027179719,2|0,0:0|0:0,0:0:0:0:
388,48,79025,5,4,2:0:0:0:
424,92,79103,1,0,0:0:0:0:
420,148,79181,1,4,2:0:0:0:
141,199,79338,1,4,2:0:0:0:
492,292,79494,2,0,B|460:296|332:280|424:240|484:332|376:328,1,142.500005435944
80,296,79807,1,0,0:0:0:0:
128,328,79886,1,0,0:0:0:0:
184,328,79964,1,0,0:0:0:0:
456,168,80120,5,0,0:0:0:0:
300,344,80277,1,0,0:0:0:0:
120,40,80433,1,0,0:0:0:0:
428,80,80590,2,0,B|420:120|292:32|408:148|324:140,1,142.500005435944
128,184,80903,5,0,0:0:0:0:
116,216,80981,1,0,0:0:0:0:
100,248,81059,1,0,0:0:0:0:
84,280,81137,1,0,0:0:0:0:
168,352,81216,5,0,0:0:0:0:
200,340,81294,1,0,0:0:0:0:
232,328,81372,1,0,0:0:0:0:
264,316,81450,1,0,0:0:0:0:
364,312,81529,5,2,0:0:0:0:
388,288,81607,1,2,0:0:0:0:
412,260,81685,1,2,0:0:0:0:
436,232,81763,1,2,0:0:0:0:
480,112,81842,5,0,1:0:0:0:
420,92,81920,1,0,1:0:0:0:
356,84,81998,1,0,1:0:0:0:
292,92,82076,1,0,1:0:0:0:
232,112,82155,1,4,1:0:0:0:
440,180,82311,5,4,2:0:0:0:
40,256,82468,1,4,2:0:0:0:
200,368,82624,1,4,2:0:0:0:
288,28,82781,1,0,0:0:0:0:
496,292,82937,1,0,0:0:0:0:
208,104,83094,2,0,B|228:176|128:152|164:128|232:248|148:228,1,142.500005435944
436,144,83407,5,0,0:0:0:0:
428,88,83485,1,0,0:0:0:0:
400,40,83563,1,0,0:0:0:0:
132,92,83720,1,0,0:0:0:0:
364,120,83876,1,0,0:0:0:0:
72,236,84033,1,0,0:0:0:0:
364,360,84189,1,0,0:0:0:0:
248,36,84346,2,0,B|296:44|124:184|320:60|236:160,1,142.500005435944
464,128,84659,5,0,0:0:0:0:
344,280,84815,1,0,0:0:0:0:
344,280,84893,1,0,0:0:0:0:
344,280,84972,1,0,0:0:0:0:
392,72,85128,1,0,0:0:0:0:
232,344,85285,1,0,0:0:0:0:
72,296,85441,1,0,0:0:0:0:
460,204,85598,1,0,0:0:0:0:
184,28,85754,1,0,0:0:0:0:
156,76,85832,1,0,0:0:0:0:
164,132,85911,6,0,B|128:156|228:244|176:276|156:228,1,142.500005435944,2|2,0:0|0:0,0:0:0:0:
400,88,86224,2,0,B|384:156|540:16|404:200|476:148,1,142.500005435944,2|2,0:0|0:0,0:0:0:0:
164,240,86537,1,4,2:0:0:0:
424,344,86693,1,2,0:0:0:0:
288,28,86850,1,2,0:0:0:0:
288,28,86928,1,2,0:0:0:0:
288,28,87006,1,2,0:0:0:0:
328,184,87163,2,0,B|336:224|228:240|400:264|280:296,1,142.500005435944
56,104,87476,5,0,0:0:0:0:
176,336,87632,1,0,0:0:0:0:
468,176,87788,1,4,2:0:0:0:
140,264,87945,1,0,0:0:0:0:
272,76,88101,2,0,B|380:140|380:16|328:68|268:64,1,142.500005435944
48,84,88414,1,0,0:0:0:0:
308,216,88571,1,0,0:0:0:0:
316,272,88649,1,0,0:0:0:0:
284,320,88727,1,0,0:0:0:0:
176,168,88884,6,0,B|84:144|172:224|132:240|68:208,1,142.500005435944
172,60,89197,1,0,0:0:0:0:
88,304,89353,1,0,0:0:0:0:
244,48,89510,1,0,0:0:0:0:
456,288,89666,1,0,0:0:0:0:
444,232,89745,1,0,0:0:0:0:
420,180,89823,2,0,B|400:168|440:104|440:104|336:132,1,142.500005435944
340,144,90058,5,0,0:0:0:0:
312,184,90136,1,0,0:0:0:0:
308,232,90214,1,0,0:0:0:0:
284,276,90292,1,0,0:0:0:0:
20,216,90449,1,0,0:0:0:0:
224,348,90605,1,0,0:0:0:0:
312,24,90762,1,0,0:0:0:0:
152,312,90918,1,0,0:0:0:0:
468,152,91075,1,0,0:0:0:0:
188,32,91231,5,0,0:0:0:0:
160,80,91310,1,0,0:0:0:0:
148,136,91388,1,0,0:0:0:0:
164,192,91466,1,0,0:0:0:0:
208,224,91544,1,0,0:0:0:0:
264,216,91623,1,0,0:0:0:0:
304,176,91701,2,0,P|256:104|232:104,1,71.2500027179719,2|2,0:0|0:0,0:0:0:0:
372,8,91857,2,0,P|420:80|444:80,1,71.2500027179719,2|2,0:0|0:0,0:0:0:0:
476,160,92014,1,2,0:0:0:0:
460,228,92092,1,2,0:0:0:0:
420,284,92170,5,4,1:0:0:0:
88,160,92327,1,4,2:0:0:0:
344,360,92483,1,4,2:0:0:0:
448,88,92640,1,4,2:0:0:0:
160,344,92796,1,0,0:0:0:0:
292,40,92953,1,0,0:0:0:0:
312,92,93031,1,0,0:0:0:0:
304,148,93109,2,0,B|268:220|340:224|356:256|256:256,1,142.500005435944
112,128,93422,5,2,0:0:0:0:
472,224,93579,1,2,0:0:0:0:
152,296,93735,1,2,0:0:0:0:
416,40,93892,1,2,0:0:0:0:
416,40,93970,1,0,0:0:0:0:
416,40,94048,1,0,0:0:0:0:
480,304,94205,1,0,0:0:0:0:
96,176,94361,2,0,B|124:240|152:92|188:108|184:172,1,142.500005435944
260,312,94674,5,0,0:0:0:0:
380,56,94831,2,0,B|376:132|444:96|448:184|376:152,1,142.500005435944
256,44,95144,1,0,0:0:0:0:
464,264,95300,1,0,0:0:0:0:
340,352,95457,1,0,0:0:0:0:
444,72,95613,1,0,0:0:0:0:
128,272,95770,1,0,0:0:0:0:
128,272,95848,1,0,0:0:0:0:
128,272,95926,1,0,0:0:0:0:
312,256,96083,5,2,0:0:0:0:
68,184,96239,1,2,0:0:0:0:
184,20,96396,1,2,0:0:0:0:
256,364,96552,1,2,0:0:0:0:
372,216,96709,2,0,B|436:256|396:200|436:152|408:220|488:236,1,142.500005435944
416,56,97022,1,0,0:0:0:0:
360,52,97100,1,0,0:0:0:0:
304,64,97178,2,0,B|240:112|292:132|264:168|200:128,1,142.500005435944
96,64,97491,6,0,P|24:96|84:164,1,142.500005435944
392,248,97804,1,0,0:0:0:0:
140,196,97961,1,0,0:0:0:0:
280,360,98117,1,0,0:0:0:0:
248,40,98274,1,0,0:0:0:0:
248,40,98352,1,0,0:0:0:0:
248,40,98430,1,0,0:0:0:0:
384,80,98587,1,0,0:0:0:0:
48,316,98743,2,0,B|100:372|52:264|172:256,1,142.500005435944
384,200,99056,5,0,0:0:0:0:
304,348,99213,2,0,B|228:316|228:364|140:324|240:264,1,142.500005435944
380,76,99526,2,0,B|496:32|420:0|448:116,1,142.500005435944
396,304,99839,1,0,0:0:0:0:
60,220,99995,1,0,0:0:0:0:
200,84,100152,1,0,0:0:0:0:
88,352,100308,1,0,0:0:0:0:
264,36,100465,1,0,0:0:0:0:
300,332,100621,1,0,0:0:0:0:
316,280,100699,1,0,0:0:0:0:
296,228,100778,1,0,0:0:0:0:
64,180,100934,6,0,B|168:116|-4:136|44:68|136:84,1,142.500005435944
144,76,101169,1,0,0:0:0:0:
200,80,101247,1,0,0:0:0:0:
252,104,101325,1,0,0:0:0:0:
284,152,101404,2,0,P|292:232|276:252,1,71.2500027179719
184,364,101560,2,0,P|176:284|192:264,1,71.2500027179719
224,188,101717,5,0,0:0:0:0:
276,168,101795,1,0,0:0:0:0:
332,176,101873,1,0,0:0:0:0:
372,216,101951,1,0,0:0:0:0:
408,260,102030,1,0,0:0:0:0:
464,244,102108,1,0,0:0:0:0:
476,188,102186,2,0,B|432:128|468:128|504:96|404:88,1,142.500005435944
64,32,102499,6,0,B|132:44|88:88|0:128|116:152,1,142.500005435944
300,348,102812,1,0,0:0:0:0:
220,76,102968,1,0,0:0:0:0:
76,264,103125,1,0,0:0:0:0:
408,56,103281,1,0,0:0:0:0:
408,296,103438,5,0,0:0:0:0:
408,296,103516,1,0,0:0:0:0:
408,296,103594,1,0,0:0:0:0:
132,136,103751,1,0,0:0:0:0:
132,136,103829,1,0,0:0:0:0:
132,136,103907,1,0,0:0:0:0:
368,72,104064,1,0,0:0:0:0:
420,96,104142,1,0,0:0:0:0:
452,144,104220,1,0,0:0:0:0:
192,340,104377,2,0,B|264:280|208:240|152:284|208:300,1,142.500005435944
424,284,104690,6,0,B|484:232|504:256|488:212|408:180,1,142.500005435944
88,44,105003,2,0,B|84:112|156:144|184:100|144:92,1,142.500005435944
332,48,105316,1,0,0:0:0:0:
32,120,105472,1,0,0:0:0:0:
108,368,105629,1,0,0:0:0:0:
252,44,105785,1,0,0:0:0:0:
288,88,105864,1,0,0:0:0:0:
344,104,105942,6,0,B|444:120|460:96|432:40|384:88,1,142.500005435944
184,340,106255,1,0,0:0:0:0:
424,216,106411,1,0,0:0:0:0:
128,64,106568,1,0,0:0:0:0:
128,64,106646,1,0,0:0:0:0:
128,64,106724,1,0,0:0:0:0:
344,324,106881,1,0,0:0:0:0:
92,264,107037,1,0,0:0:0:0:
240,188,107194,2,0,B|316:216|304:164|216:116|332:140,1,142.500005435944
408,36,107507,6,0,P|476:80|460:160,1,142.500005435944
276,356,107820,1,0,0:0:0:0:
464,232,107976,1,0,0:0:0:0:
76,60,108133,1,0,0:0:0:0:
384,204,108289,1,0,0:0:0:0:
384,204,108368,1,0,0:0:0:0:
384,204,108446,1,0,0:0:0:0:
196,340,108602,1,0,0:0:0:0:
296,44,108759,2,0,B|224:32|308:168|200:52|200:136,1,142.500005435944
388,120,109072,5,0,0:0:0:0:
92,60,109228,1,0,0:0:0:0:
424,216,109385,1,0,0:0:0:0:
220,352,109541,1,0,0:0:0:0:
208,84,109698,2,0,B|236:48|184:28|240:0|224:104|288:84,1,142.500005435944
464,160,110011,2,0,P|424:220|336:200,1,142.500005435944
60,136,110324,5,0,0:0:0:0:
68,96,110402,1,0,0:0:0:0:
104,76,110480,1,0,0:0:0:0:
144,88,110558,1,0,0:0:0:0:
152,128,110637,1,0,0:0:0:0:
136,168,110715,1,0,0:0:0:0:
120,208,110793,1,0,0:0:0:0:
132,248,110871,1,0,0:0:0:0:
168,292,110950,5,0,0:0:0:0:
220,316,111028,1,0,0:0:0:0:
276,308,111106,1,0,0:0:0:0:
320,272,111184,1,0,0:0:0:0:
344,220,111263,1,0,0:0:0:0:
336,164,111341,1,0,0:0:0:0:
308,116,111419,1,0,0:0:0:0:
264,80,111497,1,0,0:0:0:0:
208,60,111576,6,0,P|132:96|124:120,1,71.2500027179719
44,244,111732,1,0,0:0:0:0:
88,300,111810,1,0,0:0:0:0:
152,332,111889,1,0,0:0:0:0:
224,328,111967,1,0,0:0:0:0:
272,276,112045,1,0,0:0:0:0:
280,204,112123,1,0,0:0:0:0:
312,140,112202,6,0,P|384:68|432:68,1,142.500005435944,4|0,1:0|0:0,0:0:0:0:
484,288,112515,1,4,2:0:0:0:
60,84,112671,1,4,2:0:0:0:
160,344,112828,1,4,2:0:0:0:
160,344,112906,1,0,0:0:0:0:
160,344,112984,1,0,0:0:0:0:
416,152,113141,2,0,B|348:224|368:140|376:68|296:128,1,142.500005435944
48,192,113454,5,2,0:0:0:0:
344,360,113610,1,2,0:0:0:0:
248,28,113767,1,2,0:0:0:0:
260,360,113923,1,2,0:0:0:0:
476,192,114080,1,0,0:0:0:0:
476,192,114158,1,0,0:0:0:0:
476,192,114236,1,0,0:0:0:0:
136,48,114393,2,0,B|36:80|32:28|88:80|108:120|48:120,1,142.500005435944
320,192,114706,6,0,P|376:148|372:76,1,142.500005435944,4|0,2:0|0:0,0:0:0:0:
136,48,115019,1,0,0:0:0:0:
388,304,115175,1,0,0:0:0:0:
316,52,115332,1,0,0:0:0:0:
252,328,115488,1,0,0:0:0:0:
456,156,115645,1,0,0:0:0:0:
456,156,115723,1,0,0:0:0:0:
456,156,115801,1,0,0:0:0:0:
56,200,115958,1,2,0:0:0:0:
200,56,116114,5,2,0:0:0:0:
104,320,116271,1,2,0:0:0:0:
364,360,116427,1,2,0:0:0:0:
184,120,116583,1,0,0:0:0:0:
488,60,116740,1,0,0:0:0:0:
240,304,116896,1,0,0:0:0:0:
424,228,117053,1,0,0:0:0:0:
408,168,117131,1,0,0:0:0:0:
368,120,117209,2,0,B|316:72|392:56|360:24|280:80,1,142.500005435944,4|0,2:0|0:0,0:0:0:0:
64,192,117522,6,0,P|72:276|148:288,1,142.500005435944
268,32,117835,1,0,0:0:0:0:
268,32,117914,1,0,0:0:0:0:
268,32,117992,1,0,0:0:0:0:
468,184,118148,1,0,0:0:0:0:
172,72,118305,1,0,0:0:0:0:
228,368,118461,1,0,0:0:0:0:
468,72,118618,2,0,B|408:108|420:36|424:132|432:164|372:140,1,142.500005435944
120,24,118931,5,0,0:0:0:0:
360,252,119087,1,0,0:0:0:0:
376,16,119244,1,0,0:0:0:0:
296,340,119400,1,0,0:0:0:0:
480,148,119557,1,0,0:0:0:0:
480,148,119635,1,0,0:0:0:0:
480,148,119713,1,2,0:0:0:0:
88,156,119870,1,2,0:0:0:0:
412,96,120026,1,2,0:0:0:0:
68,76,120183,5,2,0:0:0:0:
404,224,120339,1,2,0:0:0:0:
480,64,120496,5,2,0:0:0:0:
68,252,120652,1,2,0:0:0:0:
208,48,120809,2,0,B|288:48|292:-4|248:104|304:140,1,142.500005435944,4|0,2:0|0:0,0:0:0:0:
284,172,121044,1,0,0:0:0:0:
308,224,121122,1,0,0:0:0:0:
352,260,121200,1,0,0:0:0:0:
408,276,121278,1,0,0:0:0:0:
464,260,121357,1,0,0:0:0:0:
492,212,121435,2,0,P|488:128|464:116,1,71.2500027179719
328,32,121591,6,0,P|244:56|232:80,1,71.2500027179719,0|2,0:0|0:0,0:0:0:0:
60,132,121748,1,2,0:0:0:0:
96,176,121826,1,2,0:0:0:0:
104,232,121904,1,2,0:0:0:0:
72,280,121983,1,8,0:0:0:0:
96,332,122061,1,8,0:0:0:0:
148,352,122139,2,0,P|236:332|248:304,1,71.2500027179719,0|4,1:0|2:0,0:0:0:0:
480,160,122374,1,0,0:0:0:0:
480,316,122530,6,0,B|408:280|432:352|384:372|368:272,1,142.500005435944,8|0,0:0|0:0,0:0:0:0:
144,276,122843,1,0,0:0:0:0:
480,160,123000,1,0,0:0:0:0:
100,100,123156,1,0,0:0:0:0:
144,64,123235,1,0,0:0:0:0:
196,44,123313,1,0,0:0:0:0:
256,352,123469,5,0,0:0:0:0:
376,141,123626,2,0,B|392:217|488:49|408:237|520:177,1,142.500005435944,8|0,0:0|0:0,0:0:0:0:
256,352,123939,1,8,0:0:0:0:
120,72,124095,2,0,B|104:148|8:-20|88:168|-24:108,1,142.500005435944,0|8,0:0|0:0,0:0:0:0:
256,352,124408,1,0,0:0:0:0:
392,28,124565,2,0,B|408:104|504:-64|424:124|536:64,1,142.500005435944,8|0,0:0|0:0,0:0:0:0:
248,180,124878,1,2,0:0:0:0:
184,184,124956,1,2,0:0:0:0:
148,236,125034,2,0,B|132:324|184:328|144:372|68:300,1,142.500005435944,8|0,0:0|0:0,0:0:0:0:
48,84,125347,6,0,P|108:40|192:40,1,142.500005435944
484,124,125660,1,0,0:0:0:0:
244,272,125817,1,2,0:0:0:0:
272,320,125895,1,2,0:0:0:0:
320,352,125973,1,2,0:0:0:0:
384,56,126130,1,0,0:0:0:0:
80,164,126286,5,2,0:0:0:0:
96,220,126364,1,0,0:0:0:0:
132,268,126443,1,2,0:0:0:0:
188,284,126521,1,0,0:0:0:0:
244,272,126599,1,2,0:0:0:0:
480,268,126756,1,2,0:0:0:0:
140,36,126912,2,0,B|100:100|76:64|160:120|184:152|132:148,1,142.500005435944,2|0,0:0|0:0,0:0:0:0:
272,352,127225,1,4,2:0:0:0:
424,188,127382,5,0,0:0:0:0:
204,80,127538,2,0,B|292:128|220:48|252:16|368:88|372:48,1,142.500005435944,8|0,0:0|0:0,0:0:0:0:
488,160,127851,1,0,0:0:0:0:
144,236,128008,1,0,0:0:0:0:
420,300,128164,1,0,0:0:0:0:
432,244,128242,1,0,0:0:0:0:
424,188,128321,1,0,0:0:0:0:
228,36,128477,5,0,0:0:0:0:
88,288,128634,2,0,B|120:368|216:292|168:268|192:380|248:344,1,142.500005435944,8|0,0:0|0:0,0:0:0:0:
456,172,128947,1,0,0:0:0:0:
80,144,129103,2,0,P|132:92|236:76,1,142.500005435944,8|0,0:0|0:0,0:0:0:0:
432,276,129416,1,0,0:0:0:0:
384,308,129494,1,0,0:0:0:0:
328,312,129573,2,0,B|224:284|304:240|304:204|216:208|224:288,1,142.500005435944,8|0,0:0|0:0,0:0:0:0:
472,88,129886,1,0,0:0:0:0:
152,328,130042,2,0,P|80:284|80:204,1,142.500005435944,8|0,0:0|0:0,0:0:0:0:
316,80,130355,6,0,B|316:116|412:160|444:156|344:164|344:164,1,142.500005435944
72,52,130668,1,0,0:0:0:0:
420,236,130824,1,2,0:0:0:0:
224,96,130981,1,2,0:0:0:0:
184,136,131059,1,0,0:0:0:0:
132,156,131137,1,2,0:0:0:0:
80,184,131216,1,0,0:0:0:0:
56,236,131294,1,2,0:0:0:0:
80,288,131372,5,0,0:0:0:0:
136,304,131450,1,2,0:0:0:0:
176,264,131529,1,0,0:0:0:0:
200,212,131607,1,2,0:0:0:0:
244,180,131685,1,0,0:0:0:0:
300,168,131763,2,0,P|380:200|400:232,1,71.2500027179719,4|0,2:0|0:0,0:0:0:0:
268,344,131920,2,0,P|251:312|247:277,1,71.2500027179719,4|0,2:0|0:0,0:0:0:0:
312,36,132076,1,0,0:0:0:0:
364,60,132155,1,0,0:0:0:0:
404,100,132233,2,0,B|444:172|312:216|248:388|352:408|520:376|576:176|408:200|304:224|240:264|-20:392|216:348|-48:376|-176:-4|272:-100|300:196,1,1140,4|0,1:0|2:0,0:0:0:0:
