osu file format v14

[General]
AudioFilename: audio.mp3
AudioLeadIn: 0
PreviewTime: 36421
Countdown: 0
SampleSet: None
StackLeniency: 0.7
Mode: 0
LetterboxInBreaks: 0
WidescreenStoryboard: 1

[Editor]
Bookmarks: 67092,68817,75910,87412
DistanceSpacing: 2.8
BeatDivisor: 4
GridSize: 32
TimelineZoom: 1

[Metadata]
Title:My Hero Academia
TitleUnicode:My Hero Academia
Artist:Giorgio Vanni
ArtistUnicode:Giorgio Vanni
Creator:nicostrike
Version:Normal
Source:僕のヒーローアカデミア
Tags:Italian Sigla Opening Anime
BeatmapID:1837493
BeatmapSetID:873325

[Difficulty]
HPDrainRate:4
CircleSize:3.5
OverallDifficulty:5
ApproachRate:5
SliderMultiplier:1.1
SliderTickRate:1

[Events]
//Background and Video events
0,0,"My Hero Academia.jpg",0,0
//Break Periods
//Storyboard Layer 0 (Background)
//Storyboard Layer 1 (Fail)
//Storyboard Layer 2 (Pass)
//Storyboard Layer 3 (Foreground)
//Storyboard Sound Samples

[TimingPoints]
0,383.386581469649,4,3,0,32,1,0
36421,-100,4,3,0,32,0,1
60958,-100,4,3,0,32,0,0
86645,-100,4,3,0,5,0,0

[Colours]
Combo1 : 255,255,0
Combo2 : 168,0,0
Combo3 : 0,0,160
Combo4 : 0,64,64

[HitObjects]
275,328,191,6,0,L|294:202,1,110
201,178,766,2,0,L|196:116,1,55
272,58,1150,6,0,P|322:45|351:43,3,55
432,94,1916,2,0,P|489:135|432:199,1,165
344,189,2683,6,0,L|357:262,3,55
292,321,3450,2,0,B|188:301|230:357|120:341,1,165
45,297,4217,6,0,L|37:230,1,55
128,197,4600,2,0,L|139:130,1,55
217,84,4984,2,0,P|290:88|388:56,1,165
471,92,5750,6,0,P|440:132|432:150,1,55
399,227,6134,2,0,P|355:205|330:199,1,55
261,248,6517,2,0,P|207:259|152:255,1,110
67,203,7092,2,0,P|94:178|121:163,1,55
205,142,7476,6,0,L|184:86,2,55
292,111,8051,2,0,B|400:80|358:143|469:116,1,165
405,206,8817,6,0,P|371:201|341:192,1,55
239,245,9201,2,0,P|191:252|174:251,1,55
87,230,9584,2,0,L|103:341,1,110
192,377,10159,2,0,P|217:365|243:354,1,55
331,307,10543,5,0,0:0:0:0:
331,307,10734,2,0,P|312:285|286:268,3,55
191,274,11501,2,0,L|181:205,1,55
251,133,11884,5,0,0:0:0:0:
251,133,12076,2,0,B|348:110|316:176|414:154,1,165
464,59,12843,2,0,P|428:50|386:53,1,55
246,230,13418,6,0,P|194:212|161:169,1,110
78,98,13993,2,0,P|61:133|56:160,1,55
92,252,14376,2,0,L|38:239,1,55
76,343,14760,5,0,0:0:0:0:
76,343,14952,2,0,P|127:333|191:328,1,110
290,360,15527,2,0,L|304:297,1,55
213,240,15910,2,0,L|199:177,1,55
275,105,16293,5,0,0:0:0:0:
275,105,16485,2,0,B|351:100|325:130|400:124,1,110
469,191,17060,2,0,P|431:200|403:211,1,55
353,300,17444,2,0,P|314:279|286:270,1,55
197,302,17827,5,0,0:0:0:0:
197,302,18019,2,0,L|179:189,1,110
96,120,18594,2,0,L|85:186,1,55
96,284,18977,2,0,B|166:275|145:309|210:300,1,110
300,251,19552,6,0,P|280:221|251:202,1,55
156,190,19936,1,0,0:0:0:0:
156,190,20127,2,0,P|175:143|179:119,1,55
228,41,20511,2,0,B|298:36|277:71|340:65,1,110
439,37,21086,6,0,L|430:99,1,55
458,198,21469,1,0,0:0:0:0:
458,198,21661,2,0,P|420:184|389:179,1,55
305,226,22044,2,0,P|231:250|186:254,1,110
94,313,22619,6,0,P|145:325|168:336,2,55
16,219,23194,2,0,P|35:180|44:156,1,55
120,93,23578,2,0,B|197:80|168:116|245:106,1,110
338,60,24153,6,0,P|332:99|332:123,1,55
387,222,24536,1,0,0:0:0:0:
387,222,24920,2,0,P|345:208|320:202,1,55
222,251,25303,5,0,0:0:0:0:
222,251,25686,2,0,P|181:263|148:265,1,55
52,229,26070,1,0,0:0:0:0:
52,229,26453,2,0,L|44:168,1,55
142,101,26837,5,0,0:0:0:0:
142,101,27220,2,0,P|176:81|211:71,1,55
303,118,27603,1,0,0:0:0:0:
303,118,27987,2,0,P|351:101|368:85,1,55
459,40,28370,5,0,0:0:0:0:
459,40,28753,2,0,L|470:104,1,55
397,192,29137,1,0,0:0:0:0:
397,192,29520,2,0,L|390:259,1,55
465,343,29904,5,0,0:0:0:0:
465,343,30287,2,0,P|429:356|388:359,1,55
280,365,30670,1,0,0:0:0:0:
280,365,31054,2,0,P|290:325|309:292,1,55
396,226,31437,5,0,0:0:0:0:
396,226,31821,2,0,P|367:202|338:189,1,55
234,131,32204,1,0,0:0:0:0:
234,131,32587,2,0,P|279:113|305:98,1,55
381,18,32971,1,0,0:0:0:0:
256,192,33354,12,0,34504,0:0:0:0:
195,117,35463,6,0,L|140:107,1,55
247,207,35846,2,0,L|302:197,1,55
185,282,36230,1,0,0:0:0:0:
305,358,36421,6,0,B|375:366|357:331|423:338,1,110
299,246,36996,2,0,P|260:222|244:208,1,55
396,208,37380,2,0,P|435:184|451:170,1,55
293,115,37763,6,0,B|199:93|207:148|123:139,1,165
3,80,38530,2,0,L|16:155,1,55
84,270,38913,2,0,L|100:210,1,55
207,123,39297,2,0,L|219:188,1,55
206,309,39680,6,0,B|368:263|316:369|474:315,1,275
95,108,41214,5,0,0:0:0:0:
95,108,41405,2,0,L|88:169,1,55
138,297,41789,2,0,P|174:263|197:249,1,55
296,224,42172,2,0,P|283:189|278:151,1,55
213,44,42555,6,0,P|204:94|181:156,1,110
81,256,43130,2,0,P|96:296|103:324,1,55
229,368,43514,2,0,P|262:342|285:330,1,55
411,348,43897,6,0,B|433:250|369:289|397:172,1,165
383,45,44664,2,0,P|358:77|334:101,1,55
279,213,45047,2,0,P|240:193|220:188,1,55
83,157,45431,2,0,P|129:129|145:114,1,55
64,255,45814,6,0,B|228:233|155:333|327:292,1,275
153,65,47348,1,0,0:0:0:0:
153,65,47539,2,0,P|109:47|92:43,1,55
210,150,47923,2,0,P|254:136|279:132,1,55
164,238,48306,5,0,0:0:0:0:
164,238,48498,2,0,B|266:258|234:202|324:227,1,165
451,292,49265,2,0,L|444:230,1,55
346,341,49648,2,0,P|298:325|282:323,1,55
155,363,50031,6,0,P|64:344|80:268,1,165
194,228,50798,2,0,P|210:185|215:171,1,55
71,148,51182,2,0,P|61:120|52:72,1,55
188,44,51565,6,0,B|302:32|263:82|366:76,1,165
488,57,52332,2,0,P|465:75|441:107,1,55
456,237,52715,2,0,P|429:221|399:211,1,55
276,274,53099,2,0,P|241:284|217:286,1,55
91,343,53482,6,0,B|72:241|127:273|106:172,1,165
361,336,54824,6,0,P|348:300|331:271,1,55
226,211,55207,1,0,0:0:0:0:
226,211,55399,2,0,P|266:154|303:124,1,110
425,66,55974,5,0,0:0:0:0:
425,66,56166,2,0,B|342:67|384:20|262:23,1,165
134,66,56932,2,0,P|163:94|183:127,1,55
292,183,57316,2,0,P|265:223|251:237,1,55
185,350,57699,6,0,P|153:318|126:300,1,55
11,257,58083,2,0,P|57:235|79:222,1,55
192,178,58466,2,0,P|169:153|145:136,1,55
22,80,58849,2,0,P|64:64|92:55,1,55
217,56,59233,1,0,0:0:0:0:
256,192,59616,12,0,60575,0:0:0:0:
322,62,60958,6,0,P|263:50|310:205,1,330
418,247,62300,6,0,P|350:282|276:351,1,165
164,321,63067,1,0,0:0:0:0:
403,356,63450,1,0,0:0:0:0:
201,219,63833,1,0,0:0:0:0:
391,369,64217,1,0,0:0:0:0:
338,133,64600,5,0,0:0:0:0:
338,133,64792,2,0,P|322:174|315:200,1,55
216,248,65175,2,0,P|232:295|244:316,1,55
334,368,65559,5,0,0:0:0:0:
334,368,65750,2,0,P|332:325|320:289,2,55
421,283,66325,2,0,P|432:248|444:222,1,55
336,166,66709,1,0,0:0:0:0:
256,192,67092,12,0,68626,0:0:0:0:
320,117,69392,6,0,L|375:107,1,55
268,207,69775,2,0,L|213:197,1,55
81,140,70159,6,0,P|97:186|103:217,1,55
57,330,70543,2,0,P|36:288|27:259,1,55
150,363,70926,1,0,0:0:0:0:
150,363,71118,2,0,P|186:345|211:339,1,55
342,357,71501,1,0,0:0:0:0:
437,134,71884,5,0,0:0:0:0:
437,134,72076,2,0,P|445:173|448:197,1,55
403,301,72460,2,0,P|377:263|355:242,1,55
251,236,72843,2,0,P|262:197|274:171,1,55
327,78,73226,6,0,P|281:85|260:86,1,55
153,57,73610,2,0,P|165:99|168:132,1,55
87,202,73993,1,0,0:0:0:0:
87,202,74185,2,0,P|70:249|67:269,1,55
120,363,74568,1,0,0:0:0:0:
309,211,74952,5,0,0:0:0:0:
309,211,75144,2,0,P|317:250|320:274,1,55
394,361,75528,2,0,P|420:323|442:302,1,55
507,227,75910,2,0,P|483:198|470:172,1,55
424,72,76293,6,0,P|390:85|359:84,1,55
258,131,76677,2,0,P|227:103|205:89,1,55
94,94,77060,1,0,0:0:0:0:
94,94,77252,2,0,P|112:138|122:153,1,55
198,233,77635,1,0,0:0:0:0:
389,84,78019,5,0,0:0:0:0:
389,84,78210,2,0,P|352:75|329:72,1,55
249,142,78594,2,0,P|204:160|189:162,1,55
99,210,78977,2,0,P|129:242|138:266,1,55
163,358,79361,6,0,P|196:319|217:304,1,55
307,333,79744,2,0,P|346:317|362:307,1,55
402,210,80127,1,0,0:0:0:0:
402,210,80319,2,0,P|363:202|335:207,1,55
253,260,80702,1,0,0:0:0:0:
71,134,81086,5,0,0:0:0:0:
71,134,81277,2,0,P|120:108|126:106,1,55
261,46,81661,6,0,P|240:92|236:116,1,55
292,240,82044,2,0,P|316:198|327:168,1,55
420,75,82428,1,0,0:0:0:0:
256,192,82811,12,0,86645,0:0:0:0:
