osu file format v14

[General]
AudioFilename: audio.mp3
AudioLeadIn: 0
PreviewTime: 63744
Countdown: 0
SampleSet: Normal
StackLeniency: 1
Mode: 0
LetterboxInBreaks: 0
WidescreenStoryboard: 1

[Editor]
Bookmarks: 120710
DistanceSpacing: 0.7
BeatDivisor: 4
GridSize: 4
TimelineZoom: 1.5

[Metadata]
Title:Maledetti Scarafaggi
TitleUnicode:Maledetti Scarafaggi
Artist:Giorgio Vanni
ArtistUnicode:Giorgio Vanni
Creator:Chewin
Version:NORMAL
Source:
Tags:Gero Oggy et les cafards Gaumont Xilam Mediaset Cartone Animato Italiano GNEGNEGNE
BeatmapID:1027708
BeatmapSetID:465035

[Difficulty]
HPDrainRate:3
CircleSize:3
OverallDifficulty:3
ApproachRate:4
SliderMultiplier:1.2
SliderTickRate:1

[Events]
//Background and Video events
0,0,"1.png",0,0
//Break Periods
//Storyboard Layer 0 (Background)
//Storyboard Layer 1 (Fail)
//Storyboard Layer 2 (Pass)
//Storyboard Layer 3 (Foreground)
//Storyboard Sound Samples

[TimingPoints]
879,337.078651685393,4,1,1,40,1,0
7620,-100,4,1,1,40,0,0
18407,-100,4,1,1,40,0,1
29109,-100,4,1,1,40,0,0
29193,-100,4,1,1,40,0,1
39980,-100,4,1,1,40,0,0
61553,-100,4,1,1,40,0,0
64249,-100,4,1,1,40,0,1
74952,-100,4,1,1,40,0,0
75036,-100,4,1,1,40,0,1
85822,-100,4,1,1,40,0,0
107395,-100,4,1,1,40,0,0
110092,-100,4,1,1,40,0,0

[Colours]
Combo1 : 45,108,225
Combo2 : 0,128,64
Combo3 : 209,131,252
Combo4 : 255,128,64

[HitObjects]
120,52,879,6,0,L|112:196,1,120,4|0,0:0|0:0,0:0:0:0:
108,256,1553,1,0,0:0:0:0:
208,348,2227,6,0,P|292:344|344:296,1,120,4|0,0:0|0:0,0:0:0:0:
376,264,2901,1,0,0:0:0:0:
256,180,3575,6,0,L|264:48,2,120,4|0|0,0:0|0:0|0:0,0:0:0:0:
252,264,4586,1,0,0:0:0:0:
256,192,4923,12,0,6272,0:0:0:0:
440,68,7620,6,0,L|448:204,1,120,4|8,0:0|0:0,0:0:0:0:
452,272,8294,2,0,P|364:272|316:220,1,120,0|8,0:0|0:0,0:0:0:0:
316,176,8968,2,0,P|244:180|188:232,1,120,0|10,0:0|0:0,0:0:0:0:
176,284,9643,1,2,0:0:0:0:
24,352,10317,6,0,L|20:192,1,120,4|8,0:0|0:0,0:0:0:0:
28,148,10991,2,0,P|104:152|152:192,1,120,0|8,0:0|0:0,0:0:0:0:
192,240,11665,2,0,P|252:236|308:188,1,120,0|10,0:0|0:0,0:0:0:0:
344,128,12339,1,2,0:0:0:0:
496,200,13013,6,0,L|488:328,1,120,4|8,0:0|0:0,0:0:0:0:
420,368,13687,2,0,P|348:348|312:280,1,120,0|8,0:0|0:0,0:0:0:0:
316,232,14362,2,0,P|252:228|192:276,1,120,0|10,0:0|0:0,0:0:0:0:
184,336,15036,1,2,0:0:0:0:
20,292,15710,5,4,0:0:0:0:
24,208,16047,2,0,L|28:72,1,120
176,12,17058,1,0,0:0:0:0:
280,144,17732,2,0,L|272:292,1,120,0|8,0:0|0:0,0:0:0:0:
200,312,18407,6,0,P|252:348|332:332,1,120,4|8,0:0|0:0,0:0:0:0:
384,308,19081,2,0,P|416:264|416:180,1,120,0|8,0:0|0:0,0:0:0:0:
456,124,19755,1,0,0:0:0:0:
456,124,19923,2,0,L|304:128,1,120,0|0,0:0|0:0,0:0:0:0:
256,224,20766,1,8,0:0:0:0:
208,292,21103,6,0,P|144:312|56:264,1,120,4|8,0:0|0:0,0:0:0:0:
36,236,21777,2,0,L|36:104,1,120,0|8,0:0|0:0,0:0:0:0:
40,32,22452,1,0,0:0:0:0:
40,32,22620,2,0,P|116:36|164:80,1,120,0|0,0:0|0:0,0:0:0:0:
256,132,23463,1,8,0:0:0:0:
300,60,23800,6,0,L|440:64,1,120,0|8,0:0|0:0,0:0:0:0:
500,84,24474,2,0,P|508:164|488:216,1,120,0|8,0:0|0:0,0:0:0:0:
424,240,25148,1,0,0:0:0:0:
424,240,25317,2,0,L|432:364,1,120,0|0,0:0|0:0,0:0:0:0:
312,316,26159,1,8,0:0:0:0:
276,240,26496,6,0,P|196:240|140:272,1,120,4|8,0:0|0:0,0:0:0:0:
132,336,27171,2,0,P|56:344|8:292,1,120,0|8,0:0|0:0,0:0:0:0:
24,236,27845,2,0,L|20:92,1,120,0|8,0:0|0:0,0:0:0:0:
152,12,28856,1,8,0:0:0:0:
196,84,29193,6,0,L|348:76,1,120,4|8,0:0|0:0,0:0:0:0:
396,52,29867,2,0,P|416:124|400:180,1,120,0|8,0:0|0:0,0:0:0:0:
328,200,30541,1,0,0:0:0:0:
328,200,30710,2,0,P|320:256|340:344,1,120,0|0,0:0|0:0,0:0:0:0:
444,368,31553,1,8,0:0:0:0:
480,292,31890,6,0,L|476:156,1,120,0|8,0:0|0:0,0:0:0:0:
464,88,32564,2,0,P|376:96|336:132,1,120,0|8,0:0|0:0,0:0:0:0:
316,188,33238,1,0,0:0:0:0:
316,188,33407,2,0,L|152:172,1,120,0|0,0:0|0:0,0:0:0:0:
116,80,34249,1,8,0:0:0:0:
44,128,34586,6,0,P|28:188|32:264,1,120,0|8,0:0|0:0,0:0:0:0:
52,328,35261,2,0,L|204:320,1,120,0|8,0:0|0:0,0:0:0:0:
244,276,35935,1,0,0:0:0:0:
244,276,36103,2,0,P|300:280|384:316,1,120
468,368,36946,1,8,0:0:0:0:
468,368,37283,5,4,0:0:0:0:
476,284,37620,1,0,0:0:0:0:
484,200,37957,1,0,0:0:0:0:
408,232,38294,2,0,P|348:232|292:188,1,120
256,128,38968,5,0,0:0:0:0:
256,128,39305,1,0,0:0:0:0:
164,272,39980,6,0,L|28:264,1,120,4|8,0:0|0:0,0:0:0:0:
20,344,40654,2,0,L|8:192,1,120,0|8,0:0|0:0,0:0:0:0:
4,140,41328,1,0,0:0:0:0:
108,8,42002,1,2,0:0:0:0:
184,160,42676,6,0,P|264:152|300:116,1,120,4|8,0:0|0:0,0:0:0:0:
328,52,43350,2,0,P|408:60|452:100,1,120,0|8,0:0|0:0,0:0:0:0:
492,148,44025,1,0,0:0:0:0:
440,308,44699,1,2,0:0:0:0:
316,196,45373,6,0,L|176:204,1,120,4|8,0:0|0:0,0:0:0:0:
140,140,46047,2,0,P|60:152|28:204,1,120,0|8,0:0|0:0,0:0:0:0:
12,260,46721,1,0,0:0:0:0:
140,368,47395,1,2,0:0:0:0:
180,204,48070,5,0,0:0:0:0:
264,212,48407,1,8,0:0:0:0:
348,220,48744,1,0,0:0:0:0:
432,368,49418,1,0,0:0:0:0:
464,204,50092,2,0,L|472:68,1,120,0|8,0:0|0:0,0:0:0:0:
476,0,50766,5,4,0:0:0:0:
476,0,51103,1,8,0:0:0:0:
344,100,51777,2,0,L|180:92,1,120,8|4,0:0|0:0,0:0:0:0:
140,88,52452,1,8,0:0:0:0:
4,188,53126,2,0,P|44:224|64:292,1,120,8|4,0:0|0:0,0:0:0:0:
84,368,53800,1,8,0:0:0:0:
216,264,54474,5,8,0:0:0:0:
216,264,54811,2,0,L|348:276,1,120,4|8,0:0|0:0,0:0:0:0:
372,352,55485,2,0,P|444:348|488:296,1,120,0|8,0:0|0:0,0:0:0:0:
484,236,56159,2,0,L|476:88,1,120,4|8,0:0|0:0,0:0:0:0:
464,32,56834,2,0,P|384:36|348:72,1,120,0|8,0:0|0:0,0:0:0:0:
320,136,57508,5,4,0:0:0:0:
256,292,58182,2,0,L|104:284,1,120,4|4,0:0|0:0,0:0:0:0:
52,280,58856,1,4,0:0:0:0:
32,112,59530,2,0,P|108:108|164:148,1,120,4|4,0:0|0:0,0:0:0:0:
200,192,60204,1,4,0:0:0:0:
272,344,60878,2,0,P|348:328|388:288,1,120,4|4,0:0|0:0,0:0:0:0:
424,228,61553,5,2,0:0:0:0:
432,60,62227,1,2,0:0:0:0:
424,228,62901,2,0,L|432:72,2,120,0|0|8,0:0|0:0|0:0,0:0:0:0:
420,312,63912,1,8,0:0:0:0:
348,352,64249,6,0,P|260:344|228:296,1,120,4|8,0:0|0:0,0:0:0:0:
244,240,64923,2,0,P|160:236|128:260,1,120,0|8,0:0|0:0,0:0:0:0:
128,340,65598,1,0,0:0:0:0:
128,340,65766,2,0,P|64:364|0:344,1,120
4,228,66609,1,8,0:0:0:0:
72,176,66946,6,0,L|84:20,1,120,0|8,0:0|0:0,0:0:0:0:
164,44,67620,2,0,L|154:163,1,120,0|8,0:0|0:0,0:0:0:0:
196,236,68294,1,0,0:0:0:0:
196,236,68463,2,0,P|272:224|316:176,1,120
380,96,69305,1,8,0:0:0:0:
450,44,69643,6,0,P|464:85|434:172,1,120,0|8,0:0|0:0,0:0:0:0:
376,204,70317,2,0,P|364:268|380:328,1,120,0|8,0:0|0:0,0:0:0:0:
444,368,70991,1,0,0:0:0:0:
444,368,71159,2,0,L|292:364,1,120,0|0,0:0|0:0,0:0:0:0:
256,256,72002,1,8,0:0:0:0:
256,256,72339,5,0,0:0:0:0:
244,172,72676,1,0,0:0:0:0:
164,192,73013,1,0,0:0:0:0:
152,336,73687,1,0,0:0:0:0:
68,352,74025,1,0,0:0:0:0:
40,272,74362,1,0,0:0:0:0:
164,160,75036,6,0,L|296:164,1,120,4|8,0:0|0:0,0:0:0:0:
332,232,75710,2,0,P|404:240|464:172,1,120,0|8,0:0|0:0,0:0:0:0:
476,140,76384,1,0,0:0:0:0:
476,140,76553,2,0,L|472:16,1,120
368,92,77395,1,8,0:0:0:0:
284,88,77732,6,0,L|136:84,1,120,0|8,0:0|0:0,0:0:0:0:
108,24,78407,2,0,P|40:28|-4:68,1,120,0|8,0:0|0:0,0:0:0:0:
8,144,79081,1,0,0:0:0:0:
8,144,79249,2,0,L|16:280,1,120,0|0,0:0|0:0,0:0:0:0:
88,368,80092,1,8,0:0:0:0:
144,304,80429,6,0,P|220:300|280:344,1,120,0|8,0:0|0:0,0:0:0:0:
324,372,81103,2,0,P|396:360|436:328,1,120,0|8,0:0|0:0,0:0:0:0:
452,256,81777,1,0,0:0:0:0:
452,256,81946,2,0,L|448:100,1,120
444,12,82789,1,8,0:0:0:0:
444,12,83126,5,0,0:0:0:0:
396,80,83463,1,0,0:0:0:0:
348,148,83800,1,0,0:0:0:0:
300,216,84137,6,0,L|304:364,2,120
256,144,85148,1,0,0:0:0:0:
124,40,85822,6,0,L|120:159,1,120
76,232,86496,2,0,P|164:232|196:200,1,120,0|8,0:0|0:0,0:0:0:0:
216,136,87170,2,0,P|280:132|332:184,1,120,0|10,0:0|0:0,0:0:0:0:
352,244,87845,1,2,0:0:0:0:
480,356,88519,6,0,L|484:196,1,120,4|8,0:0|0:0,0:0:0:0:
480,152,89193,2,0,P|404:156|356:196,1,120,0|8,0:0|0:0,0:0:0:0:
324,252,89867,2,0,P|264:248|208:200,1,120,0|10,0:0|0:0,0:0:0:0:
176,140,90541,1,2,0:0:0:0:
16,184,91215,6,0,L|24:312,1,120,4|8,0:0|0:0,0:0:0:0:
84,364,91889,2,0,P|156:344|192:276,1,120,0|8,0:0|0:0,0:0:0:0:
224,236,92564,2,0,P|284:244|336:296,1,120
360,360,93238,1,2,0:0:0:0:
468,232,93912,5,4,0:0:0:0:
468,148,94249,1,8,0:0:0:0:
392,180,94586,1,0,0:0:0:0:
360,16,95260,1,0,0:0:0:0:
288,168,95934,2,0,L|136:176,1,120,0|8,0:0|0:0,0:0:0:0:
84,168,96609,5,4,0:0:0:0:
84,168,96946,1,8,0:0:0:0:
168,312,97620,2,0,L|332:320,1,120,8|4,0:0|0:0,0:0:0:0:
372,320,98295,1,8,0:0:0:0:
472,184,98969,2,0,P|432:148|412:80,1,120,8|4,0:0|0:0,0:0:0:0:
392,4,99643,1,8,0:0:0:0:
284,136,100317,5,8,0:0:0:0:
284,136,100654,2,0,L|152:124,1,120,4|8,0:0|0:0,0:0:0:0:
136,44,101328,2,0,P|64:48|20:100,1,120,0|8,0:0|0:0,0:0:0:0:
32,164,102002,2,0,L|40:312,1,120,4|8,0:0|0:0,0:0:0:0:
48,368,102677,2,0,P|128:364|164:328,1,120
192,264,103351,5,4,0:0:0:0:
256,108,104025,2,0,L|408:116,1,120,4|4,0:0|0:0,0:0:0:0:
460,120,104699,1,4,0:0:0:0:
488,284,105373,2,0,P|412:288|356:248,1,120,4|4,0:0|0:0,0:0:0:0:
328,200,106047,1,4,0:0:0:0:
240,56,106721,2,0,P|164:72|124:112,1,120,4|4,0:0|0:0,0:0:0:0:
92,172,107396,5,2,0:0:0:0:
44,12,108070,1,2,0:0:0:0:
92,172,108744,2,0,L|84:328,2,120,0|0|8,0:0|0:0|0:0,0:0:0:0:
100,88,109755,1,8,0:0:0:0:
100,88,110092,6,0,P|152:68|216:88,1,120
268,148,110766,2,0,P|336:156|408:96,1,120,0|8,0:0|0:0,0:0:0:0:
416,60,111440,1,0,0:0:0:0:
496,208,112114,1,2,0:0:0:0:
416,356,112789,6,0,L|284:348,1,120,4|8,0:0|0:0,0:0:0:0:
220,312,113463,2,0,P|144:300|100:328,1,120,0|8,0:0|0:0,0:0:0:0:
44,372,114137,1,0,0:0:0:0:
16,208,114811,1,2,0:0:0:0:
172,272,115485,6,0,L|164:100,1,120,4|8,0:0|0:0,0:0:0:0:
116,84,116159,2,0,P|196:76|240:116,1,120,0|8,0:0|0:0,0:0:0:0:
260,172,116834,1,0,0:0:0:0:
336,24,117508,1,2,0:0:0:0:
472,120,118182,6,0,L|468:268,1,120,4|8,0:0|0:0,0:0:0:0:
440,320,118856,2,0,P|368:332|316:296,1,120,0|8,0:0|0:0,0:0:0:0:
284,240,119530,2,0,P|216:236|160:288,1,120,0|8,0:0|0:0,0:0:0:0:
132,336,120204,2,0,P|52:332|16:284,1,120,0|8,0:0|0:0,0:0:0:0:
24,224,120878,6,0,L|32:88,1,120,4|8,0:0|0:0,0:0:0:0:
48,20,121553,2,0,P|120:24|164:76,1,120,0|8,0:0|0:0,0:0:0:0:
180,132,122227,2,0,P|256:124|292:68,1,120,0|8,0:0|0:0,0:0:0:0:
332,28,122901,2,0,P|404:24|460:80,1,120,0|8,0:0|0:0,0:0:0:0:
452,132,123575,5,4,0:0:0:0:
420,208,123912,1,8,0:0:0:0:
476,268,124249,1,0,0:0:0:0:
452,348,124586,1,8,0:0:0:0:
372,368,124923,1,0,0:0:0:0:
324,296,125261,6,0,L|208:308,2,60,4|4|4,0:0|0:0|0:0,0:0:0:0:
